  0
SECTION
  2
HEADER
  9
$ACADVER
  1
AC1021
  9
$ACADMAINTVER
 70
     1
  9
$DWGCODEPAGE
  3
ANSI_1252
  9
$LASTSAVEDBY
  1
henry
  9
$INSBASE
 10
0.0
 20
0.0
 30
0.0
  9
$EXTMIN
 10
934.6982574511775
 20
938.4924642519317
 30
0.0
  9
$EXTMAX
 10
975.360525239496
 20
964.1806205357255
 30
0.0
  9
$LIMMIN
 10
0.0
 20
0.0
  9
$LIMMAX
 10
420.0
 20
297.0
  9
$ORTHOMODE
 70
     0
  9
$REGENMODE
 70
     1
  9
$FILLMODE
 70
     1
  9
$QTEXTMODE
 70
     0
  9
$MIRRTEXT
 70
     0
  9
$LTSCALE
 40
1.0
  9
$ATTMODE
 70
     1
  9
$TEXTSIZE
 40
2.5
  9
$TRACEWID
 40
1.0
  9
$TEXTSTYLE
  7
Lorient
  9
$CLAYER
  8
0
  9
$CELTYPE
  6
ByLayer
  9
$CECOLOR
 62
   256
  9
$CELTSCALE
 40
1.0
  9
$DISPSILH
 70
     0
  9
$DIMSCALE
 40
1.0
  9
$DIMASZ
 40
0.3
  9
$DIMEXO
 40
0.2
  9
$DIMDLI
 40
3.75
  9
$DIMRND
 40
0.0
  9
$DIMDLE
 40
0.0
  9
$DIMEXE
 40
0.2
  9
$DIMTP
 40
0.0
  9
$DIMTM
 40
0.0
  9
$DIMTXT
 40
0.5
  9
$DIMCEN
 40
2.5
  9
$DIMTSZ
 40
0.0
  9
$DIMTOL
 70
     0
  9
$DIMLIM
 70
     0
  9
$DIMTIH
 70
     0
  9
$DIMTOH
 70
     0
  9
$DIMSE1
 70
     0
  9
$DIMSE2
 70
     0
  9
$DIMTAD
 70
     1
  9
$DIMZIN
 70
     8
  9
$DIMBLK
  1

  9
$DIMASO
 70
     1
  9
$DIMSHO
 70
     1
  9
$DIMPOST
  1

  9
$DIMAPOST
  1

  9
$DIMALT
 70
     0
  9
$DIMALTD
 70
     3
  9
$DIMALTF
 40
0.03937007874016
  9
$DIMLFAC
 40
1.0
  9
$DIMTOFL
 70
     1
  9
$DIMTVP
 40
0.0
  9
$DIMTIX
 70
     0
  9
$DIMSOXD
 70
     0
  9
$DIMSAH
 70
     0
  9
$DIMBLK1
  1

  9
$DIMBLK2
  1

  9
$DIMSTYLE
  2
Lorient
  9
$DIMCLRD
 70
     0
  9
$DIMCLRE
 70
     0
  9
$DIMCLRT
 70
     0
  9
$DIMTFAC
 40
1.0
  9
$DIMGAP
 40
0.1
  9
$DIMJUST
 70
     0
  9
$DIMSD1
 70
     0
  9
$DIMSD2
 70
     0
  9
$DIMTOLJ
 70
     0
  9
$DIMTZIN
 70
     8
  9
$DIMALTZ
 70
     0
  9
$DIMALTTZ
 70
     0
  9
$DIMUPT
 70
     0
  9
$DIMDEC
 70
     2
  9
$DIMTDEC
 70
     2
  9
$DIMALTU
 70
     2
  9
$DIMALTTD
 70
     3
  9
$DIMTXSTY
  7
Lorient
  9
$DIMAUNIT
 70
     0
  9
$DIMADEC
 70
     0
  9
$DIMALTRND
 40
0.0
  9
$DIMAZIN
 70
     0
  9
$DIMDSEP
 70
    46
  9
$DIMATFIT
 70
     3
  9
$DIMFRAC
 70
     0
  9
$DIMLDRBLK
  1

  9
$DIMLUNIT
 70
     2
  9
$DIMLWD
 70
    -2
  9
$DIMLWE
 70
    -2
  9
$DIMTMOVE
 70
     0
  9
$DIMFXL
 40
1.0
  9
$DIMFXLON
 70
     0
  9
$DIMJOGANG
 40
0.7853981633974483
  9
$DIMTFILL
 70
     0
  9
$DIMTFILLCLR
 70
     0
  9
$DIMARCSYM
 70
     0
  9
$DIMLTYPE
  6

  9
$DIMLTEX1
  6

  9
$DIMLTEX2
  6

  9
$LUNITS
 70
     2
  9
$LUPREC
 70
     4
  9
$SKETCHINC
 40
1.0
  9
$FILLETRAD
 40
0.0
  9
$AUNITS
 70
     0
  9
$AUPREC
 70
     0
  9
$MENU
  1
.
  9
$ELEVATION
 40
0.0
  9
$PELEVATION
 40
0.0
  9
$THICKNESS
 40
0.0
  9
$LIMCHECK
 70
     0
  9
$CHAMFERA
 40
0.0
  9
$CHAMFERB
 40
0.0
  9
$CHAMFERC
 40
0.0
  9
$CHAMFERD
 40
0.0
  9
$SKPOLY
 70
     0
  9
$TDCREATE
 40
2458418.444946701
  9
$TDUCREATE
 40
2458418.403280035
  9
$TDUPDATE
 40
2458418.514975116
  9
$TDUUPDATE
 40
2458418.473308449
  9
$TDINDWG
 40
0.0448414815
  9
$TDUSRTIMER
 40
0.0448414468
  9
$USRTIMER
 70
     1
  9
$ANGBASE
 50
0.0
  9
$ANGDIR
 70
     0
  9
$PDMODE
 70
     0
  9
$PDSIZE
 40
0.0
  9
$PLINEWID
 40
0.0
  9
$SPLFRAME
 70
     0
  9
$SPLINETYPE
 70
     6
  9
$SPLINESEGS
 70
     8
  9
$HANDSEED
  5
51C
  9
$SURFTAB1
 70
     6
  9
$SURFTAB2
 70
     6
  9
$SURFTYPE
 70
     6
  9
$SURFU
 70
     6
  9
$SURFV
 70
     6
  9
$UCSBASE
  2

  9
$UCSNAME
  2

  9
$UCSORG
 10
0.0
 20
0.0
 30
0.0
  9
$UCSXDIR
 10
1.0
 20
0.0
 30
0.0
  9
$UCSYDIR
 10
0.0
 20
1.0
 30
0.0
  9
$UCSORTHOREF
  2

  9
$UCSORTHOVIEW
 70
     0
  9
$UCSORGTOP
 10
0.0
 20
0.0
 30
0.0
  9
$UCSORGBOTTOM
 10
0.0
 20
0.0
 30
0.0
  9
$UCSORGLEFT
 10
0.0
 20
0.0
 30
0.0
  9
$UCSORGRIGHT
 10
0.0
 20
0.0
 30
0.0
  9
$UCSORGFRONT
 10
0.0
 20
0.0
 30
0.0
  9
$UCSORGBACK
 10
0.0
 20
0.0
 30
0.0
  9
$PUCSBASE
  2

  9
$PUCSNAME
  2

  9
$PUCSORG
 10
0.0
 20
0.0
 30
0.0
  9
$PUCSXDIR
 10
1.0
 20
0.0
 30
0.0
  9
$PUCSYDIR
 10
0.0
 20
1.0
 30
0.0
  9
$PUCSORTHOREF
  2

  9
$PUCSORTHOVIEW
 70
     0
  9
$PUCSORGTOP
 10
0.0
 20
0.0
 30
0.0
  9
$PUCSORGBOTTOM
 10
0.0
 20
0.0
 30
0.0
  9
$PUCSORGLEFT
 10
0.0
 20
0.0
 30
0.0
  9
$PUCSORGRIGHT
 10
0.0
 20
0.0
 30
0.0
  9
$PUCSORGFRONT
 10
0.0
 20
0.0
 30
0.0
  9
$PUCSORGBACK
 10
0.0
 20
0.0
 30
0.0
  9
$USERI1
 70
     0
  9
$USERI2
 70
     0
  9
$USERI3
 70
     0
  9
$USERI4
 70
     0
  9
$USERI5
 70
     0
  9
$USERR1
 40
0.0
  9
$USERR2
 40
0.0
  9
$USERR3
 40
0.0
  9
$USERR4
 40
0.0
  9
$USERR5
 40
0.0
  9
$WORLDVIEW
 70
     1
  9
$SHADEDGE
 70
     3
  9
$SHADEDIF
 70
    70
  9
$TILEMODE
 70
     1
  9
$MAXACTVP
 70
    64
  9
$PINSBASE
 10
0.0
 20
0.0
 30
0.0
  9
$PLIMCHECK
 70
     0
  9
$PEXTMIN
 10
0.0
 20
0.0
 30
0.0
  9
$PEXTMAX
 10
0.0
 20
0.0
 30
0.0
  9
$PLIMMIN
 10
0.0
 20
0.0
  9
$PLIMMAX
 10
12.0
 20
9.0
  9
$UNITMODE
 70
     0
  9
$VISRETAIN
 70
     1
  9
$PLINEGEN
 70
     0
  9
$PSLTSCALE
 70
     1
  9
$TREEDEPTH
 70
  3020
  9
$CMLSTYLE
  2
Standard
  9
$CMLJUST
 70
     0
  9
$CMLSCALE
 40
20.0
  9
$PROXYGRAPHICS
 70
     1
  9
$MEASUREMENT
 70
     1
  9
$CELWEIGHT
370
    -1
  9
$ENDCAPS
280
     0
  9
$JOINSTYLE
280
     0
  9
$LWDISPLAY
290
     0
  9
$INSUNITS
 70
     4
  9
$HYPERLINKBASE
  1

  9
$STYLESHEET
  1

  9
$XEDIT
290
     1
  9
$CEPSNTYPE
380
     0
  9
$PSTYLEMODE
290
     1
  9
$FINGERPRINTGUID
  2
{2C30281C-D6DC-4CF9-805D-9FA398F2B9B6}
  9
$VERSIONGUID
  2
{3646C301-36F6-40F6-969E-78F71B3776DC}
  9
$EXTNAMES
290
     1
  9
$PSVPSCALE
 40
0.0
  9
$OLESTARTUP
290
     0
  9
$SORTENTS
280
   127
  9
$INDEXCTL
280
     0
  9
$HIDETEXT
280
     1
  9
$XCLIPFRAME
290
     0
  9
$HALOGAP
280
     0
  9
$OBSCOLOR
 70
   257
  9
$OBSLTYPE
280
     0
  9
$INTERSECTIONDISPLAY
280
     0
  9
$INTERSECTIONCOLOR
 70
   257
  9
$DIMASSOC
280
     2
  9
$PROJECTNAME
  1

  9
$CAMERADISPLAY
290
     0
  9
$LENSLENGTH
 40
50.0
  9
$CAMERAHEIGHT
 40
0.0
  9
$STEPSPERSEC
 40
2.0
  9
$STEPSIZE
 40
6.0
  9
$3DDWFPREC
 40
2.0
  9
$PSOLWIDTH
 40
5.0
  9
$PSOLHEIGHT
 40
80.0
  9
$LOFTANG1
 40
1.570796326794896
  9
$LOFTANG2
 40
1.570796326794896
  9
$LOFTMAG1
 40
0.0
  9
$LOFTMAG2
 40
0.0
  9
$LOFTPARAM
 70
     7
  9
$LOFTNORMALS
280
     1
  9
$LATITUDE
 40
37.795
  9
$LONGITUDE
 40
-122.394
  9
$NORTHDIRECTION
 40
0.0
  9
$TIMEZONE
 70
 -8000
  9
$LIGHTGLYPHDISPLAY
280
     1
  9
$TILEMODELIGHTSYNCH
280
     1
  9
$CMATERIAL
347
EC
  9
$SOLIDHIST
280
     1
  9
$SHOWHIST
280
     1
  9
$DWFFRAME
280
     2
  9
$DGNFRAME
280
     0
  9
$REALWORLDSCALE
290
     1
  9
$INTERFERECOLOR
 62
     1
  9
$INTERFEREOBJVS
345
F9
  9
$INTERFEREVPVS
346
F6
  9
$CSHADOW
280
     0
  9
$SHADOWPLANELOCATION
 40
0.0
  0
ENDSEC
  0
SECTION
  2
CLASSES
  0
CLASS
  1
ACDBDICTIONARYWDFLT
  2
AcDbDictionaryWithDefault
  3
ObjectDBX Classes
 90
        0
 91
        1
280
     0
281
     0
  0
CLASS
  1
DICTIONARYVAR
  2
AcDbDictionaryVar
  3
ObjectDBX Classes
 90
        0
 91
        3
280
     0
281
     0
  0
CLASS
  1
TABLESTYLE
  2
AcDbTableStyle
  3
ObjectDBX Classes
 90
     4095
 91
        1
280
     0
281
     0
  0
CLASS
  1
MATERIAL
  2
AcDbMaterial
  3
ObjectDBX Classes
 90
     1024
 91
        3
280
     0
281
     0
  0
CLASS
  1
VISUALSTYLE
  2
AcDbVisualStyle
  3
ObjectDBX Classes
 90
     4095
 91
       16
280
     0
281
     0
  0
CLASS
  1
SORTENTSTABLE
  2
AcDbSortentsTable
  3
ObjectDBX Classes
 90
        0
 91
        4
280
     0
281
     0
  0
CLASS
  1
DIMASSOC
  2
AcDbDimAssoc
  3
"AcDbDimAssoc|Product Desc:     AcDim ARX App For Dimension|Company:          Autodesk, Inc.|WEB Address:      www.autodesk.com"
 90
        0
 91
        3
280
     0
281
     0
  0
ENDSEC
  0
SECTION
  2
TABLES
  0
TABLE
  2
VPORT
  5
8
330
0
100
AcDbSymbolTable
 70
     1
  0
VPORT
  5
EA
330
8
100
AcDbSymbolTableRecord
100
AcDbViewportTableRecord
  2
*Active
 70
     0
 10
0.0
 20
0.0
 11
1.0
 21
1.0
 12
948.0827748848826
 22
956.3493911385357
 13
0.0
 23
0.0
 14
10.0
 24
10.0
 15
10.0
 25
10.0
 16
0.0
 26
0.0
 36
1.0
 17
0.0
 27
0.0
 37
0.0
 40
23.30681090508619
 41
1.457978075517661
 42
50.0
 43
0.0
 44
0.0
 50
0.0
 51
0.0
 71
     0
 72
  1000
 73
     1
 74
     3
 75
     0
 76
     0
 77
     0
 78
     0
281
     0
 65
     1
110
0.0
120
0.0
130
0.0
111
1.0
121
0.0
131
0.0
112
0.0
122
1.0
132
0.0
 79
     0
146
0.0
348
F5
 60
     2
 61
     5
292
     1
282
     1
141
0.0
142
0.0
 63
   250
421
  3355443
  0
ENDTAB
  0
TABLE
  2
LTYPE
  5
5
330
0
100
AcDbSymbolTable
 70
     1
  0
LTYPE
  5
14
330
5
100
AcDbSymbolTableRecord
100
AcDbLinetypeTableRecord
  2
ByBlock
 70
     0
  3

 72
    65
 73
     0
 40
0.0
  0
LTYPE
  5
15
330
5
100
AcDbSymbolTableRecord
100
AcDbLinetypeTableRecord
  2
ByLayer
 70
     0
  3

 72
    65
 73
     0
 40
0.0
  0
LTYPE
  5
16
330
5
100
AcDbSymbolTableRecord
100
AcDbLinetypeTableRecord
  2
Continuous
 70
     0
  3
Solid line
 72
    65
 73
     0
 40
0.0
  0
ENDTAB
  0
TABLE
  2
LAYER
  5
2
102
{ACAD_XDICTIONARY
360
113
102
}
330
0
100
AcDbSymbolTable
 70
    12
  0
LAYER
  5
10
330
2
100
AcDbSymbolTableRecord
100
AcDbLayerTableRecord
  2
0
 70
     0
 62
     7
  6
Continuous
370
    -3
390
F
347
EE
  0
LAYER
  5
10F
330
2
100
AcDbSymbolTableRecord
100
AcDbLayerTableRecord
  2
Lorient text
 70
     0
 62
   252
  6
Continuous
370
    -3
390
F
347
EE
1001
AcAecLayerStandard
1000

1000

  0
LAYER
  5
111
330
2
100
AcDbSymbolTableRecord
100
AcDbLayerTableRecord
  2
Lorient dimension
 70
     0
 62
   252
  6
Continuous
370
    -3
390
F
347
EE
1001
AcAecLayerStandard
1000

1000

  0
LAYER
  5
112
330
2
100
AcDbSymbolTableRecord
100
AcDbLayerTableRecord
  2
Lorient profile
 70
     0
 62
   250
  6
Continuous
370
    -3
390
F
347
EE
1001
AcAecLayerStandard
1000

1000

  0
LAYER
  5
147
330
2
100
AcDbSymbolTableRecord
100
AcDbLayerTableRecord
  2
Defpoints
 70
     0
 62
     7
  6
Continuous
290
     0
370
    -3
390
F
347
EE
  0
LAYER
  5
23C
330
2
100
AcDbSymbolTableRecord
100
AcDbLayerTableRecord
  2
Lorient hatch
 70
     0
 62
   252
  6
Continuous
370
    -3
390
F
347
EE
1001
AcAecLayerStandard
1000

1000

  0
ENDTAB
  0
TABLE
  2
STYLE
  5
3
330
0
100
AcDbSymbolTable
 70
     5
  0
STYLE
  5
11
330
3
100
AcDbSymbolTableRecord
100
AcDbTextStyleTableRecord
  2
Standard
 70
     0
 40
0.0
 41
1.0
 50
0.0
 71
     0
 42
2.5
  3
txt
  4

  0
STYLE
  5
116
330
3
100
AcDbSymbolTableRecord
100
AcDbTextStyleTableRecord
  2
Lorient
 70
     0
 40
0.0
 41
1.0
 50
0.0
 71
     0
 42
2.5
  3
utsaah.ttf
  4

1001
ACAD
1000
Utsaah
1071
       34
  0
ENDTAB
  0
TABLE
  2
VIEW
  5
6
330
0
100
AcDbSymbolTable
 70
     0
  0
ENDTAB
  0
TABLE
  2
UCS
  5
7
330
0
100
AcDbSymbolTable
 70
     0
  0
ENDTAB
  0
TABLE
  2
APPID
  5
9
330
0
100
AcDbSymbolTable
 70
     3
  0
APPID
  5
12
330
9
100
AcDbSymbolTableRecord
100
AcDbRegAppTableRecord
  2
ACAD
 70
     0
  0
APPID
  5
9E
330
9
100
AcDbSymbolTableRecord
100
AcDbRegAppTableRecord
  2
ACAD_PSEXT
 70
     0
  0
APPID
  5
110
330
9
100
AcDbSymbolTableRecord
100
AcDbRegAppTableRecord
  2
AcAecLayerStandard
 70
     0
  0
ENDTAB
  0
TABLE
  2
DIMSTYLE
  5
A
330
0
100
AcDbSymbolTable
 70
    10
100
AcDbDimStyleTable
 71
     2
340
11A
340
14A
  0
DIMSTYLE
105
11A
102
{ACAD_REACTORS
330
22E
330
232
330
237
330
451
330
469
330
4E4
102
}
330
A
100
AcDbSymbolTableRecord
100
AcDbDimStyleTableRecord
  2
Lorient
 70
     0
 41
0.3
 42
0.2
 43
3.75
 44
0.2
 73
     0
 74
     0
 77
     1
 78
     8
140
0.5
141
2.5
143
0.03937007874016
147
0.1
171
     3
172
     1
271
     2
272
     2
274
     3
283
     0
284
     8
340
116
  0
DIMSTYLE
105
14A
330
A
100
AcDbSymbolTableRecord
100
AcDbDimStyleTableRecord
  2
STANDARD
 70
     0
 40
0.1999999999999997
 41
3.0
 42
3.0
 43
10.0
 44
3.0
 48
0.000000001
 73
     0
 78
     8
140
3.999999999999999
141
3.0
145
1.0
146
0.6666666666666666
147
2.0
172
     1
176
     8
178
     8
271
     2
272
     2
284
     8
288
     1
289
     0
340
116
  0
ENDTAB
  0
TABLE
  2
BLOCK_RECORD
  5
1
330
0
100
AcDbSymbolTable
 70
    19
  0
BLOCK_RECORD
  5
1F
102
{ACAD_XDICTIONARY
360
240
102
}
330
1
100
AcDbSymbolTableRecord
100
AcDbBlockTableRecord
  2
*Model_Space
340
22
 70
     0
280
     1
281
     0
  0
BLOCK_RECORD
  5
D2
330
1
100
AcDbSymbolTableRecord
100
AcDbBlockTableRecord
  2
*Paper_Space
340
D3
 70
     0
280
     1
281
     0
  0
BLOCK_RECORD
  5
D6
330
1
100
AcDbSymbolTableRecord
100
AcDbBlockTableRecord
  2
*Paper_Space0
340
D7
 70
     0
280
     1
281
     0
  0
BLOCK_RECORD
  5
46A
330
1
100
AcDbSymbolTableRecord
100
AcDbBlockTableRecord
  2
*D16
340
0
 70
     0
280
     1
281
     0
  0
BLOCK_RECORD
  5
476
330
1
100
AcDbSymbolTableRecord
100
AcDbBlockTableRecord
  2
*D17
340
0
 70
     0
280
     1
281
     0
  0
BLOCK_RECORD
  5
4E5
330
1
100
AcDbSymbolTableRecord
100
AcDbBlockTableRecord
  2
*D18
340
0
 70
     0
280
     1
281
     0
  0
ENDTAB
  0
ENDSEC
  0
SECTION
  2
BLOCKS
  0
BLOCK
  5
20
330
1F
100
AcDbEntity
  8
0
100
AcDbBlockBegin
  2
*Model_Space
 70
     0
 10
0.0
 20
0.0
 30
0.0
  3
*Model_Space
  1

  0
ENDBLK
  5
21
330
1F
100
AcDbEntity
  8
0
100
AcDbBlockEnd
  0
BLOCK
  5
D4
330
D2
100
AcDbEntity
 67
     1
  8
0
100
AcDbBlockBegin
  2
*Paper_Space
 70
     0
 10
0.0
 20
0.0
 30
0.0
  3
*Paper_Space
  1

  0
ENDBLK
  5
D5
330
D2
100
AcDbEntity
 67
     1
  8
0
100
AcDbBlockEnd
  0
BLOCK
  5
D8
330
D6
100
AcDbEntity
 67
     1
  8
0
100
AcDbBlockBegin
  2
*Paper_Space0
 70
     0
 10
0.0
 20
0.0
 30
0.0
  3
*Paper_Space0
  1

  0
ENDBLK
  5
D9
330
D6
100
AcDbEntity
 67
     1
  8
0
100
AcDbBlockEnd
  0
BLOCK
  5
474
330
46A
100
AcDbEntity
  8
0
100
AcDbBlockBegin
  2
*D16
 70
     1
 10
0.0
 20
0.0
 30
0.0
  3
*D16
  1

  0
LINE
  5
4D9
330
46A
100
AcDbEntity
  8
Lorient dimension
 62
     0
 48
100.0
370
    -2
100
AcDbLine
 10
940.203096615671
 20
951.9784934338884
 30
0.0
 11
940.203096615671
 21
949.9679752716629
 31
0.0
  0
LINE
  5
4DA
330
46A
100
AcDbEntity
  8
Lorient dimension
 62
     0
 48
100.0
370
    -2
100
AcDbLine
 10
952.2051794476999
 20
953.8558638700829
 30
0.0
 11
952.2051794476999
 21
949.9679752716629
 31
0.0
  0
LINE
  5
4DB
330
46A
100
AcDbEntity
  8
Lorient dimension
 62
     0
 48
100.0
370
    -2
100
AcDbLine
 10
940.5030966156708
 20
950.1679752716627
 30
0.0
 11
951.9051794476999
 21
950.1679752716627
 31
0.0
  0
SOLID
  5
4DC
330
46A
100
AcDbEntity
  8
Lorient dimension
 62
     0
 48
100.0
100
AcDbTrace
 10
940.5030966156708
 20
950.2179752716628
 30
0.0
 11
940.5030966156708
 21
950.1179752716629
 31
0.0
 12
940.203096615671
 22
950.1679752716627
 32
0.0
 13
940.203096615671
 23
950.1679752716627
 33
0.0
  0
SOLID
  5
4DD
330
46A
100
AcDbEntity
  8
Lorient dimension
 62
     0
 48
100.0
100
AcDbTrace
 10
951.9051794476999
 20
950.2179752716628
 30
0.0
 11
951.9051794476999
 21
950.1179752716629
 31
0.0
 12
952.2051794476999
 22
950.1679752716627
 32
0.0
 13
952.2051794476999
 23
950.1679752716627
 33
0.0
  0
MTEXT
  5
4DE
330
46A
100
AcDbEntity
  8
Lorient dimension
 62
     0
 48
100.0
100
AcDbMText
 10
946.2041398068306
 20
950.5232133669009
 30
0.0
 40
0.5
 41
0.0
 46
0.0
 71
     5
 72
     1
  1
12.0
  7
Lorient
 73
     1
 44
1.0
  0
POINT
  5
4DF
330
46A
100
AcDbEntity
  8
Defpoints
 62
     0
 48
100.0
100
AcDbPoint
 10
940.203096615671
 20
952.1784934338883
 30
0.0
  0
POINT
  5
4E0
330
46A
100
AcDbEntity
  8
Defpoints
 62
     0
 48
100.0
100
AcDbPoint
 10
952.2051794476999
 20
954.0558638700829
 30
0.0
  0
POINT
  5
4E1
330
46A
100
AcDbEntity
  8
Defpoints
 62
     0
 48
100.0
100
AcDbPoint
 10
952.2051794476999
 20
950.1679752716627
 30
0.0
  0
ENDBLK
  5
475
330
46A
100
AcDbEntity
  8
0
100
AcDbBlockEnd
  0
BLOCK
  5
480
330
476
100
AcDbEntity
  8
0
100
AcDbBlockBegin
  2
*D17
 70
     1
 10
0.0
 20
0.0
 30
0.0
  3
*D17
  1

  0
LINE
  5
4D0
330
476
100
AcDbEntity
  8
Lorient dimension
 62
     0
 48
100.0
370
    -2
100
AcDbLine
 10
945.3950474157275
 20
956.1784908691761
 30
0.0
 11
938.5268462865575
 21
956.1784817123477
 31
0.0
  0
LINE
  5
4D1
330
476
100
AcDbEntity
  8
Lorient dimension
 62
     0
 48
100.0
370
    -2
100
AcDbLine
 10
940.003097510606
 20
952.1784826195526
 30
0.0
 11
938.5268516194418
 21
952.178480651391
 31
0.0
  0
LINE
  5
4D2
330
476
100
AcDbEntity
  8
Lorient dimension
 62
     0
 48
100.0
370
    -2
100
AcDbLine
 10
938.7268466865235
 20
955.8784819789922
 30
0.0
 11
938.7268512194756
 21
952.4784809180347
 31
0.0
  0
SOLID
  5
4D3
330
476
100
AcDbEntity
  8
Lorient dimension
 62
     0
 48
100.0
100
AcDbTrace
 10
938.7768466865233
 20
955.8784820456533
 30
0.0
 11
938.6768466865236
 21
955.8784819123312
 31
0.0
 12
938.7268462865574
 22
956.1784819789918
 32
0.0
 13
938.7268462865574
 23
956.1784819789918
 33
0.0
  0
SOLID
  5
4D4
330
476
100
AcDbEntity
  8
Lorient dimension
 62
     0
 48
100.0
100
AcDbTrace
 10
938.7768512194755
 20
952.4784809846959
 30
0.0
 11
938.6768512194757
 21
952.4784808513739
 31
0.0
 12
938.7268516194419
 22
952.1784809180351
 32
0.0
 13
938.7268516194419
 23
952.1784809180351
 33
0.0
  0
MTEXT
  5
4D5
330
476
100
AcDbEntity
  8
Lorient dimension
 62
     0
 48
100.0
100
AcDbMText
 10
939.0820870482381
 20
954.1784812722166
 30
0.0
 40
0.5
 41
0.0
 46
0.0
 71
     5
 72
     1
  1
4.0
  7
Lorient
 11
0.0000013332207805
 21
-0.9999999999991112
 31
0.0
 73
     1
 44
1.0
  0
POINT
  5
4D6
330
476
100
AcDbEntity
  8
Defpoints
 62
     0
 48
100.0
100
AcDbPoint
 10
945.5950474157274
 20
956.1784911358202
 30
0.0
  0
POINT
  5
4D7
330
476
100
AcDbEntity
  8
Defpoints
 62
     0
 48
100.0
100
AcDbPoint
 10
940.2030975106059
 20
952.1784828861969
 30
0.0
  0
POINT
  5
4D8
330
476
100
AcDbEntity
  8
Defpoints
 62
     0
 48
100.0
100
AcDbPoint
 10
938.7268516194419
 20
952.1784809180351
 30
0.0
  0
ENDBLK
  5
481
330
476
100
AcDbEntity
  8
0
100
AcDbBlockEnd
  0
BLOCK
  5
4EF
330
4E5
100
AcDbEntity
  8
0
100
AcDbBlockBegin
  2
*D18
 70
     1
 10
0.0
 20
0.0
 30
0.0
  3
*D18
  1

  0
LINE
  5
4FC
330
4E5
100
AcDbEntity
  8
Lorient dimension
 62
     0
 48
100.0
370
    -2
100
AcDbLine
 10
951.8238732972729
 20
964.1806205357255
 30
0.0
 11
954.8776809025694
 21
964.1806205357255
 31
0.0
  0
LINE
  5
4FD
330
4E5
100
AcDbEntity
  8
Lorient dimension
 62
     0
 48
100.0
370
    -2
100
AcDbLine
 10
950.527812237032
 20
952.1784944439119
 30
0.0
 11
954.8776809025694
 21
952.1784944439119
 31
0.0
  0
LINE
  5
4FE
330
4E5
100
AcDbEntity
  8
Lorient dimension
 62
     0
 48
100.0
370
    -2
100
AcDbLine
 10
954.6776809025695
 20
963.8806205357255
 30
0.0
 11
954.6776809025695
 21
952.4784944439117
 31
0.0
  0
SOLID
  5
4FF
330
4E5
100
AcDbEntity
  8
Lorient dimension
 62
     0
 48
100.0
100
AcDbTrace
 10
954.6276809025695
 20
963.8806205357255
 30
0.0
 11
954.7276809025694
 21
963.8806205357255
 31
0.0
 12
954.6776809025695
 22
964.1806205357255
 32
0.0
 13
954.6776809025695
 23
964.1806205357255
 33
0.0
  0
SOLID
  5
500
330
4E5
100
AcDbEntity
  8
Lorient dimension
 62
     0
 48
100.0
100
AcDbTrace
 10
954.6276809025695
 20
952.4784944439117
 30
0.0
 11
954.7276809025694
 21
952.4784944439117
 31
0.0
 12
954.6776809025695
 22
952.1784944439119
 32
0.0
 13
954.6776809025695
 23
952.1784944439119
 33
0.0
  0
MTEXT
  5
501
330
4E5
100
AcDbEntity
  8
Lorient dimension
 62
     0
 48
100.0
100
AcDbMText
 10
954.3267285216169
 20
958.1795574898189
 30
0.0
 40
0.5
 41
0.0
 46
0.0
 71
     5
 72
     1
  1
12
  7
Lorient
 11
0.0000000000000001
 21
1.0
 31
0.0
 73
     1
 44
1.0
  0
POINT
  5
502
330
4E5
100
AcDbEntity
  8
Defpoints
 62
     0
 48
100.0
100
AcDbPoint
 10
951.6238732972729
 20
964.1806205357255
 30
0.0
  0
POINT
  5
503
330
4E5
100
AcDbEntity
  8
Defpoints
 62
     0
 48
100.0
100
AcDbPoint
 10
950.3278122370319
 20
952.1784944439119
 30
0.0
  0
POINT
  5
504
330
4E5
100
AcDbEntity
  8
Defpoints
 62
     0
 48
100.0
100
AcDbPoint
 10
954.6776809025695
 20
952.1784944439119
 30
0.0
  0
ENDBLK
  5
4F0
330
4E5
100
AcDbEntity
  8
0
100
AcDbBlockEnd
  0
ENDSEC
  0
SECTION
  2
ENTITIES
  0
HATCH
  5
445
330
1F
100
AcDbEntity
  8
Lorient hatch
 62
   252
 48
100.0
100
AcDbHatch
 10
0.0
 20
0.0
 30
0.0
210
0.0
220
0.0
230
1.0
  2
SOLID
 70
     1
 71
     0
 91
        1
 92
        7
 72
     1
 73
     1
 93
       13
 10
941.2119391661637
 20
952.8784967256722
 42
-0.1646395242294708
 10
940.3939933441945
 20
952.2988319182957
 42
0.0790873067692908
 10
940.559892126498
 20
952.1784934694817
 42
0.0
 10
950.3278122370318
 20
952.1784944439117
 42
0.0
 10
951.2664958407722
 20
953.1171791554037
 42
0.0
 10
952.2051794476997
 20
954.0558638700828
 42
0.0
 10
952.2051688948778
 20
963.8238028462899
 42
0.0790787637625709
 10
952.0848404262762
 20
963.989681858416
 42
-0.1646408512623777
 10
951.505169279636
 20
963.1717311477673
 42
0.0
 10
951.5051664082092
 20
963.1717261816149
 42
0.0
 10
951.5051782838046
 20
954.0629690785277
 42
0.0
 10
950.9129420761631
 20
953.4707321719807
 42
0.0
 10
950.3207062025083
 20
952.8784955994213
 42
0.0
 97
        0
 75
     0
 76
     1
 47
0.0169459144008998
 98
        1
 10
946.9130072772323
 20
952.6738681654155
450
        0
451
        0
460
0.0
461
0.0
452
        1
462
1.0
453
        2
463
0.0
 63
     5
421
      255
463
1.0
 63
     7
421
 16777215
470
LINEAR
1001
ACAD
1010
0.0
1020
0.0
1030
0.0
  0
LINE
  5
447
330
1F
100
AcDbEntity
  8
Lorient profile
 62
     7
100
AcDbLine
 10
949.5139540128999
 20
951.8784933433396
 30
0.0
 11
941.5139501037151
 21
951.8784933433396
 31
0.0
  0
HATCH
  5
44B
330
1F
100
AcDbEntity
  8
Lorient hatch
 62
   254
 48
100.0
100
AcDbHatch
 10
0.0
 20
0.0
 30
0.0
210
0.0
220
0.0
230
1.0
  2
SOLID
 70
     1
 71
     0
 91
        2
 92
        7
 72
     1
 73
     1
 93
        7
 10
940.5730925974573
 20
953.3476189853235
 42
0.5171422163040857
 10
940.3939933441943
 20
952.2988319182957
 42
0.1646408512622856
 10
941.2119439131314
 20
952.8785032648984
 42
0.0441495705559139
 10
945.6727352181138
 20
956.0127129214956
 42
0.0024418926562355
 10
945.6733744936302
 20
956.0134514130634
 42
0.0034720129337579
 10
945.6742709613534
 20
956.0145121104424
 42
0.9477621106543805
 10
945.5279210776721
 20
956.1504046847295
 42
-0.0622226486673409
 97
        0
 92
        7
 72
     1
 73
     1
 93
        6
 10
951.5051664082092
 20
963.1717261816149
 42
0.0
 10
951.5051664082053
 20
963.171729063348
 42
0.1646414339726062
 10
952.0848404262762
 20
963.9896818584158
 42
0.5171422163034862
 10
951.0360534030329
 20
963.8105823487597
 42
-0.0622226486673722
 10
948.2332689149226
 20
958.8557531833512
 42
0.9590515726657468
 10
948.3709607135605
 20
958.7109390765723
 42
0.0441495241003983
 97
        0
 75
     0
 76
     1
 47
0.0169459144008998
 98
        2
 10
943.905229516282
 20
954.890490964347
 10
949.0476506581567
 20
959.6974058571731
450
        0
451
        0
460
0.0
461
0.0
452
        1
462
1.0
453
        2
463
0.0
 63
     5
421
      255
463
1.0
 63
     7
421
 16777215
470
LINEAR
1001
ACAD
1010
0.0
1020
0.0
1030
0.0
  0
LINE
  5
44D
330
1F
100
AcDbEntity
  8
Lorient profile
 62
     7
100
AcDbLine
 10
952.5051795878285
 20
954.8697224482491
 30
0.0
 11
952.5051701469344
 21
962.8697263574281
 31
0.0
  0
DIMENSION
  5
451
330
1F
100
AcDbEntity
  8
Lorient dimension
 48
100.0
100
AcDbDimension
  2
*D16
 10
952.2051794476999
 20
950.1679752716627
 30
0.0
 11
946.2041398068306
 21
950.1679752716627
 31
0.0
 70
   160
  1
12.0
 71
     5
 42
12.00208283202892
 73
     0
 74
     0
 75
     0
  3
Lorient
100
AcDbAlignedDimension
 13
940.203096615671
 23
952.1784934338883
 33
0.0
 14
952.2051794476999
 24
954.0558638700829
 34
0.0
 50
0.0000217464137498
100
AcDbRotatedDimension
  0
ARC
  5
459
330
1F
100
AcDbEntity
  8
Lorient profile
 62
     7
100
AcDbCircle
 10
951.6238732972729
 20
963.5287141854199
 30
0.0
 40
0.6519063503057277
100
AcDbArc
 50
26.91415321637191
 51
45.00003380769409
  0
DIMENSION
  5
469
330
1F
100
AcDbEntity
  8
Lorient dimension
 48
100.0
100
AcDbDimension
  2
*D17
 10
938.7268516194419
 20
952.1784809180351
 30
0.0
 11
938.7268489530002
 21
954.1784807986058
 31
0.0
 70
   160
  1
4.0
 71
     5
 42
4.000001060960244
 73
     0
 74
     0
 75
     0
  3
Lorient
100
AcDbAlignedDimension
 13
945.5950474157274
 23
956.1784911358204
 33
0.0
 14
940.2030975106059
 24
952.1784828861969
 34
0.0
 50
270.0000763879239
100
AcDbRotatedDimension
  0
LEADER
  5
4B9
330
1F
100
AcDbEntity
  8
Lorient text
100
AcDbLeader
  3
Lorient
 73
     0
 40
0.362
 41
2.440666666666666
 76
     2
 10
951.5051776555241
 20
954.5448697765902
 30
0.0
 10
949.8372963593983
 20
954.6468311254043
 30
0.0
340
4BA
213
0.0
223
0.25
233
0.0
1001
ACAD
1000
DSTYLE
1002
{
1070
   147
1040
0.1
1070
    77
1070
     0
1002
}
  0
MTEXT
  5
4BA
102
{ACAD_REACTORS
330
4B9
102
}
330
1F
100
AcDbEntity
  8
Lorient text
100
AcDbMText
 10
949.7372963593981
 20
954.3968311254044
 30
0.0
 40
0.35
 41
0.0
 46
0.0
 71
     9
 72
     1
  1
RIGID PVC
  7
Lorient
 73
     1
 44
1.0
  0
LEADER
  5
4BB
330
1F
100
AcDbEntity
  8
Lorient text
100
AcDbLeader
  3
Lorient
 73
     0
 40
0.362
 41
5.984666666666666
 76
     2
 10
948.509089562459
 20
959.2349509635118
 30
0.0
 10
945.1775389903735
 20
959.8328759168552
 30
0.0
340
4BC
213
0.4796101598205951
223
0.1802711857812937
233
0.0
1001
ACAD
1000
DSTYLE
1002
{
1070
   147
1040
0.1
1070
    77
1070
     0
1002
}
  0
MTEXT
  5
4BC
102
{ACAD_REACTORS
330
4BB
102
}
330
1F
100
AcDbEntity
  8
Lorient text
100
AcDbMText
 10
944.5979288305528
 20
959.652604731074
 30
0.0
 40
0.35
 41
0.0
 46
0.0
 71
     9
 72
     1
  1
ELASTOMERIC POLYMER
  7
Lorient
 73
     1
 44
1.0
  0
LEADER
  5
4BD
330
1F
100
AcDbEntity
  8
Lorient text
100
AcDbLeader
  3
Lorient
 73
     0
 75
     1
 40
0.362
 41
5.984666666666666
 76
     3
 10
944.3578282677115
 20
955.3360344831057
 30
0.0
 10
945.1775390091945
 20
959.8329236579028
 30
0.0
 10
944.8775390091945
 20
959.8329236579028
 30
0.0
340
4BC
213
-0.0282962015676276
223
2.483045754928411
233
0.0
1001
ACAD
1000
DSTYLE
1002
{
1070
   147
1040
0.1
1070
    77
1070
     0
1002
}
  0
MTEXT
  5
4E3
102
{ACAD_REACTORS
330
4E2
102
}
330
1F
100
AcDbEntity
  8
Lorient text
100
AcDbMText
 10
957.659134843546
 20
949.172716664229
 30
0.0
 40
0.35
 41
0.0
 46
0.0
 71
     9
 72
     1
  1
DOUBLE SIDED \PADHESIVE TAPE
  7
Lorient
 73
     1
 44
1.0
  0
DIMENSION
  5
4E4
102
{ACAD_XDICTIONARY
360
4F1
102
}
102
{ACAD_REACTORS
330
4FB
102
}
330
1F
100
AcDbEntity
  8
Lorient dimension
 48
100.0
100
AcDbDimension
  2
*D18
 10
954.6776809025695
 20
952.1784944439119
 30
0.0
 11
954.3267285216169
 21
958.1795574898189
 31
0.0
 70
    32
 71
     5
 42
12.00212609181369
 73
     0
 74
     0
 75
     0
  3
Lorient
100
AcDbAlignedDimension
 13
951.6238732972729
 23
964.1806205357255
 33
0.0
 14
950.3278122370319
 24
952.1784944439119
 34
0.0
 50
90.0
100
AcDbRotatedDimension
  0
MTEXT
  5
505
330
1F
100
AcDbEntity
  8
Lorient text
100
AcDbMText
 10
940.6685376130937
 20
963.6317438468218
 30
0.0
 40
0.5
 41
6.095673982475204
 46
0.0
 71
     1
 72
     5
  1
{\fUtsaah|b1|i0|c0|p34;\LLAS1212}
  7
Lorient
 73
     1
 44
1.0
  0
ARC
  5
506
330
1F
100
AcDbEntity
  8
Lorient profile
 62
     7
100
AcDbCircle
 10
940.8549609044985
 20
952.7597991599909
 30
0.0
 40
0.6519063503057275
100
AcDbArc
 50
224.9999801992995
 51
243.0878065346168
  0
LWPOLYLINE
  5
508
330
1F
100
AcDbEntity
  8
Lorient profile
 62
     7
100
AcDbPolyline
 90
        5
 70
     1
 43
0.0
 10
948.3709607135594
 20
958.7109390765709
 42
0.0441495705559153
 10
951.505169279636
 20
963.1717311477673
 42
0.1646408512623228
 10
952.0848404262762
 20
963.9896818584158
 42
0.517142216303343
 10
951.0360534030327
 20
963.8105823487594
 42
-0.0622226486673666
 10
948.2332689149222
 20
958.8557531833508
 42
0.9590515726553507
  0
LWPOLYLINE
  5
50D
330
1F
100
AcDbEntity
  8
Lorient profile
 62
     7
100
AcDbPolyline
 90
        5
 70
     1
 43
0.0
 10
940.5730925974554
 20
953.347618985323
 42
0.5171422163034353
 10
940.3939933441943
 20
952.2988319182957
 42
0.1646408512622856
 10
941.2119439131306
 20
952.8785032648981
 42
0.0441495705559215
 10
945.6727352181129
 20
956.0127129214947
 42
0.9590515726553521
 10
945.5279210776737
 20
956.1504046847307
 42
-0.0622226486673612
  0
LWPOLYLINE
  5
512
330
1F
100
AcDbEntity
  8
Lorient profile
 62
     7
100
AcDbPolyline
 90
        5
 70
     0
 43
0.0
 10
952.2051688948778
 20
963.8238028462899
 10
952.2051794476999
 20
954.0558638700829
 10
951.2664958407722
 20
953.1171791554037
 10
950.3278122370319
 20
952.1784944439119
 10
940.559892126498
 20
952.1784934694817
  0
LWPOLYLINE
  5
513
330
1F
100
AcDbEntity
  8
Lorient profile
 62
     7
100
AcDbPolyline
 90
        3
 70
     0
 43
0.0
 10
950.91294241015
 20
953.4707325059681
 10
950.3207062025083
 20
952.8784955994213
 10
941.2119391661638
 20
952.8784967256722
  0
LWPOLYLINE
  5
517
330
1F
100
AcDbEntity
  8
Lorient profile
 62
     7
100
AcDbPolyline
 90
        3
 70
     0
 43
0.0
 10
950.9129420761631
 20
953.4707321719807
 10
951.5051782838048
 20
954.0629690785277
 10
951.5051664082053
 20
963.171729063348
  0
LEADER
  5
51A
330
1F
100
AcDbEntity
  8
Lorient text
100
AcDbLeader
  3
Lorient
 76
     2
 10
952.5051790612748
 20
955.3159123122064
 30
0.0
 10
953.7644856942527
 20
949.8815659259822
 30
0.0
1001
ACAD
1000
DSTYLE
1002
{
1070
   147
1040
0.1
1070
    77
1070
     0
1002
}
  0
LEADER
  5
51B
330
1F
100
AcDbEntity
  8
Lorient text
100
AcDbLeader
  3
Lorient
 76
     2
 10
948.8956489167335
 20
951.8784933433396
 30
0.0
 10
953.7644856942527
 20
949.8815659259822
 30
0.0
1001
ACAD
1000
DSTYLE
1002
{
1070
   147
1040
0.1
1070
    77
1070
     0
1002
}
  0
ENDSEC
  0
SECTION
  2
OBJECTS
  0
DICTIONARY
  5
C
330
0
100
AcDbDictionary
281
     1
  3
ACAD_COLOR
350
6B
  3
ACAD_GROUP
350
D
  3
ACAD_LAYOUT
350
1A
  3
ACAD_MATERIAL
350
6A
  3
ACAD_MLINESTYLE
350
17
  3
ACAD_PLOTSETTINGS
350
19
  3
ACAD_PLOTSTYLENAME
350
E
  3
ACAD_TABLESTYLE
350
7E
  3
ACAD_VISUALSTYLE
350
EF
  3
AcadDim
350
236
  3
AcDbVariableDictionary
350
5E
  0
DICTIONARY
  5
113
330
2
100
AcDbDictionary
280
     1
281
     1
  3
ACAD_LAYERFILTERS
360
23E
  3
ACAD_LAYERSTATES
360
14F
  3
ACLYDICTIONARY
360
23D
  0
DICTIONARY
  5
240
330
1F
100
AcDbDictionary
280
     1
281
     1
  3
ACAD_SORTENTS
360
241
  0
DICTIONARY
  5
4F1
330
4E4
100
AcDbDictionary
280
     1
281
     1
  3
ACAD_DIMASSOC
360
4FB
  0
DICTIONARY
  5
6B
102
{ACAD_REACTORS
330
C
102
}
330
C
100
AcDbDictionary
281
     1
  0
DICTIONARY
  5
D
102
{ACAD_REACTORS
330
C
102
}
330
C
100
AcDbDictionary
281
     1
  0
DICTIONARY
  5
1A
102
{ACAD_REACTORS
330
C
102
}
330
C
100
AcDbDictionary
281
     1
  3
Layout1
350
D3
  3
Layout2
350
D7
  3
Model
350
22
  0
DICTIONARY
  5
6A
102
{ACAD_REACTORS
330
C
102
}
330
C
100
AcDbDictionary
281
     1
  3
ByBlock
350
ED
  3
ByLayer
350
EC
  3
Global
350
EE
  0
DICTIONARY
  5
17
102
{ACAD_REACTORS
330
C
102
}
330
C
100
AcDbDictionary
281
     1
  3
Standard
350
18
  0
DICTIONARY
  5
19
102
{ACAD_REACTORS
330
C
102
}
330
C
100
AcDbDictionary
281
     1
  0
ACDBDICTIONARYWDFLT
  5
E
102
{ACAD_REACTORS
330
C
102
}
330
C
100
AcDbDictionary
281
     1
  3
Normal
350
F
100
AcDbDictionaryWithDefault
340
F
  0
DICTIONARY
  5
7E
102
{ACAD_REACTORS
330
C
102
}
330
C
100
AcDbDictionary
281
     1
  3
Standard
350
7F
  0
DICTIONARY
  5
EF
102
{ACAD_REACTORS
330
C
102
}
330
C
100
AcDbDictionary
281
     1
  3
2dWireframe
350
F5
  3
3D Hidden
350
F7
  3
3dWireframe
350
F6
  3
Basic
350
F4
  3
Brighten
350
FB
  3
ColorChange
350
FF
  3
Conceptual
350
F8
  3
Dim
350
FA
  3
Facepattern
350
FE
  3
Flat
350
F0
  3
FlatWithEdges
350
F1
  3
Gouraud
350
F2
  3
GouraudWithEdges
350
F3
  3
Linepattern
350
FD
  3
Realistic
350
F9
  3
Thicken
350
FC
  0
XRECORD
  5
236
102
{ACAD_REACTORS
330
C
102
}
330
C
100
AcDbXrecord
280
     1
 90
   990106
  3

 60
     0
 61
     0
 62
     1
 63
     3
 64
     0
 65
     0
 66
     0
 67
     3
 68
     1
 69
     0
 70
     0
 71
     0
 72
     0
 40
0.0
170
     0
  0
DICTIONARY
  5
5E
102
{ACAD_REACTORS
330
C
102
}
330
C
100
AcDbDictionary
281
     1
  3
CTABLESTYLE
350
84
  3
DIMASSOC
350
5F
  3
HIDETEXT
350
63
  0
DICTIONARY
  5
23E
102
{ACAD_REACTORS
330
113
102
}
330
113
100
AcDbDictionary
281
     1
  0
DICTIONARY
  5
14F
102
{ACAD_REACTORS
330
113
102
}
330
113
100
AcDbDictionary
281
     1
  0
DICTIONARY
  5
23D
102
{ACAD_REACTORS
330
113
102
}
330
113
100
AcDbDictionary
281
     1
1001
ACAD
1000
<All
  0
SORTENTSTABLE
  5
241
102
{ACAD_REACTORS
330
240
102
}
330
240
100
AcDbSortentsTable
330
1F
331
508
  5
50D
331
4BD
  5
515
331
459
  5
50C
331
4E4
  5
518
331
44D
  5
506
331
4BB
  5
513
331
50D
  5
50F
331
469
  5
510
331
44B
  5
44F
331
4B9
  5
511
331
512
  5
44E
331
505
  5
519
331
447
  5
44B
331
445
  5
445
331
4BC
  5
514
331
4E3
  5
517
331
517
  5
509
331
4BA
  5
512
331
506
  5
50E
331
451
  5
50B
331
513
  5
44D
  0
DIMASSOC
  5
4FB
102
{ACAD_REACTORS
330
4F1
102
}
330
4F1
100
AcDbDimAssoc
330
4E4
 90
        2
 70
     0
 71
     0
  1
AcDbOsnapPointRef
 72
     1
331
44A
 73
     2
 91
        0
 40
1.0
 10
0.0
 20
0.0
 30
2.000000000000000E+50
 75
     0
  0
LAYOUT
  5
D3
102
{ACAD_REACTORS
330
1A
102
}
330
1A
100
AcDbPlotSettings
  1

  2
C:\Documents and Settings\basas\Application Data\Autodesk\AutoCAD 2005\R16.1\enu\plotters\Default Windows System Printer.pc3
  4

  6

 40
0.0
 41
0.0
 42
0.0
 43
0.0
 44
0.0
 45
0.0
 46
0.0
 47
0.0
 48
0.0
 49
0.0
140
0.0
141
0.0
142
1.0
143
1.0
 70
   688
 72
     0
 73
     0
 74
     5
  7

 75
    16
147
1.0
 76
     0
 77
     2
 78
   300
148
0.0
149
0.0
100
AcDbLayout
  1
Layout1
 70
     1
 71
     1
 10
0.0
 20
0.0
 11
12.0
 21
9.0
 12
0.0
 22
0.0
 32
0.0
 14
0.0
 24
0.0
 34
0.0
 15
0.0
 25
0.0
 35
0.0
146
0.0
 13
0.0
 23
0.0
 33
0.0
 16
1.0
 26
0.0
 36
0.0
 17
0.0
 27
1.0
 37
0.0
 76
     0
330
D2
  0
LAYOUT
  5
D7
102
{ACAD_REACTORS
330
1A
102
}
330
1A
100
AcDbPlotSettings
  1

  2
C:\Documents and Settings\basas\Application Data\Autodesk\AutoCAD 2005\R16.1\enu\plotters\Default Windows System Printer.pc3
  4

  6

 40
0.0
 41
0.0
 42
0.0
 43
0.0
 44
0.0
 45
0.0
 46
0.0
 47
0.0
 48
0.0
 49
0.0
140
0.0
141
0.0
142
1.0
143
1.0
 70
   688
 72
     0
 73
     0
 74
     5
  7

 75
    16
147
1.0
 76
     0
 77
     2
 78
   300
148
0.0
149
0.0
100
AcDbLayout
  1
Layout2
 70
     1
 71
     2
 10
0.0
 20
0.0
 11
12.0
 21
9.0
 12
0.0
 22
0.0
 32
0.0
 14
0.0
 24
0.0
 34
0.0
 15
0.0
 25
0.0
 35
0.0
146
0.0
 13
0.0
 23
0.0
 33
0.0
 16
1.0
 26
0.0
 36
0.0
 17
0.0
 27
1.0
 37
0.0
 76
     0
330
D6
  0
LAYOUT
  5
22
102
{ACAD_REACTORS
330
1A
102
}
330
1A
100
AcDbPlotSettings
  1

  2
none_device
  4
ISO_A4_(210.00_x_297.00_MM)
  6

 40
7.5
 41
20.0
 42
7.5
 43
20.0
 44
210.0
 45
297.0
 46
11.54999923706054
 47
-13.65000009536743
 48
0.0
 49
0.0
140
0.0
141
0.0
142
1.0
143
8.704084754739808
 70
 11952
 72
     1
 73
     0
 74
     0
  7

 75
     0
147
0.1148885871608098
 76
     0
 77
     2
 78
   300
148
0.0
149
0.0
100
AcDbLayout
  1
Model
 70
     1
 71
     0
 10
0.0
 20
0.0
 11
12.0
 21
9.0
 12
0.0
 22
0.0
 32
0.0
 14
0.0
 24
0.0
 34
0.0
 15
0.0
 25
0.0
 35
0.0
146
0.0
 13
0.0
 23
0.0
 33
0.0
 16
1.0
 26
0.0
 36
0.0
 17
0.0
 27
1.0
 37
0.0
 76
     0
330
1F
331
EA
1001
ACAD_PSEXT
1000
None
1000
None
1000
Not applicable
1000
The layout will not be plotted unless a new plotter configuration name is selected.
1070
     0
  0
MATERIAL
  5
ED
102
{ACAD_REACTORS
330
6A
102
}
330
6A
100
AcDbMaterial
  1
ByBlock
  0
MATERIAL
  5
EC
102
{ACAD_REACTORS
330
6A
102
}
330
6A
100
AcDbMaterial
  1
ByLayer
  0
MATERIAL
  5
EE
102
{ACAD_REACTORS
330
6A
102
}
330
6A
100
AcDbMaterial
  1
Global
  0
MLINESTYLE
  5
18
102
{ACAD_REACTORS
330
17
102
}
330
17
100
AcDbMlineStyle
  2
STANDARD
 70
     0
  3

 62
   256
 51
90.0
 52
90.0
 71
     2
 49
0.5
 62
   256
  6
BYLAYER
 49
-0.5
 62
   256
  6
BYLAYER
  0
ACDBPLACEHOLDER
  5
F
102
{ACAD_REACTORS
330
E
102
}
330
E
  0
TABLESTYLE
  5
7F
102
{ACAD_REACTORS
330
7E
102
}
330
7E
100
AcDbTableStyle
  3
Standard
 70
     0
 71
     0
 40
1.5
 41
1.5
280
     0
281
     0
  7
Standard
140
4.5
170
     2
 62
     0
 63
     7
283
     0
 90
      512
 91
        0
  1

274
    -2
284
     1
 64
     0
275
    -2
285
     1
 65
     0
276
    -2
286
     1
 66
     0
277
    -2
287
     1
 67
     0
278
    -2
288
     1
 68
     0
279
    -2
289
     1
 69
     0
  7
Standard
140
6.0
170
     5
 62
     0
 63
     7
283
     0
 90
      512
 91
        0
  1

274
    -2
284
     1
 64
     0
275
    -2
285
     1
 65
     0
276
    -2
286
     1
 66
     0
277
    -2
287
     1
 67
     0
278
    -2
288
     1
 68
     0
279
    -2
289
     1
 69
     0
  7
Standard
140
4.5
170
     5
 62
     0
 63
     7
283
     0
 90
      512
 91
        0
  1

274
    -2
284
     1
 64
     0
275
    -2
285
     1
 65
     0
276
    -2
286
     1
 66
     0
277
    -2
287
     1
 67
     0
278
    -2
288
     1
 68
     0
279
    -2
289
     1
 69
     0
  0
VISUALSTYLE
  5
F5
102
{ACAD_REACTORS
330
EF
102
}
330
EF
100
AcDbVisualStyle
  2
2dWireframe
 70
     4
 71
     0
 72
     2
 73
     1
 90
        0
 40
-0.6
 41
-30.0
 62
     5
 63
     7
421
 16777215
 74
     1
 91
        4
 64
     7
 65
   257
 75
     1
175
     1
 42
1.0
 92
        0
 66
   257
 43
1.0
 76
     1
 77
     6
 78
     2
 67
     7
 79
     5
170
     0
171
     0
290
     0
174
     0
 93
        1
 44
0.0
173
     0
291
     0
 45
0.0
  0
VISUALSTYLE
  5
F7
102
{ACAD_REACTORS
330
EF
102
}
330
EF
100
AcDbVisualStyle
  2
3D Hidden
 70
     6
 71
     1
 72
     2
 73
     2
 90
        0
 40
-0.6
 41
-30.0
 62
     5
 63
     7
421
 16777215
 74
     2
 91
        2
 64
     7
 65
   257
 75
     2
175
     1
 42
40.0
 92
        0
 66
   257
 43
1.0
 76
     1
 77
     6
 78
     2
 67
     7
 79
     3
170
     0
171
     0
290
     0
174
     0
 93
        1
 44
0.0
173
     0
291
     0
 45
0.0
  0
VISUALSTYLE
  5
F6
102
{ACAD_REACTORS
330
EF
102
}
330
EF
100
AcDbVisualStyle
  2
3dWireframe
 70
     5
 71
     0
 72
     2
 73
     1
 90
        0
 40
-0.6
 41
-30.0
 62
     5
 63
     7
421
 16777215
 74
     1
 91
        4
 64
     7
 65
   257
 75
     1
175
     1
 42
1.0
 92
        0
 66
   257
 43
1.0
 76
     1
 77
     6
 78
     2
 67
     7
 79
     5
170
     0
171
     0
290
     0
174
     0
 93
        1
 44
0.0
173
     0
291
     0
 45
0.0
  0
VISUALSTYLE
  5
F4
102
{ACAD_REACTORS
330
EF
102
}
330
EF
100
AcDbVisualStyle
  2
Basic
 70
     7
 71
     1
 72
     0
 73
     1
 90
        0
 40
-0.6
 41
-30.0
 62
     5
 63
     7
421
 16777215
 74
     0
 91
        4
 64
     7
 65
   257
 75
     1
175
     1
 42
1.0
 92
        8
 66
     7
 43
1.0
 76
     1
 77
     6
 78
     2
 67
     7
 79
     5
170
     0
171
     0
290
     0
174
     0
 93
        1
 44
0.0
173
     0
291
     1
 45
0.0
  0
VISUALSTYLE
  5
FB
102
{ACAD_REACTORS
330
EF
102
}
330
EF
100
AcDbVisualStyle
  2
Brighten
 70
    12
 71
     2
 72
     2
 73
     1
 90
        0
 40
-0.6
 41
-30.0
 62
     5
 63
     7
421
 16777215
 74
     1
 91
        4
 64
     7
 65
   257
 75
     1
175
     1
 42
1.0
 92
        8
 66
     7
 43
1.0
 76
     1
 77
     6
 78
     2
 67
     7
 79
     5
170
     0
171
     0
290
     0
174
     0
 93
        1
 44
50.0
173
     0
291
     1
 45
0.0
  0
VISUALSTYLE
  5
FF
102
{ACAD_REACTORS
330
EF
102
}
330
EF
100
AcDbVisualStyle
  2
ColorChange
 70
    16
 71
     2
 72
     2
 73
     3
 90
        0
 40
-0.6
 41
-30.0
 62
     5
 63
     8
421
  8421504
 74
     1
 91
        4
 64
     7
 65
   257
 75
     1
175
     1
 42
1.0
 92
        8
 66
     8
424
  8421504
 43
1.0
 76
     1
 77
     6
 78
     2
 67
     7
 79
     5
170
     0
171
     0
290
     0
174
     0
 93
        1
 44
0.0
173
     0
291
     1
 45
0.0
  0
VISUALSTYLE
  5
F8
102
{ACAD_REACTORS
330
EF
102
}
330
EF
100
AcDbVisualStyle
  2
Conceptual
 70
     9
 71
     3
 72
     2
 73
     1
 90
        0
 40
-0.6
 41
-30.0
 62
     5
 63
     7
421
 16777215
 74
     2
 91
        2
 64
     7
 65
   257
 75
     1
175
     1
 42
40.0
 92
        8
 66
     7
 43
1.0
 76
     1
 77
     6
 78
     2
 67
     7
 79
     3
170
     0
171
     0
290
     0
174
     0
 93
        1
 44
0.0
173
     0
291
     0
 45
0.0
  0
VISUALSTYLE
  5
FA
102
{ACAD_REACTORS
330
EF
102
}
330
EF
100
AcDbVisualStyle
  2
Dim
 70
    11
 71
     2
 72
     2
 73
     1
 90
        0
 40
-0.6
 41
-30.0
 62
     5
 63
     7
421
 16777215
 74
     1
 91
        4
 64
     7
 65
   257
 75
     1
175
     1
 42
1.0
 92
        8
 66
     7
 43
1.0
 76
     1
 77
     6
 78
     2
 67
     7
 79
     5
170
     0
171
     0
290
     0
174
     0
 93
        1
 44
-50.0
173
     0
291
     1
 45
0.0
  0
VISUALSTYLE
  5
FE
102
{ACAD_REACTORS
330
EF
102
}
330
EF
100
AcDbVisualStyle
  2
Facepattern
 70
    15
 71
     2
 72
     2
 73
     1
 90
        0
 40
-0.6
 41
-30.0
 62
     5
 63
     7
421
 16777215
 74
     1
 91
        4
 64
     7
 65
   257
 75
     1
175
     1
 42
1.0
 92
        8
 66
     7
 43
1.0
 76
     1
 77
     6
 78
     2
 67
     7
 79
     5
170
     0
171
     0
290
     0
174
     0
 93
        1
 44
0.0
173
     0
291
     1
 45
0.0
  0
VISUALSTYLE
  5
F0
102
{ACAD_REACTORS
330
EF
102
}
330
EF
100
AcDbVisualStyle
  2
Flat
 70
     0
 71
     2
 72
     1
 73
     1
 90
        2
 40
-0.6
 41
30.0
 62
     5
 63
     7
421
 16777215
 74
     0
 91
        4
 64
     7
 65
   257
 75
     1
175
     1
 42
1.0
 92
        8
 66
     7
 43
1.0
 76
     1
 77
     6
 78
     2
 67
     7
 79
     5
170
     0
171
     0
290
     0
174
     0
 93
        1
 44
0.0
173
     0
291
     1
 45
0.0
  0
VISUALSTYLE
  5
F1
102
{ACAD_REACTORS
330
EF
102
}
330
EF
100
AcDbVisualStyle
  2
FlatWithEdges
 70
     1
 71
     2
 72
     1
 73
     1
 90
        2
 40
-0.6
 41
30.0
 62
     5
 63
     7
421
 16777215
 74
     1
 91
        4
 64
     7
 65
   257
 75
     1
175
     1
 42
1.0
 92
        0
 66
   257
 43
1.0
 76
     1
 77
     6
 78
     2
 67
     7
 79
     5
170
     0
171
     0
290
     0
174
     0
 93
        1
 44
0.0
173
     0
291
     1
 45
0.0
  0
VISUALSTYLE
  5
F2
102
{ACAD_REACTORS
330
EF
102
}
330
EF
100
AcDbVisualStyle
  2
Gouraud
 70
     2
 71
     2
 72
     2
 73
     1
 90
        2
 40
-0.6
 41
30.0
 62
     5
 63
     7
421
 16777215
 74
     0
 91
        4
 64
     7
 65
   257
 75
     1
175
     1
 42
1.0
 92
        0
 66
     7
 43
1.0
 76
     1
 77
     6
 78
     2
 67
     7
 79
     5
170
     0
171
     0
290
     0
174
     0
 93
        1
 44
0.0
173
     0
291
     1
 45
0.0
  0
VISUALSTYLE
  5
F3
102
{ACAD_REACTORS
330
EF
102
}
330
EF
100
AcDbVisualStyle
  2
GouraudWithEdges
 70
     3
 71
     2
 72
     2
 73
     1
 90
        2
 40
-0.6
 41
30.0
 62
     5
 63
     7
421
 16777215
 74
     1
 91
        4
 64
     7
 65
   257
 75
     1
175
     1
 42
1.0
 92
        0
 66
   257
 43
1.0
 76
     1
 77
     6
 78
     2
 67
     7
 79
     5
170
     0
171
     0
290
     0
174
     0
 93
        1
 44
0.0
173
     0
291
     1
 45
0.0
  0
VISUALSTYLE
  5
FD
102
{ACAD_REACTORS
330
EF
102
}
330
EF
100
AcDbVisualStyle
  2
Linepattern
 70
    14
 71
     2
 72
     2
 73
     1
 90
        0
 40
-0.6
 41
-30.0
 62
     5
 63
     7
421
 16777215
 74
     1
 91
        4
 64
     7
 65
   257
 75
     7
175
     7
 42
1.0
 92
        8
 66
     7
 43
1.0
 76
     1
 77
     6
 78
     2
 67
     7
 79
     5
170
     0
171
     0
290
     0
174
     0
 93
        1
 44
0.0
173
     0
291
     1
 45
0.0
  0
VISUALSTYLE
  5
F9
102
{ACAD_REACTORS
330
EF
102
}
330
EF
100
AcDbVisualStyle
  2
Realistic
 70
     8
 71
     2
 72
     2
 73
     1
 90
        0
 40
-0.6
 41
-30.0
 62
     5
 63
     7
421
 16777215
 74
     1
 91
        0
 64
     7
 65
   257
 75
     1
175
     1
 42
1.0
 92
        8
 66
     8
424
  7895160
 43
1.0
 76
     1
 77
     6
 78
     2
 67
     7
 79
     5
170
     0
171
     0
290
     0
174
     0
 93
       13
 44
0.0
173
     0
291
     0
 45
0.0
  0
VISUALSTYLE
  5
FC
102
{ACAD_REACTORS
330
EF
102
}
330
EF
100
AcDbVisualStyle
  2
Thicken
 70
    13
 71
     2
 72
     2
 73
     1
 90
        0
 40
-0.6
 41
-30.0
 62
     5
 63
     7
421
 16777215
 74
     1
 91
        4
 64
     7
 65
   257
 75
     1
175
     1
 42
1.0
 92
       12
 66
     7
 43
1.0
 76
     1
 77
     6
 78
     2
 67
     7
 79
     5
170
     0
171
     0
290
     0
174
     0
 93
        1
 44
0.0
173
     0
291
     1
 45
0.0
  0
DICTIONARYVAR
  5
84
102
{ACAD_REACTORS
330
5E
102
}
330
5E
100
DictionaryVariables
280
     0
  1
STANDARD
  0
DICTIONARYVAR
  5
5F
102
{ACAD_REACTORS
330
5E
102
}
330
5E
100
DictionaryVariables
280
     0
  1
2
  0
DICTIONARYVAR
  5
63
102
{ACAD_REACTORS
330
5E
102
}
330
5E
100
DictionaryVariables
280
     0
  1
1
  0
ENDSEC
  0
EOF
