  0
SECTION
  2
HEADER
  9
$ACADVER
  1
AC1021
  9
$ACADMAINTVER
 70
    25
  9
$DWGCODEPAGE
  3
ANSI_1252
  9
$INSBASE
 10
0.0
 20
0.0
 30
0.0
  9
$EXTMIN
 10
0.0
 20
0.0
 30
0.0
  9
$EXTMAX
 10
215.9
 20
279.4
 30
0.0
  9
$LIMMIN
 10
0.0
 20
0.0
  9
$LIMMAX
 10
215.9
 20
279.4
  9
$ORTHOMODE
 70
     0
  9
$REGENMODE
 70
     1
  9
$FILLMODE
 70
     1
  9
$QTEXTMODE
 70
     0
  9
$MIRRTEXT
 70
     1
  9
$LTSCALE
 40
1.0
  9
$ATTMODE
 70
     1
  9
$TEXTSIZE
 40
2.5
  9
$TRACEWID
 40
1.0
  9
$TEXTSTYLE
  7
Standard
  9
$CLAYER
  8
0
  9
$CELTYPE
  6
ByLayer
  9
$CECOLOR
 62
   256
  9
$CELTSCALE
 40
1.0
  9
$DISPSILH
 70
     0
  9
$DIMSCALE
 40
1.0
  9
$DIMASZ
 40
2.5
  9
$DIMEXO
 40
0.625
  9
$DIMDLI
 40
3.75
  9
$DIMRND
 40
0.0
  9
$DIMDLE
 40
0.0
  9
$DIMEXE
 40
1.25
  9
$DIMTP
 40
0.0
  9
$DIMTM
 40
0.0
  9
$DIMTXT
 40
2.5
  9
$DIMCEN
 40
2.5
  9
$DIMTSZ
 40
0.0
  9
$DIMTOL
 70
     0
  9
$DIMLIM
 70
     0
  9
$DIMTIH
 70
     0
  9
$DIMTOH
 70
     0
  9
$DIMSE1
 70
     0
  9
$DIMSE2
 70
     0
  9
$DIMTAD
 70
     1
  9
$DIMZIN
 70
     8
  9
$DIMBLK
  1

  9
$DIMASO
 70
     1
  9
$DIMSHO
 70
     1
  9
$DIMPOST
  1

  9
$DIMAPOST
  1

  9
$DIMALT
 70
     0
  9
$DIMALTD
 70
     3
  9
$DIMALTF
 40
0.0393700787
  9
$DIMLFAC
 40
1.0
  9
$DIMTOFL
 70
     1
  9
$DIMTVP
 40
0.0
  9
$DIMTIX
 70
     0
  9
$DIMSOXD
 70
     0
  9
$DIMSAH
 70
     0
  9
$DIMBLK1
  1

  9
$DIMBLK2
  1

  9
$DIMSTYLE
  2
ISO-25
  9
$DIMCLRD
 70
     0
  9
$DIMCLRE
 70
     0
  9
$DIMCLRT
 70
     0
  9
$DIMTFAC
 40
1.0
  9
$DIMGAP
 40
0.625
  9
$DIMJUST
 70
     0
  9
$DIMSD1
 70
     0
  9
$DIMSD2
 70
     0
  9
$DIMTOLJ
 70
     0
  9
$DIMTZIN
 70
     8
  9
$DIMALTZ
 70
     0
  9
$DIMALTTZ
 70
     0
  9
$DIMUPT
 70
     0
  9
$DIMDEC
 70
     2
  9
$DIMTDEC
 70
     2
  9
$DIMALTU
 70
     2
  9
$DIMALTTD
 70
     3
  9
$DIMTXSTY
  7
Standard
  9
$DIMAUNIT
 70
     0
  9
$DIMADEC
 70
     0
  9
$DIMALTRND
 40
0.0
  9
$DIMAZIN
 70
     0
  9
$DIMDSEP
 70
    44
  9
$DIMATFIT
 70
     3
  9
$DIMFRAC
 70
     0
  9
$DIMLDRBLK
  1

  9
$DIMLUNIT
 70
     2
  9
$DIMLWD
 70
    -2
  9
$DIMLWE
 70
    -2
  9
$DIMTMOVE
 70
     0
  9
$DIMFXL
 40
1.0
  9
$DIMFXLON
 70
     0
  9
$DIMJOGANG
 40
0.7853981634
  9
$DIMTFILL
 70
     0
  9
$DIMTFILLCLR
 70
     0
  9
$DIMARCSYM
 70
     0
  9
$DIMLTYPE
  6

  9
$DIMLTEX1
  6

  9
$DIMLTEX2
  6

  9
$LUNITS
 70
     2
  9
$LUPREC
 70
     4
  9
$SKETCHINC
 40
1.0
  9
$FILLETRAD
 40
10.0
  9
$AUNITS
 70
     0
  9
$AUPREC
 70
     0
  9
$MENU
  1
.
  9
$ELEVATION
 40
0.0
  9
$PELEVATION
 40
0.0
  9
$THICKNESS
 40
0.0
  9
$LIMCHECK
 70
     0
  9
$CHAMFERA
 40
0.0
  9
$CHAMFERB
 40
0.0
  9
$CHAMFERC
 40
0.0
  9
$CHAMFERD
 40
0.0
  9
$SKPOLY
 70
     0
  9
$TDCREATE
 40
2457246.45761132
  9
$TDUCREATE
 40
2457246.374277986
  9
$TDUPDATE
 40
2457246.457616007
  9
$TDUUPDATE
 40
2457246.374282673
  9
$TDINDWG
 40
0.0000000116
  9
$TDUSRTIMER
 40
0.0000000116
  9
$USRTIMER
 70
     1
  9
$ANGBASE
 50
0.0
  9
$ANGDIR
 70
     0
  9
$PDMODE
 70
     0
  9
$PDSIZE
 40
0.0
  9
$PLINEWID
 40
0.0
  9
$SPLFRAME
 70
     0
  9
$SPLINETYPE
 70
     6
  9
$SPLINESEGS
 70
     8
  9
$HANDSEED
  5
472
  9
$SURFTAB1
 70
     6
  9
$SURFTAB2
 70
     6
  9
$SURFTYPE
 70
     6
  9
$SURFU
 70
     6
  9
$SURFV
 70
     6
  9
$UCSBASE
  2

  9
$UCSNAME
  2

  9
$UCSORG
 10
0.0
 20
0.0
 30
0.0
  9
$UCSXDIR
 10
1.0
 20
0.0
 30
0.0
  9
$UCSYDIR
 10
0.0
 20
1.0
 30
0.0
  9
$UCSORTHOREF
  2

  9
$UCSORTHOVIEW
 70
     0
  9
$UCSORGTOP
 10
0.0
 20
0.0
 30
0.0
  9
$UCSORGBOTTOM
 10
0.0
 20
0.0
 30
0.0
  9
$UCSORGLEFT
 10
0.0
 20
0.0
 30
0.0
  9
$UCSORGRIGHT
 10
0.0
 20
0.0
 30
0.0
  9
$UCSORGFRONT
 10
0.0
 20
0.0
 30
0.0
  9
$UCSORGBACK
 10
0.0
 20
0.0
 30
0.0
  9
$PUCSBASE
  2

  9
$PUCSNAME
  2

  9
$PUCSORG
 10
0.0
 20
0.0
 30
0.0
  9
$PUCSXDIR
 10
1.0
 20
0.0
 30
0.0
  9
$PUCSYDIR
 10
0.0
 20
1.0
 30
0.0
  9
$PUCSORTHOREF
  2

  9
$PUCSORTHOVIEW
 70
     0
  9
$PUCSORGTOP
 10
0.0
 20
0.0
 30
0.0
  9
$PUCSORGBOTTOM
 10
0.0
 20
0.0
 30
0.0
  9
$PUCSORGLEFT
 10
0.0
 20
0.0
 30
0.0
  9
$PUCSORGRIGHT
 10
0.0
 20
0.0
 30
0.0
  9
$PUCSORGFRONT
 10
0.0
 20
0.0
 30
0.0
  9
$PUCSORGBACK
 10
0.0
 20
0.0
 30
0.0
  9
$USERI1
 70
     0
  9
$USERI2
 70
     0
  9
$USERI3
 70
     0
  9
$USERI4
 70
     0
  9
$USERI5
 70
     0
  9
$USERR1
 40
0.0
  9
$USERR2
 40
0.0
  9
$USERR3
 40
0.0
  9
$USERR4
 40
0.0
  9
$USERR5
 40
0.0
  9
$WORLDVIEW
 70
     1
  9
$SHADEDGE
 70
     3
  9
$SHADEDIF
 70
    70
  9
$TILEMODE
 70
     1
  9
$MAXACTVP
 70
    64
  9
$PINSBASE
 10
0.0
 20
0.0
 30
0.0
  9
$PLIMCHECK
 70
     0
  9
$PEXTMIN
 10
0.0
 20
0.0
 30
0.0
  9
$PEXTMAX
 10
215.9
 20
279.4
 30
0.0
  9
$PLIMMIN
 10
0.0
 20
0.0
  9
$PLIMMAX
 10
215.9
 20
279.4
  9
$UNITMODE
 70
     0
  9
$VISRETAIN
 70
     1
  9
$PLINEGEN
 70
     0
  9
$PSLTSCALE
 70
     1
  9
$TREEDEPTH
 70
  3020
  9
$CMLSTYLE
  2
Standard
  9
$CMLJUST
 70
     0
  9
$CMLSCALE
 40
20.0
  9
$PROXYGRAPHICS
 70
     1
  9
$MEASUREMENT
 70
     1
  9
$CELWEIGHT
370
    -1
  9
$ENDCAPS
280
     0
  9
$JOINSTYLE
280
     0
  9
$LWDISPLAY
290
     0
  9
$INSUNITS
 70
     4
  9
$HYPERLINKBASE
  1

  9
$STYLESHEET
  1

  9
$XEDIT
290
     1
  9
$CEPSNTYPE
380
     0
  9
$PSTYLEMODE
290
     1
  9
$FINGERPRINTGUID
  2
{C0DE4804-299F-46CD-97DE-57A20451FEE8}
  9
$VERSIONGUID
  2
{FAEB1C32-E019-11D5-929B-00C0DF256EC4}
  9
$EXTNAMES
290
     1
  9
$PSVPSCALE
 40
0.0
  9
$OLESTARTUP
290
     0
  9
$SORTENTS
280
   127
  9
$INDEXCTL
280
     0
  9
$HIDETEXT
280
     1
  9
$XCLIPFRAME
290
     0
  9
$HALOGAP
280
     0
  9
$OBSCOLOR
 70
   257
  9
$OBSLTYPE
280
     0
  9
$INTERSECTIONDISPLAY
280
     0
  9
$INTERSECTIONCOLOR
 70
   257
  9
$DIMASSOC
280
     2
  9
$PROJECTNAME
  1

  9
$CAMERADISPLAY
290
     0
  9
$LENSLENGTH
 40
50.0
  9
$CAMERAHEIGHT
 40
0.0
  9
$STEPSPERSEC
 40
2.0
  9
$STEPSIZE
 40
6.0
  9
$3DDWFPREC
 40
2.0
  9
$PSOLWIDTH
 40
5.0
  9
$PSOLHEIGHT
 40
80.0
  9
$LOFTANG1
 40
1.5707963268
  9
$LOFTANG2
 40
1.5707963268
  9
$LOFTMAG1
 40
0.0
  9
$LOFTMAG2
 40
0.0
  9
$LOFTPARAM
 70
     7
  9
$LOFTNORMALS
280
     1
  9
$LATITUDE
 40
37.795
  9
$LONGITUDE
 40
-122.394
  9
$NORTHDIRECTION
 40
0.0
  9
$TIMEZONE
 70
 -8000
  9
$LIGHTGLYPHDISPLAY
280
     1
  9
$TILEMODELIGHTSYNCH
280
     1
  9
$CMATERIAL
347
44
  9
$SOLIDHIST
280
     0
  9
$SHOWHIST
280
     1
  9
$DWFFRAME
280
     2
  9
$DGNFRAME
280
     2
  9
$REALWORLDSCALE
290
     1
  9
$INTERFERECOLOR
 62
   256
  9
$CSHADOW
280
     0
  9
$SHADOWPLANELOCATION
 40
0.0
  0
ENDSEC
  0
SECTION
  2
CLASSES
  0
CLASS
  1
ACDBDICTIONARYWDFLT
  2
AcDbDictionaryWithDefault
  3
ObjectDBX Classes
 90
        0
 91
        4
280
     0
281
     0
  0
CLASS
  1
VISUALSTYLE
  2
AcDbVisualStyle
  3
ObjectDBX Classes
 90
     4095
 91
        4
280
     0
281
     0
  0
CLASS
  1
MATERIAL
  2
AcDbMaterial
  3
ObjectDBX Classes
 90
     1153
 91
        4
280
     0
281
     0
  0
CLASS
  1
SCALE
  2
AcDbScale
  3
ObjectDBX Classes
 90
     1153
 91
        4
280
     0
281
     0
  0
CLASS
  1
TABLESTYLE
  2
AcDbTableStyle
  3
ObjectDBX Classes
 90
     4095
 91
        4
280
     0
281
     0
  0
CLASS
  1
MLEADERSTYLE
  2
AcDbMLeaderStyle
  3
ACDB_MLEADERSTYLE_CLASS
 90
     4095
 91
        4
280
     0
281
     0
  0
CLASS
  1
SUN
  2
AcDbSun
  3
SCENEOE
 90
     1153
 91
        4
280
     0
281
     0
  0
CLASS
  1
DICTIONARYVAR
  2
AcDbDictionaryVar
  3
ObjectDBX Classes
 90
        0
 91
        4
280
     0
281
     0
  0
CLASS
  1
CELLSTYLEMAP
  2
AcDbCellStyleMap
  3
ObjectDBX Classes
 90
     1152
 91
        4
280
     0
281
     0
  0
ENDSEC
  0
SECTION
  2
TABLES
  0
TABLE
  2
VPORT
  5
8
330
0
100
AcDbSymbolTable
 70
     1
  0
VPORT
  5
29
330
8
100
AcDbSymbolTableRecord
100
AcDbViewportTableRecord
  2
*Active
 70
     0
 10
0.0
 20
0.0
 11
1.0
 21
1.0
 12
344.1869158879
 22
148.5
 13
0.0
 23
0.0
 14
10.0
 24
10.0
 15
10.0
 25
10.0
 16
0.0
 26
0.0
 36
1.0
 17
0.0
 27
0.0
 37
0.0
 40
297.0
 41
1.9729729729
 42
50.0
 43
0.0
 44
0.0
 50
0.0
 51
0.0
 71
     0
 72
   100
 73
     1
 74
     3
 75
     0
 76
     0
 77
     0
 78
     0
281
     0
 65
     1
110
0.0
120
0.0
130
0.0
111
1.0
121
0.0
131
0.0
112
0.0
122
1.0
132
0.0
 79
     0
146
0.0
 60
     3
 61
     5
292
     1
282
     1
141
0.0
142
0.0
 63
   250
361
6D
  0
ENDTAB
  0
TABLE
  2
LTYPE
  5
5
330
0
100
AcDbSymbolTable
 70
     2
  0
LTYPE
  5
14
330
5
100
AcDbSymbolTableRecord
100
AcDbLinetypeTableRecord
  2
ByBlock
 70
     0
  3

 72
    65
 73
     0
 40
0.0
  0
LTYPE
  5
15
330
5
100
AcDbSymbolTableRecord
100
AcDbLinetypeTableRecord
  2
ByLayer
 70
     0
  3

 72
    65
 73
     0
 40
0.0
  0
LTYPE
  5
16
330
5
100
AcDbSymbolTableRecord
100
AcDbLinetypeTableRecord
  2
Continuous
 70
     0
  3
Solid line
 72
    65
 73
     0
 40
0.0
  0
LTYPE
  5
6F
330
5
100
AcDbSymbolTableRecord
100
AcDbLinetypeTableRecord
  2
HIDDEN2
 70
     0
  3
Hidden (.5x) _ _ _ _ _ _ _ _ _ _ _ _ _ _ _ _ _ 
 72
    65
 73
     2
 40
4.7625
 49
3.175
 74
     4
 75
     0
340
0
 46
0.0
 50
0.0
 44
0.0
 45
0.0
 49
-1.5875
 74
     4
 75
     0
340
0
 46
0.0
 50
0.0
 44
0.0
 45
0.0
  0
ENDTAB
  0
TABLE
  2
LAYER
  5
2
330
0
100
AcDbSymbolTable
 70
     8
  0
LAYER
  5
10
330
2
100
AcDbSymbolTableRecord
100
AcDbLayerTableRecord
  2
0
 70
     0
 62
     7
  6
Continuous
370
    -3
390
F
347
46
  0
LAYER
  5
6E
330
2
100
AcDbSymbolTableRecord
100
AcDbLayerTableRecord
  2
Standard
 70
     0
 62
     7
  6
Continuous
370
    -3
390
F
347
46
  0
LAYER
  5
74
330
2
100
AcDbSymbolTableRecord
100
AcDbLayerTableRecord
  2
3MM_SCHRAUBE_X_1
 70
     0
 62
     7
  6
Continuous
370
    -3
390
F
347
46
  0
LAYER
  5
85
330
2
100
AcDbSymbolTableRecord
100
AcDbLayerTableRecord
  2
AW_079
 70
     0
 62
     7
  6
Continuous
370
    -3
390
F
347
46
  0
LAYER
  5
DE
330
2
100
AcDbSymbolTableRecord
100
AcDbLayerTableRecord
  2
AJ_221
 70
     0
 62
     7
  6
Continuous
370
    -3
390
F
347
46
  0
LAYER
  5
EB
330
2
100
AcDbSymbolTableRecord
100
AcDbLayerTableRecord
  2
AP_447__230
 70
     0
 62
     7
  6
Continuous
370
    -3
390
F
347
46
  0
LAYER
  5
120
330
2
100
AcDbSymbolTableRecord
100
AcDbLayerTableRecord
  2
AP_448_0200
 70
     0
 62
     7
  6
Continuous
370
    -3
390
F
347
46
  0
LAYER
  5
165
330
2
100
AcDbSymbolTableRecord
100
AcDbLayerTableRecord
  2
AP_451__200
 70
     0
 62
     7
  6
Continuous
370
    -3
390
F
347
46
  0
ENDTAB
  0
TABLE
  2
STYLE
  5
3
330
0
100
AcDbSymbolTable
 70
     2
  0
STYLE
  5
11
330
3
100
AcDbSymbolTableRecord
100
AcDbTextStyleTableRecord
  2
Standard
 70
     0
 40
0.0
 41
1.0
 50
0.0
 71
     0
 42
2.5
  3
txt
  4

  0
STYLE
  5
24A
330
3
100
AcDbSymbolTableRecord
100
AcDbTextStyleTableRecord
  2
SEACAD_Arial
 70
     0
 40
0.0
 41
1.0
 50
0.0
 71
     0
 42
2.5
  3
arial.ttf
  4

1001
ACAD
1000
Arial
1071
        0
  0
ENDTAB
  0
TABLE
  2
VIEW
  5
6
330
0
100
AcDbSymbolTable
 70
     0
  0
ENDTAB
  0
TABLE
  2
UCS
  5
7
330
0
100
AcDbSymbolTable
 70
     0
  0
ENDTAB
  0
TABLE
  2
APPID
  5
9
330
0
100
AcDbSymbolTable
 70
     2
  0
APPID
  5
12
330
9
100
AcDbSymbolTableRecord
100
AcDbRegAppTableRecord
  2
ACAD
 70
     0
  0
APPID
  5
46A
330
9
100
AcDbSymbolTableRecord
100
AcDbRegAppTableRecord
  2
ACAD_MLEADERVER
 70
     0
  0
ENDTAB
  0
TABLE
  2
DIMSTYLE
  5
A
330
0
100
AcDbSymbolTable
 70
     3
100
AcDbDimStyleTable
  0
DIMSTYLE
105
27
330
A
100
AcDbSymbolTableRecord
100
AcDbDimStyleTableRecord
  2
ISO-25
 70
     0
 41
2.5
 42
0.625
 43
3.75
 44
1.25
 73
     0
 74
     0
 77
     1
 78
     8
140
2.5
141
2.5
143
0.0393700787
147
0.625
171
     3
172
     1
178
     0
271
     2
272
     2
274
     3
278
    44
283
     0
284
     8
340
11
  0
DIMSTYLE
105
237
330
A
100
AcDbSymbolTableRecord
100
AcDbDimStyleTableRecord
  2
Standard
 70
     0
178
     0
340
11
  0
DIMSTYLE
105
24B
102
{ACAD_REACTORS
330
24C
330
256
330
372
330
37C
102
}
330
A
100
AcDbSymbolTableRecord
100
AcDbDimStyleTableRecord
  2
E-Katalog
 70
     0
 41
3.75
 42
0.75
 44
1.25
 73
     0
 74
     0
 77
     1
 78
     8
140
2.5
141
1.25
147
1.25
172
     1
173
     1
178
     0
271
     2
272
     2
278
    44
284
     8
340
24A
343
244
344
244
  0
ENDTAB
  0
TABLE
  2
BLOCK_RECORD
  5
1
330
0
100
AcDbSymbolTable
 70
    12
  0
BLOCK_RECORD
  5
1F
330
1
100
AcDbSymbolTableRecord
100
AcDbBlockTableRecord
  2
*Model_Space
340
22
 70
     0
280
     1
281
     0
  0
BLOCK_RECORD
  5
1B
330
1
100
AcDbSymbolTableRecord
100
AcDbBlockTableRecord
  2
*Paper_Space
340
1E
 70
     0
280
     1
281
     0
  0
BLOCK_RECORD
  5
72
330
1
100
AcDbSymbolTableRecord
100
AcDbBlockTableRecord
  2
SE
340
0
102
{BLKREFS
331
73
102
}
 70
     0
280
     1
281
     0
  0
BLOCK_RECORD
  5
18A
330
1
100
AcDbSymbolTableRecord
100
AcDbBlockTableRecord
  2
SE1
340
0
102
{BLKREFS
331
18B
102
}
 70
     0
280
     1
281
     0
  0
BLOCK_RECORD
  5
238
330
1
100
AcDbSymbolTableRecord
100
AcDbBlockTableRecord
  2
_OBLIQUE
340
0
 70
     0
280
     1
281
     0
  0
BLOCK_RECORD
  5
23C
330
1
100
AcDbSymbolTableRecord
100
AcDbBlockTableRecord
  2
_DOT
340
0
 70
     0
280
     1
281
     0
  0
BLOCK_RECORD
  5
244
330
1
100
AcDbSymbolTableRecord
100
AcDbBlockTableRecord
  2
_SE_OPEN
340
0
 70
     0
280
     1
281
     0
  0
BLOCK_RECORD
  5
24D
330
1
100
AcDbSymbolTableRecord
100
AcDbBlockTableRecord
  2
DMBLK13
340
0
 70
     0
280
     1
281
     0
  0
BLOCK_RECORD
  5
257
330
1
100
AcDbSymbolTableRecord
100
AcDbBlockTableRecord
  2
DMBLK14
340
0
 70
     0
280
     1
281
     0
  0
BLOCK_RECORD
  5
260
330
1
100
AcDbSymbolTableRecord
100
AcDbBlockTableRecord
  2
SE2
340
0
102
{BLKREFS
331
261
102
}
 70
     0
280
     1
281
     0
  0
BLOCK_RECORD
  5
373
330
1
100
AcDbSymbolTableRecord
100
AcDbBlockTableRecord
  2
DMBLK15
340
0
 70
     0
280
     1
281
     0
  0
BLOCK_RECORD
  5
37D
330
1
100
AcDbSymbolTableRecord
100
AcDbBlockTableRecord
  2
DMBLK16
340
0
 70
     0
280
     1
281
     0
  0
BLOCK_RECORD
  5
386
330
1
100
AcDbSymbolTableRecord
100
AcDbBlockTableRecord
  2
SE3
340
0
102
{BLKREFS
331
387
102
}
 70
     0
280
     1
281
     0
  0
ENDTAB
  0
ENDSEC
  0
SECTION
  2
BLOCKS
  0
BLOCK
  5
20
330
1F
100
AcDbEntity
  8
0
100
AcDbBlockBegin
  2
*Model_Space
 70
     0
 10
0.0
 20
0.0
 30
0.0
  3
*Model_Space
  1
*Model_Space
  0
ENDBLK
  5
21
330
1F
100
AcDbEntity
  8
0
100
AcDbBlockEnd
  0
BLOCK
  5
1C
330
1B
100
AcDbEntity
 67
     1
  8
0
100
AcDbBlockBegin
  2
*Paper_Space
 70
     0
 10
0.0
 20
0.0
 30
0.0
  3
*Paper_Space
  1
*Paper_Space
  0
ENDBLK
  5
1D
330
1B
100
AcDbEntity
 67
     1
  8
0
100
AcDbBlockEnd
  0
BLOCK
  5
188
330
72
100
AcDbEntity
  8
0
100
AcDbBlockBegin
  2
SE
 70
     0
 10
0.0
 20
0.0
 30
0.0
  3
SE
  1
SE
  0
LINE
  5
75
330
72
100
AcDbEntity
  8
3MM_SCHRAUBE_X_1
  6
Continuous
 62
     7
100
AcDbLine
 10
50.3981455911
 20
142.536552621
 30
0.0
 11
51.3290118078
 21
142.5219092504
 31
0.0
  0
LINE
  5
76
330
72
100
AcDbEntity
  8
3MM_SCHRAUBE_X_1
  6
Continuous
 62
     7
100
AcDbLine
 10
51.3290118078
 20
142.5219092504
 30
0.0
 11
51.3436551629
 21
141.5910430334
 31
0.0
  0
LINE
  5
77
330
72
100
AcDbEntity
  8
3MM_SCHRAUBE_X_1
  6
Continuous
 62
     7
100
AcDbLine
 10
51.3436551629
 20
141.5910430334
 30
0.0
 11
50.4245349032
 21
140.6719227891
 31
0.0
  0
LINE
  5
78
330
72
100
AcDbEntity
  8
3MM_SCHRAUBE_X_1
  6
Continuous
 62
     7
100
AcDbLine
 10
50.4245349032
 20
140.6719227891
 30
0.0
 11
51.3436551475
 21
139.7528025295
 31
0.0
  0
LINE
  5
79
330
72
100
AcDbEntity
  8
3MM_SCHRAUBE_X_1
  6
Continuous
 62
     7
100
AcDbLine
 10
51.3436551475
 20
139.7528025295
 30
0.0
 11
51.3290117768
 21
138.8219363128
 31
0.0
  0
LINE
  5
7A
330
72
100
AcDbEntity
  8
3MM_SCHRAUBE_X_1
  6
Continuous
 62
     7
100
AcDbLine
 10
51.3290117768
 20
138.8219363128
 30
0.0
 11
50.3981455598
 21
138.8072929577
 31
0.0
  0
LINE
  5
7B
330
72
100
AcDbEntity
  8
3MM_SCHRAUBE_X_1
  6
Continuous
 62
     7
100
AcDbLine
 10
50.3981455598
 20
138.8072929577
 30
0.0
 11
49.4790253156
 21
139.7264132174
 31
0.0
  0
LINE
  5
7C
330
72
100
AcDbEntity
  8
3MM_SCHRAUBE_X_1
  6
Continuous
 62
     7
100
AcDbLine
 10
49.4790253156
 20
139.7264132174
 30
0.0
 11
48.5599050559
 21
138.8072929731
 31
0.0
  0
LINE
  5
7D
330
72
100
AcDbEntity
  8
3MM_SCHRAUBE_X_1
  6
Continuous
 62
     7
100
AcDbLine
 10
48.5599050559
 20
138.8072929731
 30
0.0
 11
47.6290388392
 21
138.8219363438
 31
0.0
  0
LINE
  5
7E
330
72
100
AcDbEntity
  8
3MM_SCHRAUBE_X_1
  6
Continuous
 62
     7
100
AcDbLine
 10
47.6290388392
 20
138.8219363438
 30
0.0
 11
47.6143954841
 21
139.7528025607
 31
0.0
  0
LINE
  5
7F
330
72
100
AcDbEntity
  8
3MM_SCHRAUBE_X_1
  6
Continuous
 62
     7
100
AcDbLine
 10
47.6143954841
 20
139.7528025607
 30
0.0
 11
48.5335157438
 21
140.671922805
 31
0.0
  0
LINE
  5
80
330
72
100
AcDbEntity
  8
3MM_SCHRAUBE_X_1
  6
Continuous
 62
     7
100
AcDbLine
 10
48.5335157438
 20
140.671922805
 30
0.0
 11
47.6143954995
 21
141.5910430647
 31
0.0
  0
LINE
  5
81
330
72
100
AcDbEntity
  8
3MM_SCHRAUBE_X_1
  6
Continuous
 62
     7
100
AcDbLine
 10
47.6143954995
 20
141.5910430647
 30
0.0
 11
47.6290388702
 21
142.5219092814
 31
0.0
  0
LINE
  5
82
330
72
100
AcDbEntity
  8
3MM_SCHRAUBE_X_1
  6
Continuous
 62
     7
100
AcDbLine
 10
47.6290388702
 20
142.5219092814
 30
0.0
 11
48.5599050871
 21
142.5365526365
 31
0.0
  0
LINE
  5
83
330
72
100
AcDbEntity
  8
3MM_SCHRAUBE_X_1
  6
Continuous
 62
     7
100
AcDbLine
 10
48.5599050871
 20
142.5365526365
 30
0.0
 11
49.4790253314
 21
141.6174323768
 31
0.0
  0
LINE
  5
84
330
72
100
AcDbEntity
  8
3MM_SCHRAUBE_X_1
  6
Continuous
 62
     7
100
AcDbLine
 10
49.4790253314
 20
141.6174323768
 30
0.0
 11
50.3981455911
 21
142.536552621
 31
0.0
  0
LINE
  5
86
330
72
100
AcDbEntity
  8
AW_079
  6
Continuous
 62
     7
100
AcDbLine
 10
55.3790252304
 20
130.5678016215
 30
0.0
 11
60.5790239829
 21
130.5678015336
 31
0.0
  0
ARC
  5
87
330
72
100
AcDbEntity
  8
AW_079
  6
Continuous
 62
     7
100
AcDbCircle
 10
60.5790239947
 20
131.2678015336
 30
0.0
 40
0.6999999999999993
100
AcDbArc
 50
269.999999031
 51
359.9999995198
  0
LINE
  5
88
330
72
100
AcDbEntity
  8
AW_079
  6
Continuous
 62
     7
100
AcDbLine
 10
61.2790239947
 20
131.2678015277
 30
0.0
 11
61.2790240574
 21
138.7551654938
 31
0.0
  0
ARC
  5
89
330
72
100
AcDbEntity
  8
AW_079
  6
Continuous
 62
     7
100
AcDbCircle
 10
49.4790265575
 20
138.7628466575
 30
0.0
 40
11.8
100
AcDbArc
 50
359.9627035341
 51
179.9999995198
  0
LINE
  5
8A
330
72
100
AcDbEntity
  8
AW_079
  6
Continuous
 62
     7
100
AcDbLine
 10
37.6790265575
 20
138.7628467564
 30
0.0
 11
37.6790264946
 21
131.2678019149
 31
0.0
  0
ARC
  5
8B
330
72
100
AcDbEntity
  8
AW_079
  6
Continuous
 62
     7
100
AcDbCircle
 10
38.3790264946
 20
131.267801909
 30
0.0
 40
0.6999999999999993
100
AcDbArc
 50
179.9999995198
 51
269.999999031
  0
LINE
  5
8C
330
72
100
AcDbEntity
  8
AW_079
  6
Continuous
 62
     7
100
AcDbLine
 10
38.3790264828
 20
130.567801909
 30
0.0
 11
43.5790252304
 21
130.5678018211
 31
0.0
  0
CIRCLE
  5
8D
330
72
100
AcDbEntity
  8
AW_079
  6
Continuous
 62
     7
100
AcDbCircle
 10
49.4790253235
 20
140.6719227971
 30
0.0
 40
3.25
  0
LINE
  5
8E
330
72
100
AcDbEntity
  8
AW_079
  6
Continuous
 62
     7
100
AcDbLine
 10
55.3790252304
 20
130.5678016215
 30
0.0
 11
55.3790252259
 21
130.031418388
 31
0.0
  0
LINE
  5
8F
330
72
100
AcDbEntity
  8
AW_079
  6
Continuous
 62
     7
100
AcDbLine
 10
43.5790252257
 20
130.0104929714
 30
0.0
 11
43.5790252304
 21
130.5678018211
 31
0.0
  0
LINE
  5
90
330
72
100
AcDbEntity
  8
AW_079
  6
Continuous
 62
     7
100
AcDbLine
 10
43.6669920231
 20
137.0725672513
 30
0.0
 11
42.5121894166
 21
134.8061403558
 31
0.0
  0
LINE
  5
91
330
72
100
AcDbEntity
  8
AW_079
  6
Continuous
 62
     7
100
AcDbLine
 10
40.9933042356
 20
131.8251614373
 30
0.0
 11
57.9849043534
 21
131.8251612949
 31
0.0
  0
LINE
  5
92
330
72
100
AcDbEntity
  8
AW_079
  6
Continuous
 62
     7
100
AcDbLine
 10
57.9849043534
 20
131.8251612949
 30
0.0
 11
56.8244633208
 21
134.3137359561
 31
0.0
  0
LINE
  5
93
330
72
100
AcDbEntity
  8
AW_079
  6
Continuous
 62
     7
100
AcDbLine
 10
56.2953749049
 20
135.4483701065
 30
0.0
 11
43.6669920231
 21
137.0725672513
 31
0.0
  0
LINE
  5
94
330
72
100
AcDbEntity
  8
AW_079
  6
Continuous
 62
     7
100
AcDbLine
 10
56.5948020875
 20
134.8062462256
 30
0.0
 11
56.2953749049
 21
135.4483701065
 31
0.0
  0
LINE
  5
95
330
72
100
AcDbEntity
  8
AW_079
  6
Continuous
 62
     7
100
AcDbLine
 10
56.8244633208
 20
134.3137359561
 30
0.0
 11
55.9038882351
 21
134.2229908695
 31
0.0
  0
ARC
  5
96
330
72
100
AcDbEntity
  8
AW_079
  6
Continuous
 62
     7
100
AcDbCircle
 10
55.9724614081
 20
133.5273415852
 30
0.0
 40
0.6990208914923824
100
AcDbArc
 50
95.6297065434
 51
179.9972137624
  0
LINE
  5
97
330
72
100
AcDbEntity
  8
AW_079
  6
Continuous
 62
     7
100
AcDbLine
 10
55.2734405174
 20
133.5273755779
 30
0.0
 11
55.2733816973
 21
132.3178075404
 31
0.0
  0
LINE
  5
98
330
72
100
AcDbEntity
  8
AW_079
  6
Continuous
 62
     7
100
AcDbLine
 10
55.2733816973
 20
132.3178075404
 30
0.0
 11
54.644159677
 21
132.3178028101
 31
0.0
  0
LINE
  5
99
330
72
100
AcDbEntity
  8
AW_079
  6
Continuous
 62
     7
100
AcDbLine
 10
54.644159677
 20
132.3178028101
 30
0.0
 11
54.6441409696
 21
134.806231561
 31
0.0
  0
LINE
  5
9A
330
72
100
AcDbEntity
  8
AW_079
  6
Continuous
 62
     7
100
AcDbLine
 10
54.6441409696
 20
134.806231561
 30
0.0
 11
55.1764615006
 21
134.8062355629
 31
0.0
  0
LINE
  5
9B
330
72
100
AcDbEntity
  8
AW_079
  6
Continuous
 62
     7
100
AcDbLine
 10
55.1764615006
 20
134.8062355629
 30
0.0
 11
55.266250174
 21
134.5625288752
 31
0.0
  0
ARC
  5
9C
330
72
100
AcDbEntity
  8
AW_079
  6
Continuous
 62
     7
100
AcDbCircle
 10
55.8468969963
 20
133.992684887
 30
0.0
 40
0.8135557160563159
100
AcDbArc
 50
90.0004307363
 51
135.5379778815
  0
LINE
  5
9D
330
72
100
AcDbEntity
  8
AW_079
  6
Continuous
 62
     7
100
AcDbLine
 10
55.8468908801
 20
134.806240603
 30
0.0
 11
56.5948020875
 21
134.8062462256
 31
0.0
  0
LINE
  5
9E
330
72
100
AcDbEntity
  8
AW_079
  6
Continuous
 62
     7
100
AcDbLine
 10
42.214227488
 20
134.2213573593
 30
0.0
 11
40.9933042356
 21
131.8251614373
 31
0.0
  0
LINE
  5
9F
330
72
100
AcDbEntity
  8
AW_079
  6
Continuous
 62
     7
100
AcDbLine
 10
44.4068407273
 20
133.3373851737
 30
0.0
 11
43.7212946499
 21
133.1722169957
 31
0.0
  0
ARC
  5
A0
330
72
100
AcDbEntity
  8
AW_079
  6
Continuous
 62
     7
100
AcDbCircle
 10
43.7457342293
 20
133.450431374
 30
0.0
 40
0.6707020538830533
100
AcDbArc
 50
316.6201834045
 51
350.296530989
  0
ARC
  5
A1
330
72
100
AcDbEntity
  8
AW_079
  6
Continuous
 62
     7
100
AcDbCircle
 10
43.9078222052
 20
133.2435342373
 30
0.0
 40
0.4126421423710718
100
AcDbArc
 50
235.6538334604
 51
322.0503235954
  0
ARC
  5
A2
330
72
100
AcDbEntity
  8
AW_079
  6
Continuous
 62
     7
100
AcDbCircle
 10
43.7325347297
 20
133.0316209192
 30
0.0
 40
0.1410446600308615
100
AcDbArc
 50
94.5708412159
 51
245.9316440306
  0
ARC
  5
A3
330
72
100
AcDbEntity
  8
AW_079
  6
Continuous
 62
     7
100
AcDbCircle
 10
44.099192729
 20
133.9352022237
 30
0.0
 40
0.8709500628594417
100
AcDbArc
 50
0.0004307363
 51
90.0004307363
  0
LINE
  5
A4
330
72
100
AcDbEntity
  8
AW_079
  6
Continuous
 62
     7
100
AcDbLine
 10
44.0991861814
 20
134.8061522865
 30
0.0
 11
42.5121894166
 21
134.8061403558
 31
0.0
  0
LINE
  5
A5
330
72
100
AcDbEntity
  8
AW_079
  6
Continuous
 62
     7
100
AcDbLine
 10
42.214227488
 20
134.2213573593
 30
0.0
 11
44.1486226575
 21
134.2213719016
 31
0.0
  0
ARC
  5
A6
330
72
100
AcDbEntity
  8
AW_079
  6
Continuous
 62
     7
100
AcDbCircle
 10
44.166256319
 20
134.0152445939
 30
0.0
 40
0.2068801900205314
100
AcDbArc
 50
271.0507823846
 51
94.8896019292
  0
LINE
  5
A7
330
72
100
AcDbEntity
  8
AW_079
  6
Continuous
 62
     7
100
AcDbLine
 10
44.1700502088
 20
133.8083991941
 30
0.0
 11
43.429547492
 21
133.6763793143
 31
0.0
  0
ARC
  5
A8
330
72
100
AcDbEntity
  8
AW_079
  6
Continuous
 62
     7
100
AcDbCircle
 10
43.5503410361
 20
132.9988453876
 30
0.0
 40
0.6882174817543371
100
AcDbArc
 50
100.1087183354
 51
261.7681819849
  0
LINE
  5
A9
330
72
100
AcDbEntity
  8
AW_079
  6
Continuous
 62
     7
100
AcDbLine
 10
43.4518030459
 20
132.3177186984
 30
0.0
 11
44.0554048981
 21
132.3177232362
 31
0.0
  0
ARC
  5
AA
330
72
100
AcDbEntity
  8
AW_079
  6
Continuous
 62
     7
100
AcDbCircle
 10
44.0554005949
 20
132.8901330848
 30
0.0
 40
0.5724098486945559
100
AcDbArc
 50
270.0004307363
 51
313.5051589249
  0
LINE
  5
AB
330
72
100
AcDbEntity
  8
AW_079
  6
Continuous
 62
     7
100
AcDbLine
 10
44.4494589175
 20
132.4749571303
 30
0.0
 11
44.5167404267
 21
132.3177263748
 31
0.0
  0
LINE
  5
AC
330
72
100
AcDbEntity
  8
AW_079
  6
Continuous
 62
     7
100
AcDbLine
 10
44.5167404267
 20
132.3177263748
 30
0.0
 11
45.025602794
 21
132.3177302003
 31
0.0
  0
ARC
  5
AD
330
72
100
AcDbEntity
  8
AW_079
  6
Continuous
 62
     7
100
AcDbCircle
 10
45.0816566798
 20
132.4141187829
 30
0.0
 40
0.1115024527112492
100
AcDbArc
 50
180.0004307363
 51
239.8202553894
  0
LINE
  5
AE
330
72
100
AcDbEntity
  8
AW_079
  6
Continuous
 62
     7
100
AcDbLine
 10
44.970154227
 20
132.4141179447
 30
0.0
 11
44.9701427918
 21
133.9352087713
 31
0.0
  0
ARC
  5
AF
330
72
100
AcDbEntity
  8
AW_079
  6
Continuous
 62
     7
100
AcDbCircle
 10
51.0605742644
 20
133.6553063232
 30
0.0
 40
0.4043696720418803
100
AcDbArc
 50
0.0004307363
 51
140.2852935045
  0
LINE
  5
B0
330
72
100
AcDbEntity
  8
AW_079
  6
Continuous
 62
     7
100
AcDbLine
 10
51.4649439364
 20
133.6553093632
 30
0.0
 11
51.4649539917
 21
132.3177789095
 31
0.0
  0
LINE
  5
B1
330
72
100
AcDbEntity
  8
AW_079
  6
Continuous
 62
     7
100
AcDbLine
 10
51.4649539917
 20
132.3177789095
 30
0.0
 11
52.0870611794
 21
132.3177835864
 31
0.0
  0
LINE
  5
B2
330
72
100
AcDbEntity
  8
AW_079
  6
Continuous
 62
     7
100
AcDbLine
 10
52.0870611794
 20
132.3177835864
 30
0.0
 11
52.0870481793
 21
134.0470298636
 31
0.0
  0
ARC
  5
B3
330
72
100
AcDbEntity
  8
AW_079
  6
Continuous
 62
     7
100
AcDbCircle
 10
51.3186232945
 20
134.0470240868
 30
0.0
 40
0.7684248848564376
100
AcDbArc
 50
0.0004307363
 51
153.9145117768
  0
ARC
  5
B4
330
72
100
AcDbEntity
  8
AW_079
  6
Continuous
 62
     7
100
AcDbCircle
 10
49.9441555761
 20
134.021838301
 30
0.0
 40
0.7746665334103289
100
AcDbArc
 50
27.9486876597
 51
147.9495334086
  0
LINE
  5
B5
330
72
100
AcDbEntity
  8
AW_079
  6
Continuous
 62
     7
100
AcDbLine
 10
49.2875629333
 20
134.432927512
 30
0.0
 11
49.2875601271
 21
134.8061912915
 31
0.0
  0
LINE
  5
B6
330
72
100
AcDbEntity
  8
AW_079
  6
Continuous
 62
     7
100
AcDbLine
 10
49.2875601271
 20
134.8061912915
 30
0.0
 11
48.6654529394
 21
134.8061866146
 31
0.0
  0
LINE
  5
B7
330
72
100
AcDbEntity
  8
AW_079
  6
Continuous
 62
     7
100
AcDbLine
 10
48.6654529394
 20
134.8061866146
 30
0.0
 11
48.6654716468
 21
132.3177578637
 31
0.0
  0
LINE
  5
B8
330
72
100
AcDbEntity
  8
AW_079
  6
Continuous
 62
     7
100
AcDbLine
 10
48.6654716468
 20
132.3177578637
 30
0.0
 11
49.2875788346
 21
132.3177625405
 31
0.0
  0
LINE
  5
B9
330
72
100
AcDbEntity
  8
AW_079
  6
Continuous
 62
     7
100
AcDbLine
 10
49.2875788346
 20
132.3177625405
 30
0.0
 11
49.2875687793
 21
133.6552929942
 31
0.0
  0
ARC
  5
BA
330
72
100
AcDbEntity
  8
AW_079
  6
Continuous
 62
     7
100
AcDbCircle
 10
49.6919384514
 20
133.6552960341
 30
0.0
 40
0.4043696720418801
100
AcDbArc
 50
39.7155679682
 51
180.0004307363
  0
LINE
  5
BB
330
72
100
AcDbEntity
  8
AW_079
  6
Continuous
 62
     7
100
AcDbLine
 10
50.0029901028
 20
133.9136788931
 30
0.0
 11
50.0030021005
 21
132.3177679189
 31
0.0
  0
LINE
  5
BC
330
72
100
AcDbEntity
  8
AW_079
  6
Continuous
 62
     7
100
AcDbLine
 10
50.0030021005
 20
132.3177679189
 30
0.0
 11
50.7495307258
 21
132.3177735311
 31
0.0
  0
LINE
  5
BD
330
72
100
AcDbEntity
  8
AW_079
  6
Continuous
 62
     7
100
AcDbLine
 10
50.7495307258
 20
132.3177735311
 30
0.0
 11
50.7495187281
 21
133.9136845053
 31
0.0
  0
LINE
  5
BE
330
72
100
AcDbEntity
  8
AW_079
  6
Continuous
 62
     7
100
AcDbLine
 10
46.0277334293
 20
132.815423784
 30
0.0
 11
46.3387870232
 21
132.8154261224
 31
0.0
  0
LINE
  5
BF
330
72
100
AcDbEntity
  8
AW_079
  6
Continuous
 62
     7
100
AcDbLine
 10
46.3387870232
 20
132.8154261224
 30
0.0
 11
46.3387907647
 21
132.3177403722
 31
0.0
  0
LINE
  5
C0
330
72
100
AcDbEntity
  8
AW_079
  6
Continuous
 62
     7
100
AcDbLine
 10
46.3387907647
 20
132.3177403722
 30
0.0
 11
45.6544728582
 21
132.3177352277
 31
0.0
  0
ARC
  5
C1
330
72
100
AcDbEntity
  8
AW_079
  6
Continuous
 62
     7
100
AcDbCircle
 10
45.6544700521
 20
132.6909995403
 30
0.0
 40
0.3732643126540162
100
AcDbArc
 50
180.0004307363
 51
270.0004307363
  0
LINE
  5
C2
330
72
100
AcDbEntity
  8
AW_079
  6
Continuous
 62
     7
100
AcDbLine
 10
45.2812057394
 20
132.6909967342
 30
0.0
 11
45.2811926442
 21
134.4328968599
 31
0.0
  0
LINE
  5
C3
330
72
100
AcDbEntity
  8
AW_079
  6
Continuous
 62
     7
100
AcDbLine
 10
45.2811926442
 20
134.4328968599
 30
0.0
 11
44.9079283316
 21
134.4328940538
 31
0.0
  0
LINE
  5
C4
330
72
100
AcDbEntity
  8
AW_079
  6
Continuous
 62
     7
100
AcDbLine
 10
44.9079283316
 20
134.4328940538
 30
0.0
 11
44.9079250578
 21
134.8683690852
 31
0.0
  0
LINE
  5
C5
330
72
100
AcDbEntity
  8
AW_079
  6
Continuous
 62
     7
100
AcDbLine
 10
44.9079250578
 20
134.8683690852
 30
0.0
 11
45.2811893704
 21
134.8683718913
 31
0.0
  0
LINE
  5
C6
330
72
100
AcDbEntity
  8
AW_079
  6
Continuous
 62
     7
100
AcDbLine
 10
45.2811893704
 20
134.8683718913
 30
0.0
 11
45.2811842259
 21
135.5526897978
 31
0.0
  0
LINE
  5
C7
330
72
100
AcDbEntity
  8
AW_079
  6
Continuous
 62
     7
100
AcDbLine
 10
45.2811842259
 20
135.5526897978
 30
0.0
 11
45.9032914136
 21
135.5526944747
 31
0.0
  0
LINE
  5
C8
330
72
100
AcDbEntity
  8
AW_079
  6
Continuous
 62
     7
100
AcDbLine
 10
45.9032914136
 20
135.5526944747
 30
0.0
 11
45.9032965582
 21
134.8683765682
 31
0.0
  0
LINE
  5
C9
330
72
100
AcDbEntity
  8
AW_079
  6
Continuous
 62
     7
100
AcDbLine
 10
45.9032965582
 20
134.8683765682
 30
0.0
 11
46.3387715896
 21
134.868379842
 31
0.0
  0
LINE
  5
CA
330
72
100
AcDbEntity
  8
AW_079
  6
Continuous
 62
     7
100
AcDbLine
 10
46.3387715896
 20
134.868379842
 30
0.0
 11
46.3387748634
 21
134.4329048105
 31
0.0
  0
LINE
  5
CB
330
72
100
AcDbEntity
  8
AW_079
  6
Continuous
 62
     7
100
AcDbLine
 10
46.3387748634
 20
134.4329048105
 30
0.0
 11
45.903299832
 21
134.4329015367
 31
0.0
  0
LINE
  5
CC
330
72
100
AcDbEntity
  8
AW_079
  6
Continuous
 62
     7
100
AcDbLine
 10
45.903299832
 20
134.4329015367
 30
0.0
 11
45.9033110564
 21
132.9398442862
 31
0.0
  0
ARC
  5
CD
330
72
100
AcDbEntity
  8
AW_079
  6
Continuous
 62
     7
100
AcDbCircle
 10
46.027732494
 20
132.9398452215
 30
0.0
 40
0.124421437551365
100
AcDbArc
 50
180.0004307363
 51
270.0004307363
  0
LINE
  5
CE
330
72
100
AcDbEntity
  8
AW_079
  6
Continuous
 62
     7
100
AcDbLine
 10
47.0853093347
 20
133.6552764381
 30
0.0
 11
47.08531939
 21
132.3177459845
 31
0.0
  0
LINE
  5
CF
330
72
100
AcDbEntity
  8
AW_079
  6
Continuous
 62
     7
100
AcDbLine
 10
47.08531939
 20
132.3177459845
 30
0.0
 11
46.4632122022
 21
132.3177413076
 31
0.0
  0
LINE
  5
D0
330
72
100
AcDbEntity
  8
AW_079
  6
Continuous
 62
     7
100
AcDbLine
 10
46.4632122022
 20
132.3177413076
 30
0.0
 11
46.4631878826
 21
135.5526986838
 31
0.0
  0
LINE
  5
D1
330
72
100
AcDbEntity
  8
AW_079
  6
Continuous
 62
     7
100
AcDbLine
 10
46.4631878826
 20
135.5526986838
 30
0.0
 11
47.0852950703
 21
135.5527033607
 31
0.0
  0
LINE
  5
D2
330
72
100
AcDbEntity
  8
AW_079
  6
Continuous
 62
     7
100
AcDbLine
 10
47.0852950703
 20
135.5527033607
 30
0.0
 11
47.0853034887
 21
134.4329109559
 31
0.0
  0
ARC
  5
D3
330
72
100
AcDbEntity
  8
AW_079
  6
Continuous
 62
     7
100
AcDbCircle
 10
47.7486860797
 20
134.0469971638
 30
0.0
 40
0.7674672091440684
100
AcDbArc
 50
0.0
 51
149.8118784085
  0
LINE
  5
D4
330
72
100
AcDbEntity
  8
AW_079
  6
Continuous
 62
     7
100
AcDbLine
 10
48.5161532889
 20
134.0469971573
 30
0.0
 11
48.5161662889
 21
132.3177567412
 31
0.0
  0
LINE
  5
D5
330
72
100
AcDbEntity
  8
AW_079
  6
Continuous
 62
     7
100
AcDbLine
 10
48.5161662889
 20
132.3177567412
 30
0.0
 11
47.894058734
 21
132.3177520644
 31
0.0
  0
LINE
  5
D6
330
72
100
AcDbEntity
  8
AW_079
  6
Continuous
 62
     7
100
AcDbLine
 10
47.894058734
 20
132.3177520644
 30
0.0
 11
47.8940486788
 21
133.655282518
 31
0.0
  0
ARC
  5
D7
330
72
100
AcDbEntity
  8
AW_079
  6
Continuous
 62
     7
100
AcDbCircle
 10
47.4896790068
 20
133.655279478
 30
0.0
 40
0.4043696720418854
100
AcDbArc
 50
0.0004307363
 51
180.0004307363
  0
ELLIPSE
  5
D8
330
72
100
AcDbEntity
  8
AW_079
  6
Continuous
 62
     7
100
AcDbEllipse
 10
53.3623715606
 20
133.5620075494
 30
0.0
 11
9.297319002085229E-6
 21
-1.236712799639516
 31
0.0
210
0.0
220
0.0
230
1.0
 40
0.9252937502
 41
1.392760800370896
 42
7.513392174957509
  0
LINE
  5
D9
330
72
100
AcDbEntity
  8
AW_079
  6
Continuous
 62
     7
100
AcDbLine
 10
54.4409650243
 20
133.1489007142
 30
0.0
 11
53.8253038701
 21
133.1488960858
 31
0.0
  0
ELLIPSE
  5
DA
330
72
100
AcDbEntity
  8
AW_079
  6
Continuous
 62
     7
100
AcDbEllipse
 10
53.3623715606
 20
133.5620075494
 30
0.0
 11
-5.088147629431537E-6
 21
0.6768163306742859
 31
0.0
210
0.0
220
0.0
230
1.0
 40
0.8634929875
 41
1.900327656507769
 42
4.055849134121616
  0
LINE
  5
DB
330
72
100
AcDbEntity
  8
AW_079
  6
Continuous
 62
     7
100
AcDbLine
 10
52.8093926217
 20
133.342985891
 30
0.0
 11
54.4886080879
 21
133.3429985149
 31
0.0
  0
LINE
  5
DC
330
72
100
AcDbEntity
  8
AW_079
  6
Continuous
 62
     7
100
AcDbLine
 10
53.8037666574
 20
133.8904476917
 30
0.0
 11
52.920971258
 21
133.8904405571
 31
0.0
  0
ELLIPSE
  5
DD
330
72
100
AcDbEntity
  8
AW_079
  6
Continuous
 62
     7
100
AcDbEllipse
 10
53.3623715606
 20
133.5620075494
 30
0.0
 11
4.620461954023508E-6
 21
-0.6146056119003362
 31
0.0
210
0.0
220
0.0
230
1.0
 40
0.8496756725
 41
2.134577851231076
 42
4.148608414442242
  0
LINE
  5
DF
330
72
100
AcDbEntity
  8
AJ_221
  6
Continuous
 62
     7
100
AcDbLine
 10
55.2439845847
 20
130.5678017233
 30
0.0
 11
44.2439845847
 21
130.5678018155
 31
0.0
  0
LINE
  5
E0
330
72
100
AcDbEntity
  8
AJ_221
  6
Continuous
 62
     7
100
AcDbLine
 10
55.2439845294
 20
123.9678017233
 30
0.0
 11
44.2439845294
 21
123.9678018155
 31
0.0
  0
LINE
  5
E1
330
72
100
AcDbEntity
  8
AJ_221
  6
Continuous
 62
     7
100
AcDbLine
 10
55.2439845847
 20
130.5678017233
 30
0.0
 11
55.2790249526
 21
130.567801723
 31
0.0
  0
ARC
  5
E2
330
72
100
AcDbEntity
  8
AJ_221
  6
Continuous
 62
     7
100
AcDbCircle
 10
47.1818340835
 20
128.7569228745
 30
0.0
 40
8.297215326481739
100
AcDbArc
 50
0.1391586021
 51
12.6063499485
  0
LINE
  5
E3
330
72
100
AcDbEntity
  8
AJ_221
  6
Continuous
 62
     7
100
AcDbLine
 10
55.4790249376
 20
128.7770749304
 30
0.0
 11
55.4790249123
 21
125.7585285123
 31
0.0
  0
ARC
  5
E4
330
72
100
AcDbEntity
  8
AJ_221
  6
Continuous
 62
     7
100
AcDbCircle
 10
47.1818340586
 20
125.7786807072
 30
0.0
 40
8.297215326481428
100
AcDbArc
 50
347.3936490911
 51
359.8608404375
  0
LINE
  5
E5
330
72
100
AcDbEntity
  8
AJ_221
  6
Continuous
 62
     7
100
AcDbLine
 10
55.2790248973
 20
123.967801723
 30
0.0
 11
55.2439845294
 21
123.9678017233
 31
0.0
  0
LINE
  5
E6
330
72
100
AcDbEntity
  8
AJ_221
  6
Continuous
 62
     7
100
AcDbLine
 10
43.4790249123
 20
125.7585286128
 30
0.0
 11
43.4790249376
 21
128.777075031
 31
0.0
  0
ARC
  5
E7
330
72
100
AcDbEntity
  8
AJ_221
  6
Continuous
 62
     7
100
AcDbCircle
 10
51.7762157913
 20
128.756922836
 30
0.0
 40
8.297215326480998
100
AcDbArc
 50
167.3936490911
 51
179.8608404375
  0
LINE
  5
E8
330
72
100
AcDbEntity
  8
AJ_221
  6
Continuous
 62
     7
100
AcDbLine
 10
43.6790249526
 20
130.5678018202
 30
0.0
 11
44.2439845847
 21
130.5678018155
 31
0.0
  0
LINE
  5
E9
330
72
100
AcDbEntity
  8
AJ_221
  6
Continuous
 62
     7
100
AcDbLine
 10
44.2439845294
 20
123.9678018155
 30
0.0
 11
43.6790248973
 21
123.9678018202
 31
0.0
  0
ARC
  5
EA
330
72
100
AcDbEntity
  8
AJ_221
  6
Continuous
 62
     7
100
AcDbCircle
 10
51.7762157664
 20
125.7786806687
 30
0.0
 40
8.297215326481838
100
AcDbArc
 50
180.1391586021
 51
192.6063499485
  0
ARC
  5
EC
330
72
100
AcDbEntity
  8
AP_447__230
  6
Continuous
 62
     7
100
AcDbCircle
 10
40.1830248019
 20
112.8331479427
 30
0.0
 40
0.4999999999996897
100
AcDbArc
 50
119.4909796886
 51
319.2852090131
  0
ARC
  5
ED
330
72
100
AcDbEntity
  8
AP_447__230
  6
Continuous
 62
     7
100
AcDbCircle
 10
39.8384242307
 20
113.4424511893
 30
0.0
 40
0.2000000000036122
100
AcDbArc
 50
299.4909796886
 51
359.9999995202
  0
LINE
  5
EE
330
72
100
AcDbEntity
  8
AP_447__230
  6
Continuous
 62
     7
100
AcDbLine
 10
40.0384242983
 20
121.5177945021
 30
0.0
 11
40.0384242307
 21
113.4424511876
 31
0.0
  0
ARC
  5
EF
330
72
100
AcDbEntity
  8
AP_447__230
  6
Continuous
 62
     7
100
AcDbCircle
 10
38.2384242983
 20
121.5177945172
 30
0.0
 40
1.799999999999999
100
AcDbArc
 50
0.0
 51
54.5606868876
  0
ARC
  5
F0
330
72
100
AcDbEntity
  8
AP_447__230
  6
Continuous
 62
     7
100
AcDbCircle
 10
39.612378001
 20
123.4483285378
 30
0.0
 40
0.5695380102607248
100
AcDbArc
 50
107.9929146343
 51
234.5606868876
  0
LINE
  5
F1
330
72
100
AcDbEntity
  8
AP_447__230
  6
Continuous
 62
     7
100
AcDbLine
 10
39.436448082
 20
126.3906958864
 30
0.0
 11
39.4364480619
 21
123.9900131339
 31
0.0
  0
LINE
  5
F2
330
72
100
AcDbEntity
  8
AP_447__230
  6
Continuous
 62
     7
100
AcDbLine
 10
39.795011937
 20
126.3906958834
 30
0.0
 11
39.436448082
 21
126.3906958864
 31
0.0
  0
LINE
  5
F3
330
72
100
AcDbEntity
  8
AP_447__230
  6
Continuous
 62
     7
100
AcDbLine
 10
39.9603560786
 20
126.135648883
 30
0.0
 11
39.795011937
 21
126.3906958834
 31
0.0
  0
ARC
  5
F4
330
72
100
AcDbEntity
  8
AP_447__230
  6
Continuous
 62
     7
100
AcDbCircle
 10
40.0760237308
 20
126.210634939
 30
0.0
 40
0.137847431530419
100
AcDbArc
 50
212.9548939443
 51
281.7960351406
  0
ARC
  5
F5
330
72
100
AcDbEntity
  8
AP_447__230
  6
Continuous
 62
     7
100
AcDbCircle
 10
40.0156056547
 20
126.4999399681
 30
0.0
 40
0.4333939486490139
100
AcDbArc
 50
281.7960351406
 51
301.7846009598
  0
ARC
  5
F6
330
72
100
AcDbEntity
  8
AP_447__230
  6
Continuous
 62
     7
100
AcDbCircle
 10
39.2208573643
 20
127.4567893181
 30
0.0
 40
1.67417827315704
100
AcDbArc
 50
307.6664192741
 51
0.3048125102
  0
ARC
  5
F7
330
72
100
AcDbEntity
  8
AP_447__230
  6
Continuous
 62
     7
100
AcDbCircle
 10
38.8337183995
 20
127.2799158098
 30
0.0
 40
2.069648597527392
100
AcDbArc
 50
5.1500338834
 51
46.98632124
  0
ARC
  5
F8
330
72
100
AcDbEntity
  8
AP_447__230
  6
Continuous
 62
     7
100
AcDbCircle
 10
40.0171761147
 20
128.4339852037
 30
0.0
 40
0.4256985936373839
100
AcDbArc
 50
57.5521893104
 51
78.2035900703
  0
ARC
  5
F9
330
72
100
AcDbEntity
  8
AP_447__230
  6
Continuous
 62
     7
100
AcDbCircle
 10
40.0761632191
 20
128.7164289559
 30
0.0
 40
0.1371609849226389
100
AcDbArc
 50
78.2035900703
 51
146.4442800437
  0
LINE
  5
FA
330
72
100
AcDbEntity
  8
AP_447__230
  6
Continuous
 62
     7
100
AcDbLine
 10
39.795011955
 20
128.5406958834
 30
0.0
 11
39.9618602946
 21
128.7922443715
 31
0.0
  0
LINE
  5
FB
330
72
100
AcDbEntity
  8
AP_447__230
  6
Continuous
 62
     7
100
AcDbLine
 10
39.4374997916
 20
128.5406958864
 30
0.0
 11
39.795011955
 21
128.5406958834
 31
0.0
  0
LINE
  5
FC
330
72
100
AcDbEntity
  8
AP_447__230
  6
Continuous
 62
     7
100
AcDbLine
 10
39.6366638918
 20
130.0334937236
 30
0.0
 11
39.4374997916
 21
128.5406958864
 31
0.0
  0
ARC
  5
FD
330
72
100
AcDbEntity
  8
AP_447__230
  6
Continuous
 62
     7
100
AcDbCircle
 10
39.4035376613
 20
130.0556151263
 30
0.0
 40
0.2341734310521879
100
AcDbArc
 50
354.57942042
 51
93.5048650376
  0
ARC
  5
FE
330
72
100
AcDbEntity
  8
AP_447__230
  6
Continuous
 62
     7
100
AcDbCircle
 10
39.4061408694
 20
130.013112276
 30
0.0
 40
0.2767559271290341
100
AcDbArc
 50
93.5048650376
 51
163.9867859968
  0
ARC
  5
FF
330
72
100
AcDbEntity
  8
AP_447__230
  6
Continuous
 62
     7
100
AcDbCircle
 10
49.1382945426
 20
127.2200329004
 30
0.0
 40
10.401779755085
100
AcDbArc
 50
163.9867859968
 51
188.1930038057
  0
ARC
  5
100
330
72
100
AcDbEntity
  8
AP_447__230
  6
Continuous
 62
     7
100
AcDbCircle
 10
38.4850278272
 20
125.2944582151
 30
0.0
 40
0.569538010260723
100
AcDbArc
 50
295.1036805747
 51
51.0996840391
  0
LINE
  5
101
330
72
100
AcDbEntity
  8
AP_447__230
  6
Continuous
 62
     7
100
AcDbLine
 10
38.726658559
 20
113.5484387712
 30
0.0
 11
38.7266586531
 21
124.778717884
 31
0.0
  0
ARC
  5
102
330
72
100
AcDbEntity
  8
AP_447__230
  6
Continuous
 62
     7
100
AcDbCircle
 10
41.2266582099
 20
113.5497065234
 30
0.0
 40
2.499999972401836
100
AcDbArc
 50
180.0290547414
 51
248.1920793071
  0
ARC
  5
103
330
72
100
AcDbEntity
  8
AP_447__230
  6
Continuous
 62
     7
100
AcDbCircle
 10
49.585322596
 20
134.4394827035
 30
0.0
 40
25.00000039846504
100
AcDbArc
 50
248.1920793069
 51
269.7563826105
  0
ARC
  5
104
330
72
100
AcDbEntity
  8
AP_447__230
  6
Continuous
 62
     7
100
AcDbCircle
 10
49.3727273742
 20
134.4394827053
 30
0.0
 40
25.00000039846503
100
AcDbArc
 50
270.2436164289
 51
291.8079197324
  0
ARC
  5
105
330
72
100
AcDbEntity
  8
AP_447__230
  6
Continuous
 62
     7
100
AcDbCircle
 10
57.73139141
 20
113.549706385
 30
0.0
 40
2.499999972401818
100
AcDbArc
 50
291.8079197324
 51
359.9709442979
  0
LINE
  5
106
330
72
100
AcDbEntity
  8
AP_447__230
  6
Continuous
 62
     7
100
AcDbLine
 10
60.2313911551
 20
124.7787177037
 30
0.0
 11
60.2313910609
 21
113.5484385909
 31
0.0
  0
ARC
  5
107
330
72
100
AcDbEntity
  8
AP_447__230
  6
Continuous
 62
     7
100
AcDbCircle
 10
60.4730219896
 20
125.2944580308
 30
0.0
 40
0.5695380102607279
100
AcDbArc
 50
128.9003150002
 51
244.8963184646
  0
ARC
  5
108
330
72
100
AcDbEntity
  8
AP_447__230
  6
Continuous
 62
     7
100
AcDbCircle
 10
49.8197553066
 20
127.2200328947
 30
0.0
 40
10.40177975508503
100
AcDbArc
 50
351.8069952336
 51
16.0132130425
  0
ARC
  5
109
330
72
100
AcDbEntity
  8
AP_447__230
  6
Continuous
 62
     7
100
AcDbCircle
 10
59.5519090266
 20
130.0131121071
 30
0.0
 40
0.276755927129066
100
AcDbArc
 50
16.0132130425
 51
86.4951340017
  0
ARC
  5
10A
330
72
100
AcDbEntity
  8
AP_447__230
  6
Continuous
 62
     7
100
AcDbCircle
 10
59.5545122354
 20
130.0556149573
 30
0.0
 40
0.2341734310521853
100
AcDbArc
 50
86.4951340017
 51
185.4205786193
  0
LINE
  5
10B
330
72
100
AcDbEntity
  8
AP_447__230
  6
Continuous
 62
     7
100
AcDbLine
 10
59.5216017713
 20
128.540695718
 30
0.0
 11
59.3213860046
 21
130.0334935586
 31
0.0
  0
LINE
  5
10C
330
72
100
AcDbEntity
  8
AP_447__230
  6
Continuous
 62
     7
100
AcDbLine
 10
59.1630379163
 20
128.540695721
 30
0.0
 11
59.5216017713
 21
128.540695718
 31
0.0
  0
LINE
  5
10D
330
72
100
AcDbEntity
  8
AP_447__230
  6
Continuous
 62
     7
100
AcDbLine
 10
58.9961895809
 20
128.7922442119
 30
0.0
 11
59.1630379163
 21
128.540695721
 31
0.0
  0
ARC
  5
10E
330
72
100
AcDbEntity
  8
AP_447__230
  6
Continuous
 62
     7
100
AcDbCircle
 10
58.8818866552
 20
128.7164287983
 30
0.0
 40
0.1371609849226443
100
AcDbArc
 50
33.5557189956
 51
101.796408969
  0
ARC
  5
10F
330
72
100
AcDbEntity
  8
AP_447__230
  6
Continuous
 62
     7
100
AcDbCircle
 10
58.9408737548
 20
128.4339850451
 30
0.0
 40
0.4256985936373821
100
AcDbArc
 50
101.796408969
 51
122.4478097289
  0
ARC
  5
110
330
72
100
AcDbEntity
  8
AP_447__230
  6
Continuous
 62
     7
100
AcDbCircle
 10
60.1243314507
 20
127.2799156313
 30
0.0
 40
2.069648597527391
100
AcDbArc
 50
133.0136777993
 51
174.8499651559
  0
ARC
  5
111
330
72
100
AcDbEntity
  8
AP_447__230
  6
Continuous
 62
     7
100
AcDbCircle
 10
59.7371924888
 20
127.4567891461
 30
0.0
 40
1.674178273157056
100
AcDbArc
 50
179.6951865291
 51
232.3335797653
  0
ARC
  5
112
330
72
100
AcDbEntity
  8
AP_447__230
  6
Continuous
 62
     7
100
AcDbCircle
 10
58.9424441824
 20
126.4999398095
 30
0.0
 40
0.4333939486490215
100
AcDbArc
 50
238.2153980795
 51
258.2039638987
  0
ARC
  5
113
330
72
100
AcDbEntity
  8
AP_447__230
  6
Continuous
 62
     7
100
AcDbCircle
 10
58.8820261014
 20
126.2106347814
 30
0.0
 40
0.1378474315304183
100
AcDbArc
 50
258.2039638987
 51
327.0451050951
  0
LINE
  5
114
330
72
100
AcDbEntity
  8
AP_447__230
  6
Continuous
 62
     7
100
AcDbLine
 10
59.1630378983
 20
126.390695721
 30
0.0
 11
58.9976937524
 21
126.1356487234
 31
0.0
  0
LINE
  5
115
330
72
100
AcDbEntity
  8
AP_447__230
  6
Continuous
 62
     7
100
AcDbLine
 10
59.5216017532
 20
126.390695718
 30
0.0
 11
59.1630378983
 21
126.390695721
 31
0.0
  0
LINE
  5
116
330
72
100
AcDbEntity
  8
AP_447__230
  6
Continuous
 62
     7
100
AcDbLine
 10
59.5216017331
 20
123.9900129655
 30
0.0
 11
59.5216017532
 21
126.390695718
 31
0.0
  0
ARC
  5
117
330
72
100
AcDbEntity
  8
AP_447__230
  6
Continuous
 62
     7
100
AcDbCircle
 10
59.3456717849
 20
123.4483283724
 30
0.0
 40
0.5695380102607218
100
AcDbArc
 50
305.4393121517
 51
72.007084405
  0
ARC
  5
118
330
72
100
AcDbEntity
  8
AP_447__230
  6
Continuous
 62
     7
100
AcDbCircle
 10
60.7196254552
 20
121.5177943287
 30
0.0
 40
1.8
100
AcDbArc
 50
125.4393121517
 51
179.9999995192
  0
LINE
  5
119
330
72
100
AcDbEntity
  8
AP_447__230
  6
Continuous
 62
     7
100
AcDbLine
 10
58.9196253875
 20
113.4424510293
 30
0.0
 11
58.9196254552
 21
121.5177943438
 31
0.0
  0
ARC
  5
11A
330
72
100
AcDbEntity
  8
AP_447__230
  6
Continuous
 62
     7
100
AcDbCircle
 10
59.1196253875
 20
113.4424510277
 30
0.0
 40
0.200000000003553
100
AcDbArc
 50
179.9999995192
 51
240.5090193507
  0
ARC
  5
11B
330
72
100
AcDbEntity
  8
AP_447__230
  6
Continuous
 62
     7
100
AcDbCircle
 10
58.775024806
 20
112.8331477868
 30
0.0
 40
0.4999999999996906
100
AcDbArc
 50
220.7147900262
 51
60.5090193507
  0
ARC
  5
11C
330
72
100
AcDbEntity
  8
AP_447__230
  6
Continuous
 62
     7
100
AcDbCircle
 10
58.2444486188
 20
112.3765419288
 30
0.0
 40
0.1999999999910126
100
AcDbArc
 50
40.7147900262
 51
121.6603536472
  0
ARC
  5
11D
330
72
100
AcDbEntity
  8
AP_447__230
  6
Continuous
 62
     7
100
AcDbCircle
 10
49.2512459095
 20
126.9603403252
 30
0.0
 40
16.93373487119723
100
AcDbArc
 50
270.7707196112
 51
301.6603536472
  0
ARC
  5
11E
330
72
100
AcDbEntity
  8
AP_447__230
  6
Continuous
 62
     7
100
AcDbCircle
 10
49.7068039353
 20
126.9603403214
 30
0.0
 40
16.93373487119719
100
AcDbArc
 50
238.3396453922
 51
269.2292794281
  0
ARC
  5
11F
330
72
100
AcDbEntity
  8
AP_447__230
  6
Continuous
 62
     7
100
AcDbCircle
 10
40.7136009815
 20
112.3765420758
 30
0.0
 40
0.1999999999909933
100
AcDbArc
 50
58.3396453922
 51
139.2852090131
  0
LINE
  5
121
330
72
100
AcDbEntity
  8
AP_448_0200
  6
Continuous
 62
     7
100
AcDbLine
 10
41.4375323222
 20
125.1617335328
 30
0.0
 11
41.4375322635
 21
118.1633332264
 31
0.0
  0
ARC
  5
122
330
72
100
AcDbEntity
  8
AP_448_0200
  6
Continuous
 62
     7
100
AcDbCircle
 10
42.037532322
 20
125.1617335278
 30
0.0
 40
0.5999999997806147
100
AcDbArc
 50
144.049431724
 51
179.9999995198
  0
ARC
  5
123
330
72
100
AcDbEntity
  8
AP_448_0200
  6
Continuous
 62
     7
100
AcDbCircle
 10
40.3375323363
 20
126.3946163477
 30
0.0
 40
1.499999999999107
100
AcDbArc
 50
324.049431724
 51
359.9999995198
  0
LINE
  5
124
330
72
100
AcDbEntity
  8
AP_448_0200
  6
Continuous
 62
     7
100
AcDbLine
 10
41.8375323554
 20
128.6678018356
 30
0.0
 11
41.8375323363
 21
126.3946163352
 31
0.0
  0
ARC
  5
125
330
72
100
AcDbEntity
  8
AP_448_0200
  6
Continuous
 62
     7
100
AcDbCircle
 10
40.3375323554
 20
128.6678018482
 30
0.0
 40
1.500000000002819
100
AcDbArc
 50
0.0
 51
89.9999995198
  0
LINE
  5
126
330
72
100
AcDbEntity
  8
AP_448_0200
  6
Continuous
 62
     7
100
AcDbLine
 10
39.6871061493
 20
130.1678018536
 30
0.0
 11
40.3375323679
 21
130.1678018482
 31
0.0
  0
ARC
  5
127
330
72
100
AcDbEntity
  8
AP_448_0200
  6
Continuous
 62
     7
100
AcDbCircle
 10
39.6871061476
 20
129.9678018536
 30
0.0
 40
0.1999999999999988
100
AcDbArc
 50
89.9999995198
 51
110.9042796709
  0
LINE
  5
128
330
72
100
AcDbEntity
  8
AP_448_0200
  6
Continuous
 62
     7
100
AcDbLine
 10
39.4871061379
 20
128.8064785442
 30
0.0
 11
39.4871061388
 21
128.9125111269
 31
0.0
  0
ARC
  5
129
330
72
100
AcDbEntity
  8
AP_448_0200
  6
Continuous
 62
     7
100
AcDbCircle
 10
39.6371061379
 20
128.806478543
 30
0.0
 40
0.1500000000004692
100
AcDbArc
 50
179.9999995198
 51
269.9999995198
  0
LINE
  5
12A
330
72
100
AcDbEntity
  8
AP_448_0200
  6
Continuous
 62
     7
100
AcDbLine
 10
39.6753631252
 20
128.6564785426
 30
0.0
 11
39.6371061366
 21
128.656478543
 31
0.0
  0
ARC
  5
12B
330
72
100
AcDbEntity
  8
AP_448_0200
  6
Continuous
 62
     7
100
AcDbCircle
 10
39.6753631265
 20
128.8064786174
 30
0.0
 40
0.1500000748122822
100
AcDbArc
 50
269.9999995198
 51
340.17611573
  0
LINE
  5
12C
330
72
100
AcDbEntity
  8
AP_448_0200
  6
Continuous
 62
     7
100
AcDbLine
 10
39.9602098778
 20
129.1543289213
 30
0.0
 11
39.816474119
 21
128.7556090762
 31
0.0
  0
ARC
  5
12D
330
72
100
AcDbEntity
  8
AP_448_0200
  6
Continuous
 62
     7
100
AcDbCircle
 10
40.1483577741
 20
129.0865029002
 30
0.0
 40
0.2000000000007135
100
AcDbArc
 50
89.9999995198
 51
160.17611573
  0
LINE
  5
12E
330
72
100
AcDbEntity
  8
AP_448_0200
  6
Continuous
 62
     7
100
AcDbLine
 10
40.4110208427
 20
129.286502898
 30
0.0
 11
40.1483577757
 21
129.2865029002
 31
0.0
  0
ARC
  5
12F
330
72
100
AcDbEntity
  8
AP_448_0200
  6
Continuous
 62
     7
100
AcDbCircle
 10
40.411020841
 20
129.086502898
 30
0.0
 40
0.2000000000060439
100
AcDbArc
 50
44.9999995196
 51
89.9999995198
  0
LINE
  5
130
330
72
100
AcDbEntity
  8
AP_448_0200
  6
Continuous
 62
     7
100
AcDbLine
 10
41.0218793785
 20
128.7584870652
 30
0.0
 11
40.5524421984
 21
129.2279242531
 31
0.0
  0
ARC
  5
131
330
72
100
AcDbEntity
  8
AP_448_0200
  6
Continuous
 62
     7
100
AcDbCircle
 10
40.6683259849
 20
128.4049336776
 30
0.0
 40
0.499999999998061
100
AcDbArc
 50
0.0
 51
44.9999995196
  0
LINE
  5
132
330
72
100
AcDbEntity
  8
AP_448_0200
  6
Continuous
 62
     7
100
AcDbLine
 10
41.1683259707
 20
126.707629903
 30
0.0
 11
41.1683259849
 21
128.4049336734
 31
0.0
  0
ARC
  5
133
330
72
100
AcDbEntity
  8
AP_448_0200
  6
Continuous
 62
     7
100
AcDbCircle
 10
40.6683259707
 20
126.7076299072
 30
0.0
 40
0.4999999999999983
100
AcDbArc
 50
314.9999995202
 51
359.9999995198
  0
LINE
  5
134
330
72
100
AcDbEntity
  8
AP_448_0200
  6
Continuous
 62
     7
100
AcDbLine
 10
40.5102745788
 20
125.8424717427
 30
0.0
 11
41.0218793583
 21
126.3540765136
 31
0.0
  0
ARC
  5
135
330
72
100
AcDbEntity
  8
AP_448_0200
  6
Continuous
 62
     7
100
AcDbCircle
 10
40.3688532238
 20
125.9838931002
 30
0.0
 40
0.2000000000012686
100
AcDbArc
 50
269.9999995199
 51
314.9999995201
  0
LINE
  5
136
330
72
100
AcDbEntity
  8
AP_448_0200
  6
Continuous
 62
     7
100
AcDbLine
 10
40.1483574777
 20
125.783893102
 30
0.0
 11
40.3688532221
 21
125.7838931002
 31
0.0
  0
ARC
  5
137
330
72
100
AcDbEntity
  8
AP_448_0200
  6
Continuous
 62
     7
100
AcDbCircle
 10
40.1483574794
 20
125.9838930979
 30
0.0
 40
0.1999999959098377
100
AcDbArc
 50
199.8238678092
 51
269.9999995198
  0
LINE
  5
138
330
72
100
AcDbEntity
  8
AP_448_0200
  6
Continuous
 62
     7
100
AcDbLine
 10
39.8164740118
 20
126.3147870954
 30
0.0
 11
39.9602095675
 21
125.9160671322
 31
0.0
  0
ARC
  5
139
330
72
100
AcDbEntity
  8
AP_448_0200
  6
Continuous
 62
     7
100
AcDbCircle
 10
39.6753630684
 20
126.2639176589
 30
0.0
 40
0.1499999930655582
100
AcDbArc
 50
19.8238530314
 51
57.6921060397
  0
ARC
  5
13A
330
72
100
AcDbEntity
  8
AP_448_0200
  6
Continuous
 62
     7
100
AcDbCircle
 10
39.6371061158
 20
126.2639177856
 30
0.0
 40
0.1499998666290412
100
AcDbArc
 50
122.3079069797
 51
180.0000046783
  0
LINE
  5
13B
330
72
100
AcDbEntity
  8
AP_448_0200
  6
Continuous
 62
     7
100
AcDbLine
 10
39.4871063352
 20
125.209330026
 30
0.0
 11
39.4871062491
 21
126.2639177734
 31
0.0
  0
ARC
  5
13C
330
72
100
AcDbEntity
  8
AP_448_0200
  6
Continuous
 62
     7
100
AcDbCircle
 10
40.134067323
 20
125.2093300206
 30
0.0
 40
0.6469609877716125
100
AcDbArc
 50
179.9999995198
 51
233.32440471
  0
LINE
  5
13D
330
72
100
AcDbEntity
  8
AP_448_0200
  6
Continuous
 62
     7
100
AcDbLine
 10
40.2352446293
 20
124.3273275755
 30
0.0
 11
39.7476481465
 21
124.6904478184
 31
0.0
  0
ARC
  5
13E
330
72
100
AcDbEntity
  8
AP_448_0200
  6
Continuous
 62
     7
100
AcDbCircle
 10
39.9366028381
 20
123.9263125128
 30
0.0
 40
0.5000000000000004
100
AcDbArc
 50
0.0
 51
53.32440471
  0
LINE
  5
13F
330
72
100
AcDbEntity
  8
AP_448_0200
  6
Continuous
 62
     7
100
AcDbLine
 10
40.4366027902
 20
118.1667406223
 30
0.0
 11
40.4366028381
 21
123.9263125086
 31
0.0
  0
ARC
  5
140
330
72
100
AcDbEntity
  8
AP_448_0200
  6
Continuous
 62
     7
100
AcDbCircle
 10
42.4365826382
 20
118.1577624505
 30
0.0
 40
2.000000000000004
100
AcDbArc
 50
179.7427934585
 51
275.024257625
  0
LINE
  5
141
330
72
100
AcDbEntity
  8
AP_448_0200
  6
Continuous
 62
     7
100
AcDbLine
 10
56.5214473091
 20
116.1654469155
 30
0.0
 11
42.6117376367
 21
116.1654470321
 31
0.0
  0
ARC
  5
142
330
72
100
AcDbEntity
  8
AP_448_0200
  6
Continuous
 62
     7
100
AcDbCircle
 10
56.5214473258
 20
118.1654430683
 30
0.0
 40
1.999996152865285
100
AcDbArc
 50
269.9999995198
 51
0.0371679158
  0
LINE
  5
143
330
72
100
AcDbEntity
  8
AP_448_0200
  6
Continuous
 62
     7
100
AcDbLine
 10
58.5214472219
 20
123.926312357
 30
0.0
 11
58.5214430579
 21
118.1667404708
 31
0.0
  0
ARC
  5
144
330
72
100
AcDbEntity
  8
AP_448_0200
  6
Continuous
 62
     7
100
AcDbCircle
 10
59.0214472219
 20
123.9263123528
 30
0.0
 40
0.5000000000000007
100
AcDbArc
 50
126.6756323496
 51
179.9999995198
  0
LINE
  5
145
330
72
100
AcDbEntity
  8
AP_448_0200
  6
Continuous
 62
     7
100
AcDbLine
 10
59.3003792832
 20
124.8332019323
 30
0.0
 11
58.7228051713
 21
124.3273272224
 31
0.0
  0
ARC
  5
146
330
72
100
AcDbEntity
  8
AP_448_0200
  6
Continuous
 62
     7
100
AcDbCircle
 10
58.9709435751
 20
125.2093297221
 30
0.0
 40
0.4999999999979506
100
AcDbArc
 50
311.2138572742
 51
359.9999943614
  0
LINE
  5
147
330
72
100
AcDbEntity
  8
AP_448_0200
  6
Continuous
 62
     7
100
AcDbLine
 10
59.4709436789
 20
126.2639174975
 30
0.0
 11
59.4709435751
 21
125.2093296728
 31
0.0
  0
ARC
  5
148
330
72
100
AcDbEntity
  8
AP_448_0200
  6
Continuous
 62
     7
100
AcDbCircle
 10
59.3209437173
 20
126.2639175122
 30
0.0
 40
0.1499999615606831
100
AcDbArc
 50
0.0
 51
57.6921121742
  0
ARC
  5
149
330
72
100
AcDbEntity
  8
AP_448_0200
  6
Continuous
 62
     7
100
AcDbCircle
 10
59.2826867647
 20
126.2639174741
 30
0.0
 40
0.1499999999955269
100
AcDbArc
 50
122.3078826215
 51
160.1761386654
  0
LINE
  5
14A
330
72
100
AcDbEntity
  8
AP_448_0200
  6
Continuous
 62
     7
100
AcDbLine
 10
58.9978402086
 20
125.9160669911
 30
0.0
 11
59.1415758221
 21
126.3147869335
 31
0.0
  0
ARC
  5
14B
330
72
100
AcDbEntity
  8
AP_448_0200
  6
Continuous
 62
     7
100
AcDbCircle
 10
58.8096922912
 20
125.9838929415
 30
0.0
 40
0.1999999959117482
100
AcDbArc
 50
269.9999995198
 51
340.1761368385
  0
LINE
  5
14C
330
72
100
AcDbEntity
  8
AP_448_0200
  6
Continuous
 62
     7
100
AcDbLine
 10
58.5891966074
 20
125.7838929475
 30
0.0
 11
58.8096922896
 21
125.7838929456
 31
0.0
  0
ARC
  5
14D
330
72
100
AcDbEntity
  8
AP_448_0200
  6
Continuous
 62
     7
100
AcDbCircle
 10
58.5891966046
 20
125.9838929475
 30
0.0
 40
0.2000000000010736
100
AcDbArc
 50
224.9999995198
 51
270.0000008032
  0
LINE
  5
14E
330
72
100
AcDbEntity
  8
AP_448_0200
  6
Continuous
 62
     7
100
AcDbLine
 10
57.9361704763
 20
126.3540763719
 30
0.0
 11
58.4477752472
 21
125.8424715924
 31
0.0
  0
ARC
  5
14F
330
72
100
AcDbEntity
  8
AP_448_0200
  6
Continuous
 62
     7
100
AcDbCircle
 10
58.2897238698
 20
126.7076297595
 30
0.0
 40
0.499999999999997
100
AcDbArc
 50
179.9999995198
 51
224.9999995198
  0
LINE
  5
150
330
72
100
AcDbEntity
  8
AP_448_0200
  6
Continuous
 62
     7
100
AcDbLine
 10
57.7897238841
 20
128.4049335341
 30
0.0
 11
57.7897238698
 21
126.7076297637
 31
0.0
  0
ARC
  5
151
330
72
100
AcDbEntity
  8
AP_448_0200
  6
Continuous
 62
     7
100
AcDbCircle
 10
58.2897238841
 20
128.4049335299
 30
0.0
 40
0.5000000000246597
100
AcDbArc
 50
134.9999995213
 51
179.9999995198
  0
LINE
  5
152
330
72
100
AcDbEntity
  8
AP_448_0200
  6
Continuous
 62
     7
100
AcDbLine
 10
58.4056076843
 20
129.2279241035
 30
0.0
 11
57.9361704964
 21
128.7584869234
 31
0.0
  0
ARC
  5
153
330
72
100
AcDbEntity
  8
AP_448_0200
  6
Continuous
 62
     7
100
AcDbCircle
 10
58.5470290394
 20
129.086502746
 30
0.0
 40
0.2000000000385929
100
AcDbArc
 50
89.9999995198
 51
134.9999995213
  0
LINE
  5
154
330
72
100
AcDbEntity
  8
AP_448_0200
  6
Continuous
 62
     7
100
AcDbLine
 10
58.809692108
 20
129.2865027438
 30
0.0
 11
58.547029041
 21
129.286502746
 31
0.0
  0
ARC
  5
155
330
72
100
AcDbEntity
  8
AP_448_0200
  6
Continuous
 62
     7
100
AcDbCircle
 10
58.8096921063
 20
129.0865027438
 30
0.0
 40
0.2000000000007111
100
AcDbArc
 50
19.8238833095
 51
89.9999995198
  0
LINE
  5
156
330
72
100
AcDbEntity
  8
AP_448_0200
  6
Continuous
 62
     7
100
AcDbLine
 10
59.1415757558
 20
128.7556089143
 30
0.0
 11
58.9978400037
 21
129.1543287618
 31
0.0
  0
ARC
  5
157
330
72
100
AcDbEntity
  8
AP_448_0200
  6
Continuous
 62
     7
100
AcDbCircle
 10
59.2826867492
 20
128.8064784531
 30
0.0
 40
0.1500000748122787
100
AcDbArc
 50
199.8238833096
 51
269.9999995198
  0
LINE
  5
158
330
72
100
AcDbEntity
  8
AP_448_0200
  6
Continuous
 62
     7
100
AcDbLine
 10
59.3209437365
 20
128.656478378
 30
0.0
 11
59.282686748
 21
128.6564783783
 31
0.0
  0
ARC
  5
159
330
72
100
AcDbEntity
  8
AP_448_0200
  6
Continuous
 62
     7
100
AcDbCircle
 10
59.3209437378
 20
128.806478378
 30
0.0
 40
0.1500000000005317
100
AcDbArc
 50
269.9999995198
 51
359.9999995198
  0
LINE
  5
15A
330
72
100
AcDbEntity
  8
AP_448_0200
  6
Continuous
 62
     7
100
AcDbLine
 10
59.4709437387
 20
128.9183992466
 30
0.0
 11
59.4709437378
 21
128.8064783767
 31
0.0
  0
ARC
  5
15B
330
72
100
AcDbEntity
  8
AP_448_0200
  6
Continuous
 62
     7
100
AcDbCircle
 10
59.2709437475
 20
129.9678016895
 30
0.0
 40
0.1999999999999988
100
AcDbArc
 50
69.0957191557
 51
89.9999995198
  0
LINE
  5
15C
330
72
100
AcDbEntity
  8
AP_448_0200
  6
Continuous
 62
     7
100
AcDbLine
 10
58.6205175306
 20
130.167801695
 30
0.0
 11
59.2709437492
 21
130.1678016895
 31
0.0
  0
ARC
  5
15D
330
72
100
AcDbEntity
  8
AP_448_0200
  6
Continuous
 62
     7
100
AcDbCircle
 10
58.620517518
 20
128.667801695
 30
0.0
 40
1.500000000002813
100
AcDbArc
 50
89.9999995198
 51
179.9999995198
  0
LINE
  5
15E
330
72
100
AcDbEntity
  8
AP_448_0200
  6
Continuous
 62
     7
100
AcDbLine
 10
57.120517499
 20
126.3946162071
 30
0.0
 11
57.120517518
 21
128.6678017075
 31
0.0
  0
ARC
  5
15F
330
72
100
AcDbEntity
  8
AP_448_0200
  6
Continuous
 62
     7
100
AcDbCircle
 10
58.620517499
 20
126.3946161945
 30
0.0
 40
1.499999999999098
100
AcDbArc
 50
179.9999995198
 51
215.9505673158
  0
ARC
  5
160
330
72
100
AcDbEntity
  8
AP_448_0200
  6
Continuous
 62
     7
100
AcDbCircle
 10
56.9205174924
 20
125.1617334029
 30
0.0
 40
0.6000000000000024
100
AcDbArc
 50
0.0
 51
35.9505673158
  0
LINE
  5
161
330
72
100
AcDbEntity
  8
AP_448_0200
  6
Continuous
 62
     7
100
AcDbLine
 10
57.5205174338
 20
118.1633330917
 30
0.0
 11
57.5205174924
 21
125.1617333979
 31
0.0
  0
ARC
  5
162
330
72
100
AcDbEntity
  8
AP_448_0200
  6
Continuous
 62
     7
100
AcDbCircle
 10
56.5205174338
 20
118.1633331
 30
0.0
 40
0.9999999999977458
100
AcDbArc
 50
269.9999995186
 51
359.99999952
  0
LINE
  5
163
330
72
100
AcDbEntity
  8
AP_448_0200
  6
Continuous
 62
     7
100
AcDbLine
 10
42.4375322551
 20
117.1633332184
 30
0.0
 11
56.5205174254
 21
117.1633331
 31
0.0
  0
ARC
  5
164
330
72
100
AcDbEntity
  8
AP_448_0200
  6
Continuous
 62
     7
100
AcDbCircle
 10
42.4375322635
 20
118.1633332183
 30
0.0
 40
0.9999999999977449
100
AcDbArc
 50
179.9999995362
 51
269.9999995186
  0
ARC
  5
166
330
72
100
AcDbEntity
  8
AP_451__200
  6
Continuous
 62
     7
100
AcDbCircle
 10
37.6790260467
 20
111.9678038705
 30
0.0
 40
0.1999999999999988
100
AcDbArc
 50
179.9999995198
 51
269.9999995198
  0
LINE
  5
167
330
72
100
AcDbEntity
  8
AP_451__200
  6
Continuous
 62
     7
100
AcDbLine
 10
37.4790262043
 20
130.7678013722
 30
0.0
 11
37.4790260467
 21
111.9678038722
 31
0.0
  0
ARC
  5
168
330
72
100
AcDbEntity
  8
AP_451__200
  6
Continuous
 62
     7
100
AcDbCircle
 10
38.4790262043
 20
130.7678013638
 30
0.0
 40
0.9999999999996332
100
AcDbArc
 50
143.1300745475
 51
179.9999995198
  0
ARC
  5
169
330
72
100
AcDbEntity
  8
AP_451__200
  6
Continuous
 62
     7
100
AcDbCircle
 10
60.4790237043
 20
130.7678011794
 30
0.0
 40
0.9999999999996123
100
AcDbArc
 50
0.0
 51
36.8698698341
  0
LINE
  5
16A
330
72
100
AcDbEntity
  8
AP_451__200
  6
Continuous
 62
     7
100
AcDbLine
 10
61.4790235467
 20
111.9624307232
 30
0.0
 11
61.4790237043
 21
130.767801171
 31
0.0
  0
ARC
  5
16B
330
72
100
AcDbEntity
  8
AP_451__200
  6
Continuous
 62
     7
100
AcDbCircle
 10
61.2838279942
 20
111.9624307248
 30
0.0
 40
0.1951955524478997
100
AcDbArc
 50
269.5337069184
 51
359.9999995198
  0
ARC
  5
16C
330
72
100
AcDbEntity
  8
AP_451__200
  6
Continuous
 62
     7
100
AcDbCircle
 10
61.2888298562
 20
112.5770211231
 30
0.0
 40
0.8098063043086596
100
AcDbArc
 50
179.9999995199
 51
269.5337069184
  0
LINE
  5
16D
330
72
100
AcDbEntity
  8
AP_451__200
  6
Continuous
 62
     7
100
AcDbLine
 10
60.4790237009
 20
130.3678016794
 30
0.0
 11
60.4790235518
 21
112.5770211299
 31
0.0
  0
ARC
  5
16E
330
72
100
AcDbEntity
  8
AP_451__200
  6
Continuous
 62
     7
100
AcDbCircle
 10
60.2790237009
 20
130.3678016811
 30
0.0
 40
0.2000000000001723
100
AcDbArc
 50
0.0
 51
89.9999995197
  0
ARC
  5
16F
330
72
100
AcDbEntity
  8
AP_451__200
  6
Continuous
 62
     7
100
AcDbCircle
 10
58.3790249377
 20
128.767801697
 30
0.0
 40
1.800000000000001
100
AcDbArc
 50
89.9999995197
 51
179.9999995198
  0
LINE
  5
170
330
72
100
AcDbEntity
  8
AP_451__200
  6
Continuous
 62
     7
100
AcDbLine
 10
56.5790248874
 20
122.7678017118
 30
0.0
 11
56.5790249377
 21
128.7678017121
 31
0.0
  0
ARC
  5
171
330
72
100
AcDbEntity
  8
AP_451__200
  6
Continuous
 62
     7
100
AcDbCircle
 10
55.3790248874
 20
122.7678017219
 30
0.0
 40
1.199999999999999
100
AcDbArc
 50
269.9999995101
 51
359.9999995198
  0
LINE
  5
172
330
72
100
AcDbEntity
  8
AP_451__200
  6
Continuous
 62
     7
100
AcDbLine
 10
53.7790248771
 20
121.5678017356
 30
0.0
 11
55.3790248772
 21
121.5678017219
 31
0.0
  0
ARC
  5
173
330
72
100
AcDbEntity
  8
AP_451__200
  6
Continuous
 62
     7
100
AcDbCircle
 10
53.7790248789
 20
121.7678017356
 30
0.0
 40
0.1999999999999997
100
AcDbArc
 50
179.9999995198
 51
269.9999995101
  0
LINE
  5
174
330
72
100
AcDbEntity
  8
AP_451__200
  6
Continuous
 62
     7
100
AcDbLine
 10
53.5790248839
 20
122.3678017373
 30
0.0
 11
53.5790248789
 21
121.7678017373
 31
0.0
  0
ARC
  5
175
330
72
100
AcDbEntity
  8
AP_451__200
  6
Continuous
 62
     7
100
AcDbCircle
 10
53.7790248839
 20
122.3678017356
 30
0.0
 40
0.2000000000000005
100
AcDbArc
 50
89.9999995198
 51
179.9999995198
  0
LINE
  5
176
330
72
100
AcDbEntity
  8
AP_451__200
  6
Continuous
 62
     7
100
AcDbLine
 10
55.4790248856
 20
122.5678017213
 30
0.0
 11
53.7790248856
 21
122.5678017356
 31
0.0
  0
ARC
  5
177
330
72
100
AcDbEntity
  8
AP_451__200
  6
Continuous
 62
     7
100
AcDbCircle
 10
55.4790248872
 20
122.7678017213
 30
0.0
 40
0.1999999999999988
100
AcDbArc
 50
269.9999995198
 51
359.9999995198
  0
LINE
  5
178
330
72
100
AcDbEntity
  8
AP_451__200
  6
Continuous
 62
     7
100
AcDbLine
 10
55.6790249493
 20
130.1678017197
 30
0.0
 11
55.6790248872
 21
122.7678017197
 31
0.0
  0
ARC
  5
179
330
72
100
AcDbEntity
  8
AP_451__200
  6
Continuous
 62
     7
100
AcDbCircle
 10
55.2790249493
 20
130.167801723
 30
0.0
 40
0.400000000000001
100
AcDbArc
 50
0.0
 51
75.5224462396
  0
ARC
  5
17A
330
72
100
AcDbEntity
  8
AP_451__200
  6
Continuous
 62
     7
100
AcDbCircle
 10
43.6790249493
 20
130.1678018202
 30
0.0
 40
0.4000000000000019
100
AcDbArc
 50
104.4774706115
 51
179.9999995198
  0
LINE
  5
17B
330
72
100
AcDbEntity
  8
AP_451__200
  6
Continuous
 62
     7
100
AcDbLine
 10
43.2790248872
 20
122.7678018236
 30
0.0
 11
43.2790249493
 21
130.1678018236
 31
0.0
  0
ARC
  5
17C
330
72
100
AcDbEntity
  8
AP_451__200
  6
Continuous
 62
     7
100
AcDbCircle
 10
43.4790248872
 20
122.7678018219
 30
0.0
 40
0.2000000000000023
100
AcDbArc
 50
179.9999995198
 51
269.9999995198
  0
LINE
  5
17D
330
72
100
AcDbEntity
  8
AP_451__200
  6
Continuous
 62
     7
100
AcDbLine
 10
45.0790248856
 20
122.5678018085
 30
0.0
 11
43.4790248856
 21
122.5678018219
 31
0.0
  0
ARC
  5
17E
330
72
100
AcDbEntity
  8
AP_451__200
  6
Continuous
 62
     7
100
AcDbCircle
 10
45.0790248839
 20
122.3678018085
 30
0.0
 40
0.1999999999999997
100
AcDbArc
 50
0.0
 51
89.9999995198
  0
LINE
  5
17F
330
72
100
AcDbEntity
  8
AP_451__200
  6
Continuous
 62
     7
100
AcDbLine
 10
45.2790248789
 20
121.7678018068
 30
0.0
 11
45.2790248839
 21
122.3678018068
 31
0.0
  0
ARC
  5
180
330
72
100
AcDbEntity
  8
AP_451__200
  6
Continuous
 62
     7
100
AcDbCircle
 10
45.0790248789
 20
121.7678018085
 30
0.0
 40
0.2000000000000014
100
AcDbArc
 50
269.9999995198
 51
359.9999995198
  0
LINE
  5
181
330
72
100
AcDbEntity
  8
AP_451__200
  6
Continuous
 62
     7
100
AcDbLine
 10
43.5790248772
 20
121.5678018211
 30
0.0
 11
45.0790248772
 21
121.5678018085
 31
0.0
  0
ARC
  5
182
330
72
100
AcDbEntity
  8
AP_451__200
  6
Continuous
 62
     7
100
AcDbCircle
 10
43.5790248872
 20
122.7678018211
 30
0.0
 40
1.2
100
AcDbArc
 50
179.9999995198
 51
269.9999995198
  0
LINE
  5
183
330
72
100
AcDbEntity
  8
AP_451__200
  6
Continuous
 62
     7
100
AcDbLine
 10
42.3790249375
 20
128.7678018311
 30
0.0
 11
42.3790248872
 21
122.7678018311
 31
0.0
  0
ARC
  5
184
330
72
100
AcDbEntity
  8
AP_451__200
  6
Continuous
 62
     7
100
AcDbCircle
 10
40.5790249375
 20
128.7678018462
 30
0.0
 40
1.8
100
AcDbArc
 50
0.0
 51
89.9999995198
  0
ARC
  5
185
330
72
100
AcDbEntity
  8
AP_451__200
  6
Continuous
 62
     7
100
AcDbCircle
 10
38.6790262009
 20
130.3678018621
 30
0.0
 40
0.1999999999999988
100
AcDbArc
 50
89.9999995198
 51
179.9999995198
  0
LINE
  5
186
330
72
100
AcDbEntity
  8
AP_451__200
  6
Continuous
 62
     7
100
AcDbLine
 10
38.4790260518
 20
112.5678038638
 30
0.0
 11
38.4790262009
 21
130.3678018638
 31
0.0
  0
ARC
  5
187
330
72
100
AcDbEntity
  8
AP_451__200
  6
Continuous
 62
     7
100
AcDbCircle
 10
37.6790260518
 20
112.5678038705
 30
0.0
 40
0.8000000000000006
100
AcDbArc
 50
269.9999995198
 51
359.9999995198
  0
ENDBLK
  5
189
330
72
100
AcDbEntity
  8
0
100
AcDbBlockEnd
  0
BLOCK
  5
235
330
18A
100
AcDbEntity
  8
0
100
AcDbBlockBegin
  2
SE1
 70
     0
 10
0.0
 20
0.0
 30
0.0
  3
SE1
  1
SE1
  0
LINE
  5
18C
330
18A
100
AcDbEntity
  8
AJ_221
  6
Continuous
 62
     7
100
AcDbLine
 10
54.2978080278
 20
227.7493828194
 30
0.0
 11
43.2978080278
 21
227.7493829115
 31
0.0
  0
LINE
  5
18D
330
18A
100
AcDbEntity
  8
AJ_221
  6
Continuous
 62
     7
100
AcDbLine
 10
54.2978079725
 20
221.1493828194
 30
0.0
 11
43.2978079725
 21
221.1493829115
 31
0.0
  0
LINE
  5
18E
330
18A
100
AcDbEntity
  8
AJ_221
  6
Continuous
 62
     7
100
AcDbLine
 10
54.2978080278
 20
227.7493828194
 30
0.0
 11
54.3328483957
 21
227.7493828191
 31
0.0
  0
ARC
  5
18F
330
18A
100
AcDbEntity
  8
AJ_221
  6
Continuous
 62
     7
100
AcDbCircle
 10
46.2356575266
 20
225.9385039706
 30
0.0
 40
8.297215326481739
100
AcDbArc
 50
0.1391586021
 51
12.6063499485
  0
LINE
  5
190
330
18A
100
AcDbEntity
  8
AJ_221
  6
Continuous
 62
     7
100
AcDbLine
 10
54.5328483807
 20
225.9586560264
 30
0.0
 11
54.5328483554
 21
222.9401096083
 31
0.0
  0
ARC
  5
191
330
18A
100
AcDbEntity
  8
AJ_221
  6
Continuous
 62
     7
100
AcDbCircle
 10
46.2356575017
 20
222.9602618033
 30
0.0
 40
8.297215326481428
100
AcDbArc
 50
347.3936490911
 51
359.8608404375
  0
LINE
  5
192
330
18A
100
AcDbEntity
  8
AJ_221
  6
Continuous
 62
     7
100
AcDbLine
 10
54.3328483404
 20
221.1493828191
 30
0.0
 11
54.2978079725
 21
221.1493828194
 31
0.0
  0
LINE
  5
193
330
18A
100
AcDbEntity
  8
AJ_221
  6
Continuous
 62
     7
100
AcDbLine
 10
42.5328483554
 20
222.9401097089
 30
0.0
 11
42.5328483807
 21
225.958656127
 31
0.0
  0
ARC
  5
194
330
18A
100
AcDbEntity
  8
AJ_221
  6
Continuous
 62
     7
100
AcDbCircle
 10
50.8300392344
 20
225.9385039321
 30
0.0
 40
8.297215326480998
100
AcDbArc
 50
167.3936490911
 51
179.8608404375
  0
LINE
  5
195
330
18A
100
AcDbEntity
  8
AJ_221
  6
Continuous
 62
     7
100
AcDbLine
 10
42.7328483957
 20
227.7493829163
 30
0.0
 11
43.2978080278
 21
227.7493829115
 31
0.0
  0
LINE
  5
196
330
18A
100
AcDbEntity
  8
AJ_221
  6
Continuous
 62
     7
100
AcDbLine
 10
43.2978079725
 20
221.1493829115
 30
0.0
 11
42.7328483404
 21
221.1493829163
 31
0.0
  0
ARC
  5
197
330
18A
100
AcDbEntity
  8
AJ_221
  6
Continuous
 62
     7
100
AcDbCircle
 10
50.8300392094
 20
222.9602617648
 30
0.0
 40
8.297215326481838
100
AcDbArc
 50
180.1391586021
 51
192.6063499485
  0
ARC
  5
198
330
18A
100
AcDbEntity
  8
AP_447__230
  6
Continuous
 62
     7
100
AcDbCircle
 10
39.236848245
 20
210.0147290387
 30
0.0
 40
0.4999999999996897
100
AcDbArc
 50
119.4909796886
 51
319.2852090131
  0
ARC
  5
199
330
18A
100
AcDbEntity
  8
AP_447__230
  6
Continuous
 62
     7
100
AcDbCircle
 10
38.8922476738
 20
210.6240322853
 30
0.0
 40
0.2000000000036122
100
AcDbArc
 50
299.4909796886
 51
359.9999995202
  0
LINE
  5
19A
330
18A
100
AcDbEntity
  8
AP_447__230
  6
Continuous
 62
     7
100
AcDbLine
 10
39.0922477414
 20
218.6993755981
 30
0.0
 11
39.0922476738
 21
210.6240322837
 31
0.0
  0
ARC
  5
19B
330
18A
100
AcDbEntity
  8
AP_447__230
  6
Continuous
 62
     7
100
AcDbCircle
 10
37.2922477414
 20
218.6993756132
 30
0.0
 40
1.799999999999999
100
AcDbArc
 50
0.0
 51
54.5606868876
  0
ARC
  5
19C
330
18A
100
AcDbEntity
  8
AP_447__230
  6
Continuous
 62
     7
100
AcDbCircle
 10
38.6662014441
 20
220.6299096339
 30
0.0
 40
0.5695380102607248
100
AcDbArc
 50
107.9929146343
 51
234.5606868876
  0
LINE
  5
19D
330
18A
100
AcDbEntity
  8
AP_447__230
  6
Continuous
 62
     7
100
AcDbLine
 10
38.4902715251
 20
223.5722769824
 30
0.0
 11
38.490271505
 21
221.17159423
 31
0.0
  0
LINE
  5
19E
330
18A
100
AcDbEntity
  8
AP_447__230
  6
Continuous
 62
     7
100
AcDbLine
 10
38.8488353801
 20
223.5722769794
 30
0.0
 11
38.4902715251
 21
223.5722769824
 31
0.0
  0
LINE
  5
19F
330
18A
100
AcDbEntity
  8
AP_447__230
  6
Continuous
 62
     7
100
AcDbLine
 10
39.0141795217
 20
223.317229979
 30
0.0
 11
38.8488353801
 21
223.5722769794
 31
0.0
  0
ARC
  5
1A0
330
18A
100
AcDbEntity
  8
AP_447__230
  6
Continuous
 62
     7
100
AcDbCircle
 10
39.1298471739
 20
223.3922160351
 30
0.0
 40
0.137847431530419
100
AcDbArc
 50
212.9548939443
 51
281.7960351406
  0
ARC
  5
1A1
330
18A
100
AcDbEntity
  8
AP_447__230
  6
Continuous
 62
     7
100
AcDbCircle
 10
39.0694290978
 20
223.6815210642
 30
0.0
 40
0.4333939486490139
100
AcDbArc
 50
281.7960351406
 51
301.7846009598
  0
ARC
  5
1A2
330
18A
100
AcDbEntity
  8
AP_447__230
  6
Continuous
 62
     7
100
AcDbCircle
 10
38.2746808074
 20
224.6383704141
 30
0.0
 40
1.67417827315704
100
AcDbArc
 50
307.6664192741
 51
0.3048125102
  0
ARC
  5
1A3
330
18A
100
AcDbEntity
  8
AP_447__230
  6
Continuous
 62
     7
100
AcDbCircle
 10
37.8875418426
 20
224.4614969058
 30
0.0
 40
2.069648597527392
100
AcDbArc
 50
5.1500338834
 51
46.98632124
  0
ARC
  5
1A4
330
18A
100
AcDbEntity
  8
AP_447__230
  6
Continuous
 62
     7
100
AcDbCircle
 10
39.0709995578
 20
225.6155662998
 30
0.0
 40
0.4256985936373839
100
AcDbArc
 50
57.5521893104
 51
78.2035900703
  0
ARC
  5
1A5
330
18A
100
AcDbEntity
  8
AP_447__230
  6
Continuous
 62
     7
100
AcDbCircle
 10
39.1299866622
 20
225.898010052
 30
0.0
 40
0.1371609849226389
100
AcDbArc
 50
78.2035900703
 51
146.4442800437
  0
LINE
  5
1A6
330
18A
100
AcDbEntity
  8
AP_447__230
  6
Continuous
 62
     7
100
AcDbLine
 10
38.8488353981
 20
225.7222769794
 30
0.0
 11
39.0156837377
 21
225.9738254676
 31
0.0
  0
LINE
  5
1A7
330
18A
100
AcDbEntity
  8
AP_447__230
  6
Continuous
 62
     7
100
AcDbLine
 10
38.4913232347
 20
225.7222769824
 30
0.0
 11
38.8488353981
 21
225.7222769794
 31
0.0
  0
LINE
  5
1A8
330
18A
100
AcDbEntity
  8
AP_447__230
  6
Continuous
 62
     7
100
AcDbLine
 10
38.6904873348
 20
227.2150748197
 30
0.0
 11
38.4913232347
 21
225.7222769824
 31
0.0
  0
ARC
  5
1A9
330
18A
100
AcDbEntity
  8
AP_447__230
  6
Continuous
 62
     7
100
AcDbCircle
 10
38.4573611043
 20
227.2371962223
 30
0.0
 40
0.2341734310521879
100
AcDbArc
 50
354.57942042
 51
93.5048650376
  0
ARC
  5
1AA
330
18A
100
AcDbEntity
  8
AP_447__230
  6
Continuous
 62
     7
100
AcDbCircle
 10
38.4599643125
 20
227.1946933721
 30
0.0
 40
0.2767559271290341
100
AcDbArc
 50
93.5048650376
 51
163.9867859968
  0
ARC
  5
1AB
330
18A
100
AcDbEntity
  8
AP_447__230
  6
Continuous
 62
     7
100
AcDbCircle
 10
48.1921179857
 20
224.4016139965
 30
0.0
 40
10.401779755085
100
AcDbArc
 50
163.9867859968
 51
188.1930038057
  0
ARC
  5
1AC
330
18A
100
AcDbEntity
  8
AP_447__230
  6
Continuous
 62
     7
100
AcDbCircle
 10
37.5388512703
 20
222.4760393111
 30
0.0
 40
0.569538010260723
100
AcDbArc
 50
295.1036805747
 51
51.0996840391
  0
LINE
  5
1AD
330
18A
100
AcDbEntity
  8
AP_447__230
  6
Continuous
 62
     7
100
AcDbLine
 10
37.7804820021
 20
210.7300198672
 30
0.0
 11
37.7804820962
 21
221.9602989801
 31
0.0
  0
ARC
  5
1AE
330
18A
100
AcDbEntity
  8
AP_447__230
  6
Continuous
 62
     7
100
AcDbCircle
 10
40.280481653
 20
210.7312876194
 30
0.0
 40
2.499999972401836
100
AcDbArc
 50
180.0290547414
 51
248.1920793071
  0
ARC
  5
1AF
330
18A
100
AcDbEntity
  8
AP_447__230
  6
Continuous
 62
     7
100
AcDbCircle
 10
48.6391460391
 20
231.6210637995
 30
0.0
 40
25.00000039846504
100
AcDbArc
 50
248.1920793069
 51
269.7563826105
  0
ARC
  5
1B0
330
18A
100
AcDbEntity
  8
AP_447__230
  6
Continuous
 62
     7
100
AcDbCircle
 10
48.4265508173
 20
231.6210638013
 30
0.0
 40
25.00000039846503
100
AcDbArc
 50
270.2436164289
 51
291.8079197324
  0
ARC
  5
1B1
330
18A
100
AcDbEntity
  8
AP_447__230
  6
Continuous
 62
     7
100
AcDbCircle
 10
56.7852148531
 20
210.7312874811
 30
0.0
 40
2.499999972401818
100
AcDbArc
 50
291.8079197324
 51
359.9709442979
  0
LINE
  5
1B2
330
18A
100
AcDbEntity
  8
AP_447__230
  6
Continuous
 62
     7
100
AcDbLine
 10
59.2852145982
 20
221.9602987998
 30
0.0
 11
59.285214504
 21
210.730019687
 31
0.0
  0
ARC
  5
1B3
330
18A
100
AcDbEntity
  8
AP_447__230
  6
Continuous
 62
     7
100
AcDbCircle
 10
59.5268454327
 20
222.4760391268
 30
0.0
 40
0.5695380102607279
100
AcDbArc
 50
128.9003150002
 51
244.8963184646
  0
ARC
  5
1B4
330
18A
100
AcDbEntity
  8
AP_447__230
  6
Continuous
 62
     7
100
AcDbCircle
 10
48.8735787496
 20
224.4016139908
 30
0.0
 40
10.40177975508503
100
AcDbArc
 50
351.8069952336
 51
16.0132130425
  0
ARC
  5
1B5
330
18A
100
AcDbEntity
  8
AP_447__230
  6
Continuous
 62
     7
100
AcDbCircle
 10
58.6057324696
 20
227.1946932032
 30
0.0
 40
0.276755927129066
100
AcDbArc
 50
16.0132130425
 51
86.4951340017
  0
ARC
  5
1B6
330
18A
100
AcDbEntity
  8
AP_447__230
  6
Continuous
 62
     7
100
AcDbCircle
 10
58.6083356785
 20
227.2371960534
 30
0.0
 40
0.2341734310521853
100
AcDbArc
 50
86.4951340017
 51
185.4205786193
  0
LINE
  5
1B7
330
18A
100
AcDbEntity
  8
AP_447__230
  6
Continuous
 62
     7
100
AcDbLine
 10
58.5754252143
 20
225.7222768141
 30
0.0
 11
58.3752094476
 21
227.2150746546
 31
0.0
  0
LINE
  5
1B8
330
18A
100
AcDbEntity
  8
AP_447__230
  6
Continuous
 62
     7
100
AcDbLine
 10
58.2168613594
 20
225.7222768171
 30
0.0
 11
58.5754252143
 21
225.7222768141
 31
0.0
  0
LINE
  5
1B9
330
18A
100
AcDbEntity
  8
AP_447__230
  6
Continuous
 62
     7
100
AcDbLine
 10
58.050013024
 20
225.973825308
 30
0.0
 11
58.2168613594
 21
225.7222768171
 31
0.0
  0
ARC
  5
1BA
330
18A
100
AcDbEntity
  8
AP_447__230
  6
Continuous
 62
     7
100
AcDbCircle
 10
57.9357100982
 20
225.8980098943
 30
0.0
 40
0.1371609849226443
100
AcDbArc
 50
33.5557189956
 51
101.796408969
  0
ARC
  5
1BB
330
18A
100
AcDbEntity
  8
AP_447__230
  6
Continuous
 62
     7
100
AcDbCircle
 10
57.9946971979
 20
225.6155661411
 30
0.0
 40
0.4256985936373821
100
AcDbArc
 50
101.796408969
 51
122.4478097289
  0
ARC
  5
1BC
330
18A
100
AcDbEntity
  8
AP_447__230
  6
Continuous
 62
     7
100
AcDbCircle
 10
59.1781548937
 20
224.4614967273
 30
0.0
 40
2.069648597527391
100
AcDbArc
 50
133.0136777993
 51
174.8499651559
  0
ARC
  5
1BD
330
18A
100
AcDbEntity
  8
AP_447__230
  6
Continuous
 62
     7
100
AcDbCircle
 10
58.7910159319
 20
224.6383702421
 30
0.0
 40
1.674178273157056
100
AcDbArc
 50
179.6951865291
 51
232.3335797653
  0
ARC
  5
1BE
330
18A
100
AcDbEntity
  8
AP_447__230
  6
Continuous
 62
     7
100
AcDbCircle
 10
57.9962676255
 20
223.6815209055
 30
0.0
 40
0.4333939486490215
100
AcDbArc
 50
238.2153980795
 51
258.2039638987
  0
ARC
  5
1BF
330
18A
100
AcDbEntity
  8
AP_447__230
  6
Continuous
 62
     7
100
AcDbCircle
 10
57.9358495445
 20
223.3922158774
 30
0.0
 40
0.1378474315304183
100
AcDbArc
 50
258.2039638987
 51
327.0451050951
  0
LINE
  5
1C0
330
18A
100
AcDbEntity
  8
AP_447__230
  6
Continuous
 62
     7
100
AcDbLine
 10
58.2168613413
 20
223.572276817
 30
0.0
 11
58.0515171954
 21
223.3172298194
 31
0.0
  0
LINE
  5
1C1
330
18A
100
AcDbEntity
  8
AP_447__230
  6
Continuous
 62
     7
100
AcDbLine
 10
58.5754251963
 20
223.5722768141
 30
0.0
 11
58.2168613413
 21
223.572276817
 31
0.0
  0
LINE
  5
1C2
330
18A
100
AcDbEntity
  8
AP_447__230
  6
Continuous
 62
     7
100
AcDbLine
 10
58.5754251762
 20
221.1715940616
 30
0.0
 11
58.5754251963
 21
223.5722768141
 31
0.0
  0
ARC
  5
1C3
330
18A
100
AcDbEntity
  8
AP_447__230
  6
Continuous
 62
     7
100
AcDbCircle
 10
58.399495228
 20
220.6299094684
 30
0.0
 40
0.5695380102607218
100
AcDbArc
 50
305.4393121517
 51
72.007084405
  0
ARC
  5
1C4
330
18A
100
AcDbEntity
  8
AP_447__230
  6
Continuous
 62
     7
100
AcDbCircle
 10
59.7734488983
 20
218.6993754247
 30
0.0
 40
1.8
100
AcDbArc
 50
125.4393121517
 51
179.9999995192
  0
LINE
  5
1C5
330
18A
100
AcDbEntity
  8
AP_447__230
  6
Continuous
 62
     7
100
AcDbLine
 10
57.9734488305
 20
210.6240321254
 30
0.0
 11
57.9734488983
 21
218.6993754398
 31
0.0
  0
ARC
  5
1C6
330
18A
100
AcDbEntity
  8
AP_447__230
  6
Continuous
 62
     7
100
AcDbCircle
 10
58.1734488305
 20
210.6240321237
 30
0.0
 40
0.200000000003553
100
AcDbArc
 50
179.9999995192
 51
240.5090193507
  0
ARC
  5
1C7
330
18A
100
AcDbEntity
  8
AP_447__230
  6
Continuous
 62
     7
100
AcDbCircle
 10
57.8288482491
 20
210.0147288829
 30
0.0
 40
0.4999999999996906
100
AcDbArc
 50
220.7147900262
 51
60.5090193507
  0
ARC
  5
1C8
330
18A
100
AcDbEntity
  8
AP_447__230
  6
Continuous
 62
     7
100
AcDbCircle
 10
57.2982720619
 20
209.5581230249
 30
0.0
 40
0.1999999999910126
100
AcDbArc
 50
40.7147900262
 51
121.6603536472
  0
ARC
  5
1C9
330
18A
100
AcDbEntity
  8
AP_447__230
  6
Continuous
 62
     7
100
AcDbCircle
 10
48.3050693526
 20
224.1419214212
 30
0.0
 40
16.93373487119723
100
AcDbArc
 50
270.7707196112
 51
301.6603536472
  0
ARC
  5
1CA
330
18A
100
AcDbEntity
  8
AP_447__230
  6
Continuous
 62
     7
100
AcDbCircle
 10
48.7606273784
 20
224.1419214174
 30
0.0
 40
16.93373487119719
100
AcDbArc
 50
238.3396453922
 51
269.2292794281
  0
ARC
  5
1CB
330
18A
100
AcDbEntity
  8
AP_447__230
  6
Continuous
 62
     7
100
AcDbCircle
 10
39.7674244245
 20
209.5581231719
 30
0.0
 40
0.1999999999909933
100
AcDbArc
 50
58.3396453922
 51
139.2852090131
  0
LINE
  5
1CC
330
18A
100
AcDbEntity
  8
AP_448_0200
  6
Continuous
 62
     7
100
AcDbLine
 10
40.4913557653
 20
222.3433146289
 30
0.0
 11
40.4913557066
 21
215.3449143225
 31
0.0
  0
ARC
  5
1CD
330
18A
100
AcDbEntity
  8
AP_448_0200
  6
Continuous
 62
     7
100
AcDbCircle
 10
41.0913557651
 20
222.3433146239
 30
0.0
 40
0.5999999997806147
100
AcDbArc
 50
144.049431724
 51
179.9999995198
  0
ARC
  5
1CE
330
18A
100
AcDbEntity
  8
AP_448_0200
  6
Continuous
 62
     7
100
AcDbCircle
 10
39.3913557794
 20
223.5761974438
 30
0.0
 40
1.499999999999107
100
AcDbArc
 50
324.049431724
 51
359.9999995198
  0
LINE
  5
1CF
330
18A
100
AcDbEntity
  8
AP_448_0200
  6
Continuous
 62
     7
100
AcDbLine
 10
40.8913557984
 20
225.8493829317
 30
0.0
 11
40.8913557794
 21
223.5761974312
 31
0.0
  0
ARC
  5
1D0
330
18A
100
AcDbEntity
  8
AP_448_0200
  6
Continuous
 62
     7
100
AcDbCircle
 10
39.3913557984
 20
225.8493829442
 30
0.0
 40
1.500000000002819
100
AcDbArc
 50
0.0
 51
89.9999995198
  0
LINE
  5
1D1
330
18A
100
AcDbEntity
  8
AP_448_0200
  6
Continuous
 62
     7
100
AcDbLine
 10
38.7409295924
 20
227.3493829497
 30
0.0
 11
39.391355811
 21
227.3493829442
 31
0.0
  0
ARC
  5
1D2
330
18A
100
AcDbEntity
  8
AP_448_0200
  6
Continuous
 62
     7
100
AcDbCircle
 10
38.7409295907
 20
227.1493829497
 30
0.0
 40
0.1999999999999988
100
AcDbArc
 50
89.9999995198
 51
110.9042796709
  0
LINE
  5
1D3
330
18A
100
AcDbEntity
  8
AP_448_0200
  6
Continuous
 62
     7
100
AcDbLine
 10
38.540929581
 20
225.9880596403
 30
0.0
 11
38.5409295819
 21
226.094092223
 31
0.0
  0
ARC
  5
1D4
330
18A
100
AcDbEntity
  8
AP_448_0200
  6
Continuous
 62
     7
100
AcDbCircle
 10
38.690929581
 20
225.988059639
 30
0.0
 40
0.1500000000004692
100
AcDbArc
 50
179.9999995198
 51
269.9999995198
  0
LINE
  5
1D5
330
18A
100
AcDbEntity
  8
AP_448_0200
  6
Continuous
 62
     7
100
AcDbLine
 10
38.7291865683
 20
225.8380596387
 30
0.0
 11
38.6909295797
 21
225.838059639
 31
0.0
  0
ARC
  5
1D6
330
18A
100
AcDbEntity
  8
AP_448_0200
  6
Continuous
 62
     7
100
AcDbCircle
 10
38.7291865695
 20
225.9880597135
 30
0.0
 40
0.1500000748122822
100
AcDbArc
 50
269.9999995198
 51
340.17611573
  0
LINE
  5
1D7
330
18A
100
AcDbEntity
  8
AP_448_0200
  6
Continuous
 62
     7
100
AcDbLine
 10
39.0140333209
 20
226.3359100174
 30
0.0
 11
38.8702975621
 21
225.9371901723
 31
0.0
  0
ARC
  5
1D8
330
18A
100
AcDbEntity
  8
AP_448_0200
  6
Continuous
 62
     7
100
AcDbCircle
 10
39.2021812171
 20
226.2680839963
 30
0.0
 40
0.2000000000007135
100
AcDbArc
 50
89.9999995198
 51
160.17611573
  0
LINE
  5
1D9
330
18A
100
AcDbEntity
  8
AP_448_0200
  6
Continuous
 62
     7
100
AcDbLine
 10
39.4648442858
 20
226.4680839941
 30
0.0
 11
39.2021812188
 21
226.4680839963
 31
0.0
  0
ARC
  5
1DA
330
18A
100
AcDbEntity
  8
AP_448_0200
  6
Continuous
 62
     7
100
AcDbCircle
 10
39.4648442841
 20
226.2680839941
 30
0.0
 40
0.2000000000060439
100
AcDbArc
 50
44.9999995196
 51
89.9999995198
  0
LINE
  5
1DB
330
18A
100
AcDbEntity
  8
AP_448_0200
  6
Continuous
 62
     7
100
AcDbLine
 10
40.0757028215
 20
225.9400681612
 30
0.0
 11
39.6062656415
 21
226.4095053491
 31
0.0
  0
ARC
  5
1DC
330
18A
100
AcDbEntity
  8
AP_448_0200
  6
Continuous
 62
     7
100
AcDbCircle
 10
39.722149428
 20
225.5865147736
 30
0.0
 40
0.499999999998061
100
AcDbArc
 50
0.0
 51
44.9999995196
  0
LINE
  5
1DD
330
18A
100
AcDbEntity
  8
AP_448_0200
  6
Continuous
 62
     7
100
AcDbLine
 10
40.2221494137
 20
223.889210999
 30
0.0
 11
40.222149428
 21
225.5865147694
 31
0.0
  0
ARC
  5
1DE
330
18A
100
AcDbEntity
  8
AP_448_0200
  6
Continuous
 62
     7
100
AcDbCircle
 10
39.7221494137
 20
223.8892110032
 30
0.0
 40
0.4999999999999983
100
AcDbArc
 50
314.9999995202
 51
359.9999995198
  0
LINE
  5
1DF
330
18A
100
AcDbEntity
  8
AP_448_0200
  6
Continuous
 62
     7
100
AcDbLine
 10
39.5640980219
 20
223.0240528388
 30
0.0
 11
40.0757028014
 21
223.5356576097
 31
0.0
  0
ARC
  5
1E0
330
18A
100
AcDbEntity
  8
AP_448_0200
  6
Continuous
 62
     7
100
AcDbCircle
 10
39.4226766669
 20
223.1654741962
 30
0.0
 40
0.2000000000012686
100
AcDbArc
 50
269.9999995199
 51
314.9999995201
  0
LINE
  5
1E1
330
18A
100
AcDbEntity
  8
AP_448_0200
  6
Continuous
 62
     7
100
AcDbLine
 10
39.2021809208
 20
222.965474198
 30
0.0
 11
39.4226766652
 21
222.9654741962
 31
0.0
  0
ARC
  5
1E2
330
18A
100
AcDbEntity
  8
AP_448_0200
  6
Continuous
 62
     7
100
AcDbCircle
 10
39.2021809225
 20
223.165474194
 30
0.0
 40
0.1999999959098377
100
AcDbArc
 50
199.8238678092
 51
269.9999995198
  0
LINE
  5
1E3
330
18A
100
AcDbEntity
  8
AP_448_0200
  6
Continuous
 62
     7
100
AcDbLine
 10
38.8702974549
 20
223.4963681915
 30
0.0
 11
39.0140330106
 21
223.0976482283
 31
0.0
  0
ARC
  5
1E4
330
18A
100
AcDbEntity
  8
AP_448_0200
  6
Continuous
 62
     7
100
AcDbCircle
 10
38.7291865115
 20
223.4454987549
 30
0.0
 40
0.1499999930655582
100
AcDbArc
 50
19.8238530314
 51
57.6921060397
  0
ARC
  5
1E5
330
18A
100
AcDbEntity
  8
AP_448_0200
  6
Continuous
 62
     7
100
AcDbCircle
 10
38.6909295588
 20
223.4454988817
 30
0.0
 40
0.1499998666290412
100
AcDbArc
 50
122.3079069797
 51
180.0000046783
  0
LINE
  5
1E6
330
18A
100
AcDbEntity
  8
AP_448_0200
  6
Continuous
 62
     7
100
AcDbLine
 10
38.5409297783
 20
222.3909111221
 30
0.0
 11
38.5409296922
 21
223.4454988694
 31
0.0
  0
ARC
  5
1E7
330
18A
100
AcDbEntity
  8
AP_448_0200
  6
Continuous
 62
     7
100
AcDbCircle
 10
39.1878907661
 20
222.3909111167
 30
0.0
 40
0.6469609877716125
100
AcDbArc
 50
179.9999995198
 51
233.32440471
  0
LINE
  5
1E8
330
18A
100
AcDbEntity
  8
AP_448_0200
  6
Continuous
 62
     7
100
AcDbLine
 10
39.2890680724
 20
221.5089086715
 30
0.0
 11
38.8014715896
 21
221.8720289145
 31
0.0
  0
ARC
  5
1E9
330
18A
100
AcDbEntity
  8
AP_448_0200
  6
Continuous
 62
     7
100
AcDbCircle
 10
38.9904262812
 20
221.1078936088
 30
0.0
 40
0.5000000000000004
100
AcDbArc
 50
0.0
 51
53.32440471
  0
LINE
  5
1EA
330
18A
100
AcDbEntity
  8
AP_448_0200
  6
Continuous
 62
     7
100
AcDbLine
 10
39.4904262332
 20
215.3483217184
 30
0.0
 11
39.4904262812
 21
221.1078936046
 31
0.0
  0
ARC
  5
1EB
330
18A
100
AcDbEntity
  8
AP_448_0200
  6
Continuous
 62
     7
100
AcDbCircle
 10
41.4904060812
 20
215.3393435465
 30
0.0
 40
2.000000000000004
100
AcDbArc
 50
179.7427934585
 51
275.024257625
  0
LINE
  5
1EC
330
18A
100
AcDbEntity
  8
AP_448_0200
  6
Continuous
 62
     7
100
AcDbLine
 10
55.5752707521
 20
213.3470280115
 30
0.0
 11
41.6655610798
 21
213.3470281281
 31
0.0
  0
ARC
  5
1ED
330
18A
100
AcDbEntity
  8
AP_448_0200
  6
Continuous
 62
     7
100
AcDbCircle
 10
55.5752707689
 20
215.3470241644
 30
0.0
 40
1.999996152865285
100
AcDbArc
 50
269.9999995198
 51
0.0371679158
  0
LINE
  5
1EE
330
18A
100
AcDbEntity
  8
AP_448_0200
  6
Continuous
 62
     7
100
AcDbLine
 10
57.575270665
 20
221.1078934531
 30
0.0
 11
57.575266501
 21
215.3483215668
 31
0.0
  0
ARC
  5
1EF
330
18A
100
AcDbEntity
  8
AP_448_0200
  6
Continuous
 62
     7
100
AcDbCircle
 10
58.075270665
 20
221.1078934489
 30
0.0
 40
0.5000000000000007
100
AcDbArc
 50
126.6756323496
 51
179.9999995198
  0
LINE
  5
1F0
330
18A
100
AcDbEntity
  8
AP_448_0200
  6
Continuous
 62
     7
100
AcDbLine
 10
58.3542027263
 20
222.0147830283
 30
0.0
 11
57.7766286144
 21
221.5089083184
 31
0.0
  0
ARC
  5
1F1
330
18A
100
AcDbEntity
  8
AP_448_0200
  6
Continuous
 62
     7
100
AcDbCircle
 10
58.0247670182
 20
222.3909108181
 30
0.0
 40
0.4999999999979506
100
AcDbArc
 50
311.2138572742
 51
359.9999943614
  0
LINE
  5
1F2
330
18A
100
AcDbEntity
  8
AP_448_0200
  6
Continuous
 62
     7
100
AcDbLine
 10
58.524767122
 20
223.4454985935
 30
0.0
 11
58.5247670182
 21
222.3909107689
 31
0.0
  0
ARC
  5
1F3
330
18A
100
AcDbEntity
  8
AP_448_0200
  6
Continuous
 62
     7
100
AcDbCircle
 10
58.3747671604
 20
223.4454986083
 30
0.0
 40
0.1499999615606831
100
AcDbArc
 50
0.0
 51
57.6921121742
  0
ARC
  5
1F4
330
18A
100
AcDbEntity
  8
AP_448_0200
  6
Continuous
 62
     7
100
AcDbCircle
 10
58.3365102077
 20
223.4454985702
 30
0.0
 40
0.1499999999955269
100
AcDbArc
 50
122.3078826215
 51
160.1761386654
  0
LINE
  5
1F5
330
18A
100
AcDbEntity
  8
AP_448_0200
  6
Continuous
 62
     7
100
AcDbLine
 10
58.0516636517
 20
223.0976480872
 30
0.0
 11
58.1953992652
 21
223.4963680295
 31
0.0
  0
ARC
  5
1F6
330
18A
100
AcDbEntity
  8
AP_448_0200
  6
Continuous
 62
     7
100
AcDbCircle
 10
57.8635157343
 20
223.1654740376
 30
0.0
 40
0.1999999959117482
100
AcDbArc
 50
269.9999995198
 51
340.1761368385
  0
LINE
  5
1F7
330
18A
100
AcDbEntity
  8
AP_448_0200
  6
Continuous
 62
     7
100
AcDbLine
 10
57.6430200505
 20
222.9654740435
 30
0.0
 11
57.8635157326
 21
222.9654740417
 31
0.0
  0
ARC
  5
1F8
330
18A
100
AcDbEntity
  8
AP_448_0200
  6
Continuous
 62
     7
100
AcDbCircle
 10
57.6430200477
 20
223.1654740435
 30
0.0
 40
0.2000000000010736
100
AcDbArc
 50
224.9999995198
 51
270.0000008032
  0
LINE
  5
1F9
330
18A
100
AcDbEntity
  8
AP_448_0200
  6
Continuous
 62
     7
100
AcDbLine
 10
56.9899939194
 20
223.5356574679
 30
0.0
 11
57.5015986902
 21
223.0240526885
 31
0.0
  0
ARC
  5
1FA
330
18A
100
AcDbEntity
  8
AP_448_0200
  6
Continuous
 62
     7
100
AcDbCircle
 10
57.3435473129
 20
223.8892108556
 30
0.0
 40
0.499999999999997
100
AcDbArc
 50
179.9999995198
 51
224.9999995198
  0
LINE
  5
1FB
330
18A
100
AcDbEntity
  8
AP_448_0200
  6
Continuous
 62
     7
100
AcDbLine
 10
56.8435473271
 20
225.5865146301
 30
0.0
 11
56.8435473129
 21
223.8892108597
 31
0.0
  0
ARC
  5
1FC
330
18A
100
AcDbEntity
  8
AP_448_0200
  6
Continuous
 62
     7
100
AcDbCircle
 10
57.3435473272
 20
225.5865146259
 30
0.0
 40
0.5000000000246597
100
AcDbArc
 50
134.9999995213
 51
179.9999995198
  0
LINE
  5
1FD
330
18A
100
AcDbEntity
  8
AP_448_0200
  6
Continuous
 62
     7
100
AcDbLine
 10
57.4594311274
 20
226.4095051995
 30
0.0
 11
56.9899939395
 21
225.9400680195
 31
0.0
  0
ARC
  5
1FE
330
18A
100
AcDbEntity
  8
AP_448_0200
  6
Continuous
 62
     7
100
AcDbCircle
 10
57.6008524824
 20
226.2680838421
 30
0.0
 40
0.2000000000385929
100
AcDbArc
 50
89.9999995198
 51
134.9999995213
  0
LINE
  5
1FF
330
18A
100
AcDbEntity
  8
AP_448_0200
  6
Continuous
 62
     7
100
AcDbLine
 10
57.8635155511
 20
226.4680838399
 30
0.0
 11
57.6008524841
 21
226.4680838421
 31
0.0
  0
ARC
  5
200
330
18A
100
AcDbEntity
  8
AP_448_0200
  6
Continuous
 62
     7
100
AcDbCircle
 10
57.8635155494
 20
226.2680838399
 30
0.0
 40
0.2000000000007111
100
AcDbArc
 50
19.8238833095
 51
89.9999995198
  0
LINE
  5
201
330
18A
100
AcDbEntity
  8
AP_448_0200
  6
Continuous
 62
     7
100
AcDbLine
 10
58.1953991989
 20
225.9371900103
 30
0.0
 11
58.0516634468
 21
226.3359098578
 31
0.0
  0
ARC
  5
202
330
18A
100
AcDbEntity
  8
AP_448_0200
  6
Continuous
 62
     7
100
AcDbCircle
 10
58.3365101923
 20
225.9880595492
 30
0.0
 40
0.1500000748122787
100
AcDbArc
 50
199.8238833096
 51
269.9999995198
  0
LINE
  5
203
330
18A
100
AcDbEntity
  8
AP_448_0200
  6
Continuous
 62
     7
100
AcDbLine
 10
58.3747671796
 20
225.838059474
 30
0.0
 11
58.336510191
 21
225.8380594744
 31
0.0
  0
ARC
  5
204
330
18A
100
AcDbEntity
  8
AP_448_0200
  6
Continuous
 62
     7
100
AcDbCircle
 10
58.3747671809
 20
225.988059474
 30
0.0
 40
0.1500000000005317
100
AcDbArc
 50
269.9999995198
 51
359.9999995198
  0
LINE
  5
205
330
18A
100
AcDbEntity
  8
AP_448_0200
  6
Continuous
 62
     7
100
AcDbLine
 10
58.5247671818
 20
226.0999803427
 30
0.0
 11
58.5247671809
 21
225.9880594728
 31
0.0
  0
ARC
  5
206
330
18A
100
AcDbEntity
  8
AP_448_0200
  6
Continuous
 62
     7
100
AcDbCircle
 10
58.3247671906
 20
227.1493827856
 30
0.0
 40
0.1999999999999988
100
AcDbArc
 50
69.0957191557
 51
89.9999995198
  0
LINE
  5
207
330
18A
100
AcDbEntity
  8
AP_448_0200
  6
Continuous
 62
     7
100
AcDbLine
 10
57.6743409737
 20
227.349382791
 30
0.0
 11
58.3247671923
 21
227.3493827856
 31
0.0
  0
ARC
  5
208
330
18A
100
AcDbEntity
  8
AP_448_0200
  6
Continuous
 62
     7
100
AcDbCircle
 10
57.6743409611
 20
225.849382791
 30
0.0
 40
1.500000000002813
100
AcDbArc
 50
89.9999995198
 51
179.9999995198
  0
LINE
  5
209
330
18A
100
AcDbEntity
  8
AP_448_0200
  6
Continuous
 62
     7
100
AcDbLine
 10
56.174340942
 20
223.5761973031
 30
0.0
 11
56.1743409611
 21
225.8493828036
 31
0.0
  0
ARC
  5
20A
330
18A
100
AcDbEntity
  8
AP_448_0200
  6
Continuous
 62
     7
100
AcDbCircle
 10
57.674340942
 20
223.5761972906
 30
0.0
 40
1.499999999999098
100
AcDbArc
 50
179.9999995198
 51
215.9505673158
  0
ARC
  5
20B
330
18A
100
AcDbEntity
  8
AP_448_0200
  6
Continuous
 62
     7
100
AcDbCircle
 10
55.9743409355
 20
222.343314499
 30
0.0
 40
0.6000000000000024
100
AcDbArc
 50
0.0
 51
35.9505673158
  0
LINE
  5
20C
330
18A
100
AcDbEntity
  8
AP_448_0200
  6
Continuous
 62
     7
100
AcDbLine
 10
56.5743408769
 20
215.3449141877
 30
0.0
 11
56.5743409355
 21
222.343314494
 31
0.0
  0
ARC
  5
20D
330
18A
100
AcDbEntity
  8
AP_448_0200
  6
Continuous
 62
     7
100
AcDbCircle
 10
55.5743408769
 20
215.3449141961
 30
0.0
 40
0.9999999999977458
100
AcDbArc
 50
269.9999995185
 51
359.9999995199
  0
LINE
  5
20E
330
18A
100
AcDbEntity
  8
AP_448_0200
  6
Continuous
 62
     7
100
AcDbLine
 10
41.4913556982
 20
214.3449143144
 30
0.0
 11
55.5743408685
 21
214.3449141961
 31
0.0
  0
ARC
  5
20F
330
18A
100
AcDbEntity
  8
AP_448_0200
  6
Continuous
 62
     7
100
AcDbCircle
 10
41.4913557066
 20
215.3449143144
 30
0.0
 40
0.9999999999977449
100
AcDbArc
 50
179.9999995362
 51
269.9999995186
  0
ARC
  5
210
330
18A
100
AcDbEntity
  8
AP_451__200
  6
Continuous
 62
     7
100
AcDbCircle
 10
36.7328494898
 20
209.1493849666
 30
0.0
 40
0.1999999999999988
100
AcDbArc
 50
179.9999995198
 51
269.9999995198
  0
LINE
  5
211
330
18A
100
AcDbEntity
  8
AP_451__200
  6
Continuous
 62
     7
100
AcDbLine
 10
36.5328496474
 20
227.9493824682
 30
0.0
 11
36.5328494898
 21
209.1493849682
 31
0.0
  0
ARC
  5
212
330
18A
100
AcDbEntity
  8
AP_451__200
  6
Continuous
 62
     7
100
AcDbCircle
 10
37.5328496474
 20
227.9493824599
 30
0.0
 40
0.9999999999996332
100
AcDbArc
 50
89.9999995198
 51
179.9999995198
  0
LINE
  5
213
330
18A
100
AcDbEntity
  8
AP_451__200
  6
Continuous
 62
     7
100
AcDbLine
 10
59.5328471557
 20
228.9493822755
 30
0.0
 11
37.5328496557
 21
228.9493824599
 31
0.0
  0
ARC
  5
214
330
18A
100
AcDbEntity
  8
AP_451__200
  6
Continuous
 62
     7
100
AcDbCircle
 10
59.5328471474
 20
227.9493822755
 30
0.0
 40
0.9999999999996123
100
AcDbArc
 50
0.0
 51
89.9999995198
  0
LINE
  5
215
330
18A
100
AcDbEntity
  8
AP_451__200
  6
Continuous
 62
     7
100
AcDbLine
 10
60.5328469898
 20
209.1440118192
 30
0.0
 11
60.5328471474
 21
227.9493822671
 31
0.0
  0
ARC
  5
216
330
18A
100
AcDbEntity
  8
AP_451__200
  6
Continuous
 62
     7
100
AcDbCircle
 10
60.3376514373
 20
209.1440118208
 30
0.0
 40
0.1951955524478997
100
AcDbArc
 50
269.5337069184
 51
359.9999995198
  0
ARC
  5
217
330
18A
100
AcDbEntity
  8
AP_451__200
  6
Continuous
 62
     7
100
AcDbCircle
 10
60.3426532992
 20
209.7586022191
 30
0.0
 40
0.8098063043086596
100
AcDbArc
 50
179.9999995199
 51
269.5337069184
  0
LINE
  5
218
330
18A
100
AcDbEntity
  8
AP_451__200
  6
Continuous
 62
     7
100
AcDbLine
 10
59.532847144
 20
227.5493827754
 30
0.0
 11
59.5328469949
 21
209.7586022259
 31
0.0
  0
ARC
  5
219
330
18A
100
AcDbEntity
  8
AP_451__200
  6
Continuous
 62
     7
100
AcDbCircle
 10
59.332847144
 20
227.5493827771
 30
0.0
 40
0.2000000000001723
100
AcDbArc
 50
0.0
 51
89.9999995197
  0
LINE
  5
21A
330
18A
100
AcDbEntity
  8
AP_451__200
  6
Continuous
 62
     7
100
AcDbLine
 10
57.4328483959
 20
227.749382793
 30
0.0
 11
59.3328471457
 21
227.7493827771
 31
0.0
  0
ARC
  5
21B
330
18A
100
AcDbEntity
  8
AP_451__200
  6
Continuous
 62
     7
100
AcDbCircle
 10
57.4328483808
 20
225.949382793
 30
0.0
 40
1.800000000000001
100
AcDbArc
 50
89.9999995197
 51
179.9999995198
  0
LINE
  5
21C
330
18A
100
AcDbEntity
  8
AP_451__200
  6
Continuous
 62
     7
100
AcDbLine
 10
55.6328483305
 20
219.9493828079
 30
0.0
 11
55.6328483808
 21
225.9493828081
 31
0.0
  0
ARC
  5
21D
330
18A
100
AcDbEntity
  8
AP_451__200
  6
Continuous
 62
     7
100
AcDbCircle
 10
54.4328483305
 20
219.9493828179
 30
0.0
 40
1.199999999999999
100
AcDbArc
 50
269.9999995101
 51
359.9999995198
  0
LINE
  5
21E
330
18A
100
AcDbEntity
  8
AP_451__200
  6
Continuous
 62
     7
100
AcDbLine
 10
52.8328483202
 20
218.7493828316
 30
0.0
 11
54.4328483203
 21
218.7493828179
 31
0.0
  0
ARC
  5
21F
330
18A
100
AcDbEntity
  8
AP_451__200
  6
Continuous
 62
     7
100
AcDbCircle
 10
52.8328483219
 20
218.9493828316
 30
0.0
 40
0.1999999999999997
100
AcDbArc
 50
179.9999995198
 51
269.9999995101
  0
LINE
  5
220
330
18A
100
AcDbEntity
  8
AP_451__200
  6
Continuous
 62
     7
100
AcDbLine
 10
52.632848327
 20
219.5493828333
 30
0.0
 11
52.6328483219
 21
218.9493828333
 31
0.0
  0
ARC
  5
221
330
18A
100
AcDbEntity
  8
AP_451__200
  6
Continuous
 62
     7
100
AcDbCircle
 10
52.832848327
 20
219.5493828316
 30
0.0
 40
0.2000000000000005
100
AcDbArc
 50
89.9999995198
 51
179.9999995198
  0
LINE
  5
222
330
18A
100
AcDbEntity
  8
AP_451__200
  6
Continuous
 62
     7
100
AcDbLine
 10
54.5328483286
 20
219.7493828174
 30
0.0
 11
52.8328483286
 21
219.7493828316
 31
0.0
  0
ARC
  5
223
330
18A
100
AcDbEntity
  8
AP_451__200
  6
Continuous
 62
     7
100
AcDbCircle
 10
54.5328483303
 20
219.9493828174
 30
0.0
 40
0.1999999999999988
100
AcDbArc
 50
269.9999995198
 51
359.9999995198
  0
LINE
  5
224
330
18A
100
AcDbEntity
  8
AP_451__200
  6
Continuous
 62
     7
100
AcDbLine
 10
54.7328483923
 20
227.3493828157
 30
0.0
 11
54.7328483303
 21
219.9493828157
 31
0.0
  0
ARC
  5
225
330
18A
100
AcDbEntity
  8
AP_451__200
  6
Continuous
 62
     7
100
AcDbCircle
 10
54.3328483923
 20
227.3493828191
 30
0.0
 40
0.400000000000001
100
AcDbArc
 50
0.0
 51
89.9999995198
  0
ARC
  5
226
330
18A
100
AcDbEntity
  8
AP_451__200
  6
Continuous
 62
     7
100
AcDbCircle
 10
42.7328483923
 20
227.3493829163
 30
0.0
 40
0.4000000000000019
100
AcDbArc
 50
89.9999995198
 51
179.9999995198
  0
LINE
  5
227
330
18A
100
AcDbEntity
  8
AP_451__200
  6
Continuous
 62
     7
100
AcDbLine
 10
42.3328483303
 20
219.9493829196
 30
0.0
 11
42.3328483923
 21
227.3493829196
 31
0.0
  0
ARC
  5
228
330
18A
100
AcDbEntity
  8
AP_451__200
  6
Continuous
 62
     7
100
AcDbCircle
 10
42.5328483303
 20
219.9493829179
 30
0.0
 40
0.2000000000000023
100
AcDbArc
 50
179.9999995198
 51
269.9999995198
  0
LINE
  5
229
330
18A
100
AcDbEntity
  8
AP_451__200
  6
Continuous
 62
     7
100
AcDbLine
 10
44.1328483286
 20
219.7493829045
 30
0.0
 11
42.5328483286
 21
219.7493829179
 31
0.0
  0
ARC
  5
22A
330
18A
100
AcDbEntity
  8
AP_451__200
  6
Continuous
 62
     7
100
AcDbCircle
 10
44.132848327
 20
219.5493829045
 30
0.0
 40
0.1999999999999997
100
AcDbArc
 50
0.0
 51
89.9999995198
  0
LINE
  5
22B
330
18A
100
AcDbEntity
  8
AP_451__200
  6
Continuous
 62
     7
100
AcDbLine
 10
44.3328483219
 20
218.9493829029
 30
0.0
 11
44.332848327
 21
219.5493829029
 31
0.0
  0
ARC
  5
22C
330
18A
100
AcDbEntity
  8
AP_451__200
  6
Continuous
 62
     7
100
AcDbCircle
 10
44.1328483219
 20
218.9493829045
 30
0.0
 40
0.2000000000000014
100
AcDbArc
 50
269.9999995198
 51
359.9999995198
  0
LINE
  5
22D
330
18A
100
AcDbEntity
  8
AP_451__200
  6
Continuous
 62
     7
100
AcDbLine
 10
42.6328483202
 20
218.7493829171
 30
0.0
 11
44.1328483203
 21
218.7493829045
 31
0.0
  0
ARC
  5
22E
330
18A
100
AcDbEntity
  8
AP_451__200
  6
Continuous
 62
     7
100
AcDbCircle
 10
42.6328483303
 20
219.9493829171
 30
0.0
 40
1.2
100
AcDbArc
 50
179.9999995198
 51
269.9999995198
  0
LINE
  5
22F
330
18A
100
AcDbEntity
  8
AP_451__200
  6
Continuous
 62
     7
100
AcDbLine
 10
41.4328483806
 20
225.9493829272
 30
0.0
 11
41.4328483303
 21
219.9493829272
 31
0.0
  0
ARC
  5
230
330
18A
100
AcDbEntity
  8
AP_451__200
  6
Continuous
 62
     7
100
AcDbCircle
 10
39.6328483806
 20
225.9493829423
 30
0.0
 40
1.8
100
AcDbArc
 50
0.0
 51
89.9999995198
  0
LINE
  5
231
330
18A
100
AcDbEntity
  8
AP_451__200
  6
Continuous
 62
     7
100
AcDbLine
 10
37.7328496457
 20
227.7493829582
 30
0.0
 11
39.6328483957
 21
227.7493829423
 31
0.0
  0
ARC
  5
232
330
18A
100
AcDbEntity
  8
AP_451__200
  6
Continuous
 62
     7
100
AcDbCircle
 10
37.732849644
 20
227.5493829582
 30
0.0
 40
0.1999999999999988
100
AcDbArc
 50
89.9999995198
 51
179.9999995198
  0
LINE
  5
233
330
18A
100
AcDbEntity
  8
AP_451__200
  6
Continuous
 62
     7
100
AcDbLine
 10
37.5328494948
 20
209.7493849599
 30
0.0
 11
37.532849644
 21
227.5493829599
 31
0.0
  0
ARC
  5
234
330
18A
100
AcDbEntity
  8
AP_451__200
  6
Continuous
 62
     7
100
AcDbCircle
 10
36.7328494948
 20
209.7493849666
 30
0.0
 40
0.8000000000000006
100
AcDbArc
 50
269.9999995198
 51
359.9999995198
  0
ENDBLK
  5
236
330
18A
100
AcDbEntity
  8
0
100
AcDbBlockEnd
  0
BLOCK
  5
239
330
238
100
AcDbEntity
  8
0
100
AcDbBlockBegin
  2
_OBLIQUE
 70
     0
 10
0.0
 20
0.0
 30
0.0
  3
_OBLIQUE
  1
_OBLIQUE
  0
LINE
  5
23B
330
238
100
AcDbEntity
  8
0
  6
ByBlock
 62
     0
370
    -2
100
AcDbLine
 10
-0.5
 20
-0.5
 30
0.0
 11
0.5
 21
0.5
 31
0.0
  0
ENDBLK
  5
23A
330
238
100
AcDbEntity
  8
0
100
AcDbBlockEnd
  0
BLOCK
  5
23D
330
23C
100
AcDbEntity
  8
0
100
AcDbBlockBegin
  2
_DOT
 70
     0
 10
0.0
 20
0.0
 30
0.0
  3
_DOT
  1
_DOT
  0
POLYLINE
  5
23F
330
23C
100
AcDbEntity
  8
0
  6
ByBlock
 62
     0
100
AcDb2dPolyline
 66
     1
 10
0.0
 20
0.0
 30
0.0
 70
     1
 40
0.5
 41
0.5
  0
VERTEX
  5
241
330
23F
100
AcDbEntity
  8
0
  6
ByBlock
 62
     0
100
AcDbVertex
100
AcDb2dVertex
 10
-0.25
 20
0.0
 30
0.0
 42
1.0
  0
VERTEX
  5
242
330
23F
100
AcDbEntity
  8
0
  6
ByBlock
 62
     0
100
AcDbVertex
100
AcDb2dVertex
 10
0.25
 20
0.0
 30
0.0
 42
1.0
  0
SEQEND
  5
243
330
23F
100
AcDbEntity
  8
0
  6
ByBlock
 62
     0
  0
LINE
  5
240
330
23C
100
AcDbEntity
  8
0
  6
ByBlock
 62
     0
370
    -2
100
AcDbLine
 10
-0.5
 20
0.0
 30
0.0
 11
-1.0
 21
0.0
 31
0.0
  0
ENDBLK
  5
23E
330
23C
100
AcDbEntity
  8
0
100
AcDbBlockEnd
  0
BLOCK
  5
248
330
244
100
AcDbEntity
  8
0
100
AcDbBlockBegin
  2
_SE_OPEN
 70
     0
 10
0.0
 20
0.0
 30
0.0
  3
_SE_OPEN
  1
_SE_OPEN
  0
LINE
  5
245
330
244
100
AcDbEntity
  8
0
 62
     0
100
AcDbLine
 10
0.0
 20
0.0
 30
0.0
 11
-1.0
 21
-0.1665
 31
0.0
  0
LINE
  5
246
330
244
100
AcDbEntity
  8
0
 62
     0
100
AcDbLine
 10
-1.0
 20
0.1665
 30
0.0
 11
0.0
 21
0.0
 31
0.0
  0
LINE
  5
247
330
244
100
AcDbEntity
  8
0
 62
     0
100
AcDbLine
 10
0.0
 20
0.0
 30
0.0
 11
-1.0
 21
0.0
 31
0.0
  0
ENDBLK
  5
249
330
244
100
AcDbEntity
  8
0
100
AcDbBlockEnd
  0
BLOCK
  5
254
330
24D
100
AcDbEntity
  8
0
100
AcDbBlockBegin
  2
DMBLK13
 70
     0
 10
0.0
 20
0.0
 30
0.0
  3
DMBLK13
  1
DMBLK13
  0
LWPOLYLINE
  5
24E
330
24D
100
AcDbEntity
  8
Standard
  6
Continuous
 62
     7
100
AcDbPolyline
 90
        3
 70
     0
 43
0.0
 10
41.2290261205
 20
154.4269797773
 10
37.4790262043
 20
155.0519797633
 10
41.2290261205
 20
155.6769797493
  0
LWPOLYLINE
  5
24F
330
24D
100
AcDbEntity
  8
Standard
  6
Continuous
 62
     7
100
AcDbPolyline
 90
        3
 70
     0
 43
0.0
 10
57.7290246341
 20
154.4269797773
 10
61.4790245503
 20
155.0519797633
 10
57.7290246341
 20
155.6769797493
  0
LINE
  5
250
330
24D
100
AcDbEntity
  8
Standard
  6
Continuous
 62
     7
100
AcDbLine
 10
37.4790262043
 20
131.5178013787
 30
0.0
 11
37.4790262043
 21
156.3019797353
 31
0.0
  0
LINE
  5
251
330
24D
100
AcDbEntity
  8
Standard
  6
Continuous
 62
     7
100
AcDbLine
 10
61.4790237043
 20
131.5178011776
 30
0.0
 11
61.4790237043
 21
156.3019797353
 31
0.0
  0
LINE
  5
252
330
24D
100
AcDbEntity
  8
Standard
  6
Continuous
 62
     7
100
AcDbLine
 10
37.4790262043
 20
155.0519797633
 30
0.0
 11
61.4790245503
 21
155.0519797633
 31
0.0
  0
TEXT
  5
253
330
24D
100
AcDbEntity
  8
Standard
  6
Continuous
 62
     7
100
AcDbText
 10
47.5225036381
 20
155.6769797633
 30
0.0
 40
2.5
  1
24
  7
SEACAD_Arial
 11
47.5225036381
 21
158.1769797633
 31
0.0
100
AcDbText
 73
     3
  0
ENDBLK
  5
255
330
24D
100
AcDbEntity
  8
0
100
AcDbBlockEnd
  0
BLOCK
  5
25E
330
257
100
AcDbEntity
  8
0
100
AcDbBlockBegin
  2
DMBLK14
 70
     0
 10
0.0
 20
0.0
 30
0.0
  3
DMBLK14
  1
DMBLK14
  0
LWPOLYLINE
  5
258
330
257
100
AcDbEntity
  8
Standard
  6
Continuous
 62
     7
100
AcDbPolyline
 90
        3
 70
     0
 43
0.0
 10
67.4505053181
 20
128.0178012632
 10
68.0755053041
 20
131.7678011794
 10
68.7005052902
 20
128.0178012632
  0
LWPOLYLINE
  5
259
330
257
100
AcDbEntity
  8
Standard
  6
Continuous
 62
     7
100
AcDbPolyline
 90
        3
 70
     0
 43
0.0
 10
67.4505053181
 20
115.5172408865
 10
68.0755053041
 20
111.7672409703
 10
68.7005052902
 20
115.5172408865
  0
LINE
  5
25A
330
257
100
AcDbEntity
  8
Standard
  6
Continuous
 62
     7
100
AcDbLine
 10
61.2290237192
 20
131.7678011794
 30
0.0
 11
69.3255052762
 21
131.7678011794
 31
0.0
  0
LINE
  5
25B
330
257
100
AcDbEntity
  8
Standard
  6
Continuous
 62
     7
100
AcDbLine
 10
62.0322394487
 20
111.7672416365
 30
0.0
 11
69.3255052762
 21
111.7672416365
 31
0.0
  0
LINE
  5
25C
330
257
100
AcDbEntity
  8
Standard
  6
Continuous
 62
     7
100
AcDbLine
 10
68.0755053041
 20
131.7678011794
 30
0.0
 11
68.0755053041
 21
111.7672409703
 31
0.0
  0
TEXT
  5
25D
330
257
100
AcDbEntity
  8
Standard
  6
Continuous
 62
     7
100
AcDbText
 10
67.4505053041
 20
119.8109993357
 30
0.0
 40
2.5
  1
20
 50
90.0
  7
SEACAD_Arial
 11
64.9505053041
 21
119.8109993357
 31
0.0
100
AcDbText
 73
     3
  0
ENDBLK
  5
25F
330
257
100
AcDbEntity
  8
0
100
AcDbBlockEnd
  0
BLOCK
  5
370
330
260
100
AcDbEntity
  8
0
100
AcDbBlockBegin
  2
SE2
 70
     0
 10
0.0
 20
0.0
 30
0.0
  3
SE2
  1
SE2
  0
LINE
  5
262
330
260
100
AcDbEntity
  8
3MM_SCHRAUBE_X_1
  6
Continuous
 62
     7
100
AcDbLine
 10
164.8582142606
 20
142.9657835589
 30
0.0
 11
165.7890804773
 21
142.9511401882
 31
0.0
  0
LINE
  5
263
330
260
100
AcDbEntity
  8
3MM_SCHRAUBE_X_1
  6
Continuous
 62
     7
100
AcDbLine
 10
165.7890804773
 20
142.9511401882
 30
0.0
 11
165.8037238323
 21
142.0202739713
 31
0.0
  0
LINE
  5
264
330
260
100
AcDbEntity
  8
3MM_SCHRAUBE_X_1
  6
Continuous
 62
     7
100
AcDbLine
 10
165.8037238323
 20
142.0202739713
 30
0.0
 11
164.8846035726
 21
141.101153727
 31
0.0
  0
LINE
  5
265
330
260
100
AcDbEntity
  8
3MM_SCHRAUBE_X_1
  6
Continuous
 62
     7
100
AcDbLine
 10
164.8846035726
 20
141.101153727
 30
0.0
 11
165.8037238169
 21
140.1820334673
 31
0.0
  0
LINE
  5
266
330
260
100
AcDbEntity
  8
3MM_SCHRAUBE_X_1
  6
Continuous
 62
     7
100
AcDbLine
 10
165.8037238169
 20
140.1820334673
 30
0.0
 11
165.7890804463
 21
139.2511672506
 31
0.0
  0
LINE
  5
267
330
260
100
AcDbEntity
  8
3MM_SCHRAUBE_X_1
  6
Continuous
 62
     7
100
AcDbLine
 10
165.7890804463
 20
139.2511672506
 30
0.0
 11
164.8582142293
 21
139.2365238956
 31
0.0
  0
LINE
  5
268
330
260
100
AcDbEntity
  8
3MM_SCHRAUBE_X_1
  6
Continuous
 62
     7
100
AcDbLine
 10
164.8582142293
 20
139.2365238956
 30
0.0
 11
163.939093985
 21
140.1556441553
 31
0.0
  0
LINE
  5
269
330
260
100
AcDbEntity
  8
3MM_SCHRAUBE_X_1
  6
Continuous
 62
     7
100
AcDbLine
 10
163.939093985
 20
140.1556441553
 30
0.0
 11
163.0199737253
 21
139.236523911
 31
0.0
  0
LINE
  5
26A
330
260
100
AcDbEntity
  8
3MM_SCHRAUBE_X_1
  6
Continuous
 62
     7
100
AcDbLine
 10
163.0199737253
 20
139.236523911
 30
0.0
 11
162.0891075086
 21
139.2511672816
 31
0.0
  0
LINE
  5
26B
330
260
100
AcDbEntity
  8
3MM_SCHRAUBE_X_1
  6
Continuous
 62
     7
100
AcDbLine
 10
162.0891075086
 20
139.2511672816
 30
0.0
 11
162.0744641536
 21
140.1820334986
 31
0.0
  0
LINE
  5
26C
330
260
100
AcDbEntity
  8
3MM_SCHRAUBE_X_1
  6
Continuous
 62
     7
100
AcDbLine
 10
162.0744641536
 20
140.1820334986
 30
0.0
 11
162.9935844133
 21
141.1011537429
 31
0.0
  0
LINE
  5
26D
330
260
100
AcDbEntity
  8
3MM_SCHRAUBE_X_1
  6
Continuous
 62
     7
100
AcDbLine
 10
162.9935844133
 20
141.1011537429
 30
0.0
 11
162.074464169
 21
142.0202740026
 31
0.0
  0
LINE
  5
26E
330
260
100
AcDbEntity
  8
3MM_SCHRAUBE_X_1
  6
Continuous
 62
     7
100
AcDbLine
 10
162.074464169
 20
142.0202740026
 30
0.0
 11
162.0891075396
 21
142.9511402193
 31
0.0
  0
LINE
  5
26F
330
260
100
AcDbEntity
  8
3MM_SCHRAUBE_X_1
  6
Continuous
 62
     7
100
AcDbLine
 10
162.0891075396
 20
142.9511402193
 30
0.0
 11
163.0199737566
 21
142.9657835743
 31
0.0
  0
LINE
  5
270
330
260
100
AcDbEntity
  8
3MM_SCHRAUBE_X_1
  6
Continuous
 62
     7
100
AcDbLine
 10
163.0199737566
 20
142.9657835743
 30
0.0
 11
163.9390940009
 21
142.0466633146
 31
0.0
  0
LINE
  5
271
330
260
100
AcDbEntity
  8
3MM_SCHRAUBE_X_1
  6
Continuous
 62
     7
100
AcDbLine
 10
163.9390940009
 20
142.0466633146
 30
0.0
 11
164.8582142606
 21
142.9657835589
 31
0.0
  0
LINE
  5
272
330
260
100
AcDbEntity
  8
AW_079
  6
Continuous
 62
     7
100
AcDbLine
 10
169.8390938999
 20
130.9970325594
 30
0.0
 11
175.0390926523
 21
130.9970324714
 31
0.0
  0
ARC
  5
273
330
260
100
AcDbEntity
  8
AW_079
  6
Continuous
 62
     7
100
AcDbCircle
 10
175.0390926642
 20
131.6970324714
 30
0.0
 40
0.6999999999999993
100
AcDbArc
 50
269.999999031
 51
359.9999995198
  0
LINE
  5
274
330
260
100
AcDbEntity
  8
AW_079
  6
Continuous
 62
     7
100
AcDbLine
 10
175.7390926642
 20
131.6970324656
 30
0.0
 11
175.7390927269
 21
139.1843964316
 31
0.0
  0
ARC
  5
275
330
260
100
AcDbEntity
  8
AW_079
  6
Continuous
 62
     7
100
AcDbCircle
 10
163.9390952269
 20
139.1920775954
 30
0.0
 40
11.8
100
AcDbArc
 50
359.9627035341
 51
179.9999995198
  0
LINE
  5
276
330
260
100
AcDbEntity
  8
AW_079
  6
Continuous
 62
     7
100
AcDbLine
 10
152.1390952269
 20
139.1920776943
 30
0.0
 11
152.1390951641
 21
131.6970328527
 31
0.0
  0
ARC
  5
277
330
260
100
AcDbEntity
  8
AW_079
  6
Continuous
 62
     7
100
AcDbCircle
 10
152.8390951641
 20
131.6970328469
 30
0.0
 40
0.6999999999999993
100
AcDbArc
 50
179.9999995198
 51
269.999999031
  0
LINE
  5
278
330
260
100
AcDbEntity
  8
AW_079
  6
Continuous
 62
     7
100
AcDbLine
 10
152.8390951523
 20
130.9970328469
 30
0.0
 11
158.0390938999
 21
130.9970327589
 31
0.0
  0
CIRCLE
  5
279
330
260
100
AcDbEntity
  8
AW_079
  6
Continuous
 62
     7
100
AcDbCircle
 10
163.939093993
 20
141.1011537349
 30
0.0
 40
3.25
  0
LINE
  5
27A
330
260
100
AcDbEntity
  8
AW_079
  6
Continuous
 62
     7
100
AcDbLine
 10
169.8390938999
 20
130.9970325594
 30
0.0
 11
169.8390938954
 21
130.4606493259
 31
0.0
  0
LINE
  5
27B
330
260
100
AcDbEntity
  8
AW_079
  6
Continuous
 62
     7
100
AcDbLine
 10
158.0390938952
 20
130.4397239093
 30
0.0
 11
158.0390938999
 21
130.9970327589
 31
0.0
  0
LINE
  5
27C
330
260
100
AcDbEntity
  8
AW_079
  6
Continuous
 62
     7
100
AcDbLine
 10
158.1270606926
 20
137.5017981892
 30
0.0
 11
156.972258086
 21
135.2353712937
 31
0.0
  0
LINE
  5
27D
330
260
100
AcDbEntity
  8
AW_079
  6
Continuous
 62
     7
100
AcDbLine
 10
155.4533729051
 20
132.2543923752
 30
0.0
 11
172.4449730229
 21
132.2543922328
 31
0.0
  0
LINE
  5
27E
330
260
100
AcDbEntity
  8
AW_079
  6
Continuous
 62
     7
100
AcDbLine
 10
172.4449730229
 20
132.2543922328
 30
0.0
 11
171.2845319902
 21
134.7429668939
 31
0.0
  0
LINE
  5
27F
330
260
100
AcDbEntity
  8
AW_079
  6
Continuous
 62
     7
100
AcDbLine
 10
170.7554435744
 20
135.8776010444
 30
0.0
 11
158.1270606926
 21
137.5017981892
 31
0.0
  0
LINE
  5
280
330
260
100
AcDbEntity
  8
AW_079
  6
Continuous
 62
     7
100
AcDbLine
 10
171.054870757
 20
135.2354771635
 30
0.0
 11
170.7554435744
 21
135.8776010444
 31
0.0
  0
LINE
  5
281
330
260
100
AcDbEntity
  8
AW_079
  6
Continuous
 62
     7
100
AcDbLine
 10
171.2845319902
 20
134.7429668939
 30
0.0
 11
170.3639569046
 21
134.6522218073
 31
0.0
  0
ARC
  5
282
330
260
100
AcDbEntity
  8
AW_079
  6
Continuous
 62
     7
100
AcDbCircle
 10
170.4325300775
 20
133.9565725231
 30
0.0
 40
0.6990208914923824
100
AcDbArc
 50
95.6297065434
 51
179.9972137624
  0
LINE
  5
283
330
260
100
AcDbEntity
  8
AW_079
  6
Continuous
 62
     7
100
AcDbLine
 10
169.7335091869
 20
133.9566065158
 30
0.0
 11
169.7334503668
 21
132.7470384783
 31
0.0
  0
LINE
  5
284
330
260
100
AcDbEntity
  8
AW_079
  6
Continuous
 62
     7
100
AcDbLine
 10
169.7334503668
 20
132.7470384783
 30
0.0
 11
169.1042283465
 21
132.7470337479
 31
0.0
  0
LINE
  5
285
330
260
100
AcDbEntity
  8
AW_079
  6
Continuous
 62
     7
100
AcDbLine
 10
169.1042283465
 20
132.7470337479
 30
0.0
 11
169.1042096391
 21
135.2354624989
 31
0.0
  0
LINE
  5
286
330
260
100
AcDbEntity
  8
AW_079
  6
Continuous
 62
     7
100
AcDbLine
 10
169.1042096391
 20
135.2354624989
 30
0.0
 11
169.6365301701
 21
135.2354665007
 31
0.0
  0
LINE
  5
287
330
260
100
AcDbEntity
  8
AW_079
  6
Continuous
 62
     7
100
AcDbLine
 10
169.6365301701
 20
135.2354665007
 30
0.0
 11
169.7263188435
 21
134.9917598131
 31
0.0
  0
ARC
  5
288
330
260
100
AcDbEntity
  8
AW_079
  6
Continuous
 62
     7
100
AcDbCircle
 10
170.3069656657
 20
134.4219158248
 30
0.0
 40
0.8135557160563159
100
AcDbArc
 50
90.0004307363
 51
135.5379778815
  0
LINE
  5
289
330
260
100
AcDbEntity
  8
AW_079
  6
Continuous
 62
     7
100
AcDbLine
 10
170.3069595496
 20
135.2354715409
 30
0.0
 11
171.054870757
 21
135.2354771635
 31
0.0
  0
LINE
  5
28A
330
260
100
AcDbEntity
  8
AW_079
  6
Continuous
 62
     7
100
AcDbLine
 10
156.6742961575
 20
134.6505882972
 30
0.0
 11
155.4533729051
 21
132.2543923752
 31
0.0
  0
LINE
  5
28B
330
260
100
AcDbEntity
  8
AW_079
  6
Continuous
 62
     7
100
AcDbLine
 10
158.8669093968
 20
133.7666161116
 30
0.0
 11
158.1813633194
 21
133.6014479335
 31
0.0
  0
ARC
  5
28C
330
260
100
AcDbEntity
  8
AW_079
  6
Continuous
 62
     7
100
AcDbCircle
 10
158.2058028988
 20
133.8796623118
 30
0.0
 40
0.6707020538830533
100
AcDbArc
 50
316.6201834045
 51
350.296530989
  0
ARC
  5
28D
330
260
100
AcDbEntity
  8
AW_079
  6
Continuous
 62
     7
100
AcDbCircle
 10
158.3678908747
 20
133.6727651752
 30
0.0
 40
0.4126421423710718
100
AcDbArc
 50
235.6538334604
 51
322.0503235954
  0
ARC
  5
28E
330
260
100
AcDbEntity
  8
AW_079
  6
Continuous
 62
     7
100
AcDbCircle
 10
158.1926033991
 20
133.460851857
 30
0.0
 40
0.1410446600308615
100
AcDbArc
 50
94.5708412159
 51
245.9316440306
  0
ARC
  5
28F
330
260
100
AcDbEntity
  8
AW_079
  6
Continuous
 62
     7
100
AcDbCircle
 10
158.5592613985
 20
134.3644331615
 30
0.0
 40
0.8709500628594417
100
AcDbArc
 50
0.0004307363
 51
90.0004307363
  0
LINE
  5
290
330
260
100
AcDbEntity
  8
AW_079
  6
Continuous
 62
     7
100
AcDbLine
 10
158.5592548509
 20
135.2353832244
 30
0.0
 11
156.972258086
 21
135.2353712937
 31
0.0
  0
LINE
  5
291
330
260
100
AcDbEntity
  8
AW_079
  6
Continuous
 62
     7
100
AcDbLine
 10
156.6742961575
 20
134.6505882972
 30
0.0
 11
158.608691327
 21
134.6506028395
 31
0.0
  0
ARC
  5
292
330
260
100
AcDbEntity
  8
AW_079
  6
Continuous
 62
     7
100
AcDbCircle
 10
158.6263249884
 20
134.4444755317
 30
0.0
 40
0.2068801900205314
100
AcDbArc
 50
271.0507823846
 51
94.8896019292
  0
LINE
  5
293
330
260
100
AcDbEntity
  8
AW_079
  6
Continuous
 62
     7
100
AcDbLine
 10
158.6301188782
 20
134.2376301319
 30
0.0
 11
157.8896161615
 21
134.1056102522
 31
0.0
  0
ARC
  5
294
330
260
100
AcDbEntity
  8
AW_079
  6
Continuous
 62
     7
100
AcDbCircle
 10
158.0104097056
 20
133.4280763254
 30
0.0
 40
0.6882174817543371
100
AcDbArc
 50
100.1087183354
 51
261.7681819849
  0
LINE
  5
295
330
260
100
AcDbEntity
  8
AW_079
  6
Continuous
 62
     7
100
AcDbLine
 10
157.9118717153
 20
132.7469496363
 30
0.0
 11
158.5154735676
 21
132.746954174
 31
0.0
  0
ARC
  5
296
330
260
100
AcDbEntity
  8
AW_079
  6
Continuous
 62
     7
100
AcDbCircle
 10
158.5154692644
 20
133.3193640227
 30
0.0
 40
0.5724098486945559
100
AcDbArc
 50
270.0004307363
 51
313.5051589249
  0
LINE
  5
297
330
260
100
AcDbEntity
  8
AW_079
  6
Continuous
 62
     7
100
AcDbLine
 10
158.909527587
 20
132.9041880682
 30
0.0
 11
158.9768090962
 21
132.7469573127
 31
0.0
  0
LINE
  5
298
330
260
100
AcDbEntity
  8
AW_079
  6
Continuous
 62
     7
100
AcDbLine
 10
158.9768090962
 20
132.7469573127
 30
0.0
 11
159.4856714635
 21
132.7469611382
 31
0.0
  0
ARC
  5
299
330
260
100
AcDbEntity
  8
AW_079
  6
Continuous
 62
     7
100
AcDbCircle
 10
159.5417253492
 20
132.8433497208
 30
0.0
 40
0.1115024527112492
100
AcDbArc
 50
180.0004307363
 51
239.8202553895
  0
LINE
  5
29A
330
260
100
AcDbEntity
  8
AW_079
  6
Continuous
 62
     7
100
AcDbLine
 10
159.4302228965
 20
132.8433488825
 30
0.0
 11
159.4302114613
 21
134.3644397091
 31
0.0
  0
ARC
  5
29B
330
260
100
AcDbEntity
  8
AW_079
  6
Continuous
 62
     7
100
AcDbCircle
 10
165.5206429339
 20
134.0845372611
 30
0.0
 40
0.4043696720418803
100
AcDbArc
 50
0.0004307363
 51
140.2852935045
  0
LINE
  5
29C
330
260
100
AcDbEntity
  8
AW_079
  6
Continuous
 62
     7
100
AcDbLine
 10
165.9250126059
 20
134.084540301
 30
0.0
 11
165.9250226611
 21
132.7470098474
 31
0.0
  0
LINE
  5
29D
330
260
100
AcDbEntity
  8
AW_079
  6
Continuous
 62
     7
100
AcDbLine
 10
165.9250226611
 20
132.7470098474
 30
0.0
 11
166.5471298489
 21
132.7470145242
 31
0.0
  0
LINE
  5
29E
330
260
100
AcDbEntity
  8
AW_079
  6
Continuous
 62
     7
100
AcDbLine
 10
166.5471298489
 20
132.7470145242
 30
0.0
 11
166.5471168488
 21
134.4762608015
 31
0.0
  0
ARC
  5
29F
330
260
100
AcDbEntity
  8
AW_079
  6
Continuous
 62
     7
100
AcDbCircle
 10
165.778691964
 20
134.4762550247
 30
0.0
 40
0.7684248848564376
100
AcDbArc
 50
0.0004307363
 51
153.9145117768
  0
ARC
  5
2A0
330
260
100
AcDbEntity
  8
AW_079
  6
Continuous
 62
     7
100
AcDbCircle
 10
164.4042242456
 20
134.4510692389
 30
0.0
 40
0.7746665334103289
100
AcDbArc
 50
27.9486876597
 51
147.9495334086
  0
LINE
  5
2A1
330
260
100
AcDbEntity
  8
AW_079
  6
Continuous
 62
     7
100
AcDbLine
 10
163.7476316027
 20
134.8621584499
 30
0.0
 11
163.7476287966
 21
135.2354222293
 31
0.0
  0
LINE
  5
2A2
330
260
100
AcDbEntity
  8
AW_079
  6
Continuous
 62
     7
100
AcDbLine
 10
163.7476287966
 20
135.2354222293
 30
0.0
 11
163.1255216089
 21
135.2354175525
 31
0.0
  0
LINE
  5
2A3
330
260
100
AcDbEntity
  8
AW_079
  6
Continuous
 62
     7
100
AcDbLine
 10
163.1255216089
 20
135.2354175525
 30
0.0
 11
163.1255403163
 21
132.7469888015
 31
0.0
  0
LINE
  5
2A4
330
260
100
AcDbEntity
  8
AW_079
  6
Continuous
 62
     7
100
AcDbLine
 10
163.1255403163
 20
132.7469888015
 30
0.0
 11
163.7476475041
 21
132.7469934784
 31
0.0
  0
LINE
  5
2A5
330
260
100
AcDbEntity
  8
AW_079
  6
Continuous
 62
     7
100
AcDbLine
 10
163.7476475041
 20
132.7469934784
 30
0.0
 11
163.7476374488
 21
134.084523932
 31
0.0
  0
ARC
  5
2A6
330
260
100
AcDbEntity
  8
AW_079
  6
Continuous
 62
     7
100
AcDbCircle
 10
164.1520071208
 20
134.084526972
 30
0.0
 40
0.4043696720418801
100
AcDbArc
 50
39.7155679682
 51
180.0004307363
  0
LINE
  5
2A7
330
260
100
AcDbEntity
  8
AW_079
  6
Continuous
 62
     7
100
AcDbLine
 10
164.4630587723
 20
134.342909831
 30
0.0
 11
164.46307077
 21
132.7469988568
 31
0.0
  0
LINE
  5
2A8
330
260
100
AcDbEntity
  8
AW_079
  6
Continuous
 62
     7
100
AcDbLine
 10
164.46307077
 20
132.7469988568
 30
0.0
 11
165.2095993952
 21
132.747004469
 31
0.0
  0
LINE
  5
2A9
330
260
100
AcDbEntity
  8
AW_079
  6
Continuous
 62
     7
100
AcDbLine
 10
165.2095993952
 20
132.747004469
 30
0.0
 11
165.2095873976
 21
134.3429154432
 31
0.0
  0
LINE
  5
2AA
330
260
100
AcDbEntity
  8
AW_079
  6
Continuous
 62
     7
100
AcDbLine
 10
160.4878020988
 20
133.2446547219
 30
0.0
 11
160.7988556927
 21
133.2446570603
 31
0.0
  0
LINE
  5
2AB
330
260
100
AcDbEntity
  8
AW_079
  6
Continuous
 62
     7
100
AcDbLine
 10
160.7988556927
 20
133.2446570603
 30
0.0
 11
160.7988594342
 21
132.7469713101
 31
0.0
  0
LINE
  5
2AC
330
260
100
AcDbEntity
  8
AW_079
  6
Continuous
 62
     7
100
AcDbLine
 10
160.7988594342
 20
132.7469713101
 30
0.0
 11
160.1145415277
 21
132.7469661655
 31
0.0
  0
ARC
  5
2AD
330
260
100
AcDbEntity
  8
AW_079
  6
Continuous
 62
     7
100
AcDbCircle
 10
160.1145387215
 20
133.1202304782
 30
0.0
 40
0.3732643126540162
100
AcDbArc
 50
180.0004307363
 51
270.0004307363
  0
LINE
  5
2AE
330
260
100
AcDbEntity
  8
AW_079
  6
Continuous
 62
     7
100
AcDbLine
 10
159.7412744089
 20
133.1202276721
 30
0.0
 11
159.7412613137
 21
134.8621277977
 31
0.0
  0
LINE
  5
2AF
330
260
100
AcDbEntity
  8
AW_079
  6
Continuous
 62
     7
100
AcDbLine
 10
159.7412613137
 20
134.8621277977
 30
0.0
 11
159.3679970011
 21
134.8621249916
 31
0.0
  0
LINE
  5
2B0
330
260
100
AcDbEntity
  8
AW_079
  6
Continuous
 62
     7
100
AcDbLine
 10
159.3679970011
 20
134.8621249916
 30
0.0
 11
159.3679937273
 21
135.297600023
 31
0.0
  0
LINE
  5
2B1
330
260
100
AcDbEntity
  8
AW_079
  6
Continuous
 62
     7
100
AcDbLine
 10
159.3679937273
 20
135.297600023
 30
0.0
 11
159.7412580399
 21
135.2976028292
 31
0.0
  0
LINE
  5
2B2
330
260
100
AcDbEntity
  8
AW_079
  6
Continuous
 62
     7
100
AcDbLine
 10
159.7412580399
 20
135.2976028292
 30
0.0
 11
159.7412528954
 21
135.9819207357
 31
0.0
  0
LINE
  5
2B3
330
260
100
AcDbEntity
  8
AW_079
  6
Continuous
 62
     7
100
AcDbLine
 10
159.7412528954
 20
135.9819207357
 30
0.0
 11
160.3633600831
 21
135.9819254125
 31
0.0
  0
LINE
  5
2B4
330
260
100
AcDbEntity
  8
AW_079
  6
Continuous
 62
     7
100
AcDbLine
 10
160.3633600831
 20
135.9819254125
 30
0.0
 11
160.3633652276
 21
135.297607506
 31
0.0
  0
LINE
  5
2B5
330
260
100
AcDbEntity
  8
AW_079
  6
Continuous
 62
     7
100
AcDbLine
 10
160.3633652276
 20
135.297607506
 30
0.0
 11
160.7988402591
 21
135.2976107798
 31
0.0
  0
LINE
  5
2B6
330
260
100
AcDbEntity
  8
AW_079
  6
Continuous
 62
     7
100
AcDbLine
 10
160.7988402591
 20
135.2976107798
 30
0.0
 11
160.7988435329
 21
134.8621357484
 31
0.0
  0
LINE
  5
2B7
330
260
100
AcDbEntity
  8
AW_079
  6
Continuous
 62
     7
100
AcDbLine
 10
160.7988435329
 20
134.8621357484
 30
0.0
 11
160.3633685014
 21
134.8621324746
 31
0.0
  0
LINE
  5
2B8
330
260
100
AcDbEntity
  8
AW_079
  6
Continuous
 62
     7
100
AcDbLine
 10
160.3633685014
 20
134.8621324746
 30
0.0
 11
160.3633797259
 21
133.369075224
 31
0.0
  0
ARC
  5
2B9
330
260
100
AcDbEntity
  8
AW_079
  6
Continuous
 62
     7
100
AcDbCircle
 10
160.4878011634
 20
133.3690761594
 30
0.0
 40
0.124421437551365
100
AcDbArc
 50
180.0004307363
 51
270.0004307363
  0
LINE
  5
2BA
330
260
100
AcDbEntity
  8
AW_079
  6
Continuous
 62
     7
100
AcDbLine
 10
161.5453780042
 20
134.084507376
 30
0.0
 11
161.5453880595
 21
132.7469769223
 31
0.0
  0
LINE
  5
2BB
330
260
100
AcDbEntity
  8
AW_079
  6
Continuous
 62
     7
100
AcDbLine
 10
161.5453880595
 20
132.7469769223
 30
0.0
 11
160.9232808717
 21
132.7469722455
 31
0.0
  0
LINE
  5
2BC
330
260
100
AcDbEntity
  8
AW_079
  6
Continuous
 62
     7
100
AcDbLine
 10
160.9232808717
 20
132.7469722455
 30
0.0
 11
160.9232565521
 21
135.9819296217
 31
0.0
  0
LINE
  5
2BD
330
260
100
AcDbEntity
  8
AW_079
  6
Continuous
 62
     7
100
AcDbLine
 10
160.9232565521
 20
135.9819296217
 30
0.0
 11
161.5453637398
 21
135.9819342986
 31
0.0
  0
LINE
  5
2BE
330
260
100
AcDbEntity
  8
AW_079
  6
Continuous
 62
     7
100
AcDbLine
 10
161.5453637398
 20
135.9819342986
 30
0.0
 11
161.5453721581
 21
134.8621418938
 31
0.0
  0
ARC
  5
2BF
330
260
100
AcDbEntity
  8
AW_079
  6
Continuous
 62
     7
100
AcDbCircle
 10
162.2087547492
 20
134.4762281016
 30
0.0
 40
0.7674672091440684
100
AcDbArc
 50
0.0
 51
149.8118784085
  0
LINE
  5
2C0
330
260
100
AcDbEntity
  8
AW_079
  6
Continuous
 62
     7
100
AcDbLine
 10
162.9762219583
 20
134.4762280952
 30
0.0
 11
162.9762349584
 21
132.7469876791
 31
0.0
  0
LINE
  5
2C1
330
260
100
AcDbEntity
  8
AW_079
  6
Continuous
 62
     7
100
AcDbLine
 10
162.9762349584
 20
132.7469876791
 30
0.0
 11
162.3541274035
 21
132.7469830022
 31
0.0
  0
LINE
  5
2C2
330
260
100
AcDbEntity
  8
AW_079
  6
Continuous
 62
     7
100
AcDbLine
 10
162.3541274035
 20
132.7469830022
 30
0.0
 11
162.3541173483
 21
134.0845134559
 31
0.0
  0
ARC
  5
2C3
330
260
100
AcDbEntity
  8
AW_079
  6
Continuous
 62
     7
100
AcDbCircle
 10
161.9497476762
 20
134.0845104159
 30
0.0
 40
0.4043696720418854
100
AcDbArc
 50
0.0004307363
 51
180.0004307363
  0
ELLIPSE
  5
2C4
330
260
100
AcDbEntity
  8
AW_079
  6
Continuous
 62
     7
100
AcDbEllipse
 10
167.82244023
 20
133.9912384873
 30
0.0
 11
9.297319002085229E-6
 21
-1.236712799639516
 31
0.0
210
0.0
220
0.0
230
1.0
 40
0.9252937502
 41
1.392760800370895
 42
7.513392174957512
  0
LINE
  5
2C5
330
260
100
AcDbEntity
  8
AW_079
  6
Continuous
 62
     7
100
AcDbLine
 10
168.9010336938
 20
133.5781316521
 30
0.0
 11
168.2853725396
 21
133.5781270237
 31
0.0
  0
ELLIPSE
  5
2C6
330
260
100
AcDbEntity
  8
AW_079
  6
Continuous
 62
     7
100
AcDbEllipse
 10
167.82244023
 20
133.9912384873
 30
0.0
 11
-5.088147629431537E-6
 21
0.6768163306742859
 31
0.0
210
0.0
220
0.0
230
1.0
 40
0.8634929875
 41
1.900327656507813
 42
4.055849134121616
  0
LINE
  5
2C7
330
260
100
AcDbEntity
  8
AW_079
  6
Continuous
 62
     7
100
AcDbLine
 10
167.2694612912
 20
133.7722168289
 30
0.0
 11
168.9486767574
 21
133.7722294528
 31
0.0
  0
LINE
  5
2C8
330
260
100
AcDbEntity
  8
AW_079
  6
Continuous
 62
     7
100
AcDbLine
 10
168.2638353268
 20
134.3196786296
 30
0.0
 11
167.3810399275
 21
134.319671495
 31
0.0
  0
ELLIPSE
  5
2C9
330
260
100
AcDbEntity
  8
AW_079
  6
Continuous
 62
     7
100
AcDbEllipse
 10
167.82244023
 20
133.9912384873
 30
0.0
 11
4.620461954023508E-6
 21
-0.6146056119003362
 31
0.0
210
0.0
220
0.0
230
1.0
 40
0.8496756725
 41
2.134577851231076
 42
4.148608414442242
  0
LINE
  5
2CA
330
260
100
AcDbEntity
  8
AJ_221
  6
Continuous
 62
     7
100
AcDbLine
 10
169.7040532542
 20
130.9970326612
 30
0.0
 11
158.7040532542
 21
130.9970327534
 31
0.0
  0
LINE
  5
2CB
330
260
100
AcDbEntity
  8
AJ_221
  6
Continuous
 62
     7
100
AcDbLine
 10
169.7040531989
 20
124.3970326612
 30
0.0
 11
158.7040531989
 21
124.3970327534
 31
0.0
  0
LINE
  5
2CC
330
260
100
AcDbEntity
  8
AJ_221
  6
Continuous
 62
     7
100
AcDbLine
 10
169.7040532542
 20
130.9970326612
 30
0.0
 11
169.7390936221
 21
130.9970326609
 31
0.0
  0
ARC
  5
2CD
330
260
100
AcDbEntity
  8
AJ_221
  6
Continuous
 62
     7
100
AcDbCircle
 10
161.641902753
 20
129.1861538124
 30
0.0
 40
8.297215326481739
100
AcDbArc
 50
0.1391586021
 51
12.6063499485
  0
LINE
  5
2CE
330
260
100
AcDbEntity
  8
AJ_221
  6
Continuous
 62
     7
100
AcDbLine
 10
169.9390936071
 20
129.2063058683
 30
0.0
 11
169.9390935818
 21
126.1877594501
 31
0.0
  0
ARC
  5
2CF
330
260
100
AcDbEntity
  8
AJ_221
  6
Continuous
 62
     7
100
AcDbCircle
 10
161.6419027281
 20
126.2079116451
 30
0.0
 40
8.297215326481428
100
AcDbArc
 50
347.3936490911
 51
359.8608404375
  0
LINE
  5
2D0
330
260
100
AcDbEntity
  8
AJ_221
  6
Continuous
 62
     7
100
AcDbLine
 10
169.7390935668
 20
124.3970326609
 30
0.0
 11
169.7040531989
 21
124.3970326612
 31
0.0
  0
LINE
  5
2D1
330
260
100
AcDbEntity
  8
AJ_221
  6
Continuous
 62
     7
100
AcDbLine
 10
157.9390935818
 20
126.1877595507
 30
0.0
 11
157.9390936071
 21
129.2063059688
 31
0.0
  0
ARC
  5
2D2
330
260
100
AcDbEntity
  8
AJ_221
  6
Continuous
 62
     7
100
AcDbCircle
 10
166.2362844608
 20
129.1861537739
 30
0.0
 40
8.297215326480998
100
AcDbArc
 50
167.3936490911
 51
179.8608404375
  0
LINE
  5
2D3
330
260
100
AcDbEntity
  8
AJ_221
  6
Continuous
 62
     7
100
AcDbLine
 10
158.1390936221
 20
130.9970327581
 30
0.0
 11
158.7040532542
 21
130.9970327534
 31
0.0
  0
LINE
  5
2D4
330
260
100
AcDbEntity
  8
AJ_221
  6
Continuous
 62
     7
100
AcDbLine
 10
158.7040531989
 20
124.3970327534
 30
0.0
 11
158.1390935668
 21
124.3970327581
 31
0.0
  0
ARC
  5
2D5
330
260
100
AcDbEntity
  8
AJ_221
  6
Continuous
 62
     7
100
AcDbCircle
 10
166.2362844358
 20
126.2079116066
 30
0.0
 40
8.297215326481838
100
AcDbArc
 50
180.1391586021
 51
192.6063499485
  0
ARC
  5
2D6
330
260
100
AcDbEntity
  8
AP_447__230
  6
Continuous
 62
     7
100
AcDbCircle
 10
154.6430934714
 20
113.2623788806
 30
0.0
 40
0.4999999999996897
100
AcDbArc
 50
119.4909796886
 51
319.2852090131
  0
ARC
  5
2D7
330
260
100
AcDbEntity
  8
AP_447__230
  6
Continuous
 62
     7
100
AcDbCircle
 10
154.2984929002
 20
113.8716821272
 30
0.0
 40
0.2000000000036122
100
AcDbArc
 50
299.4909796886
 51
359.9999995202
  0
LINE
  5
2D8
330
260
100
AcDbEntity
  8
AP_447__230
  6
Continuous
 62
     7
100
AcDbLine
 10
154.4984929678
 20
121.9470254399
 30
0.0
 11
154.4984929002
 21
113.8716821255
 31
0.0
  0
ARC
  5
2D9
330
260
100
AcDbEntity
  8
AP_447__230
  6
Continuous
 62
     7
100
AcDbCircle
 10
152.6984929678
 20
121.947025455
 30
0.0
 40
1.799999999999999
100
AcDbArc
 50
0.0
 51
54.5606868876
  0
ARC
  5
2DA
330
260
100
AcDbEntity
  8
AP_447__230
  6
Continuous
 62
     7
100
AcDbCircle
 10
154.0724466705
 20
123.8775594757
 30
0.0
 40
0.5695380102607248
100
AcDbArc
 50
107.9929146343
 51
234.5606868876
  0
LINE
  5
2DB
330
260
100
AcDbEntity
  8
AP_447__230
  6
Continuous
 62
     7
100
AcDbLine
 10
153.8965167515
 20
126.8199268243
 30
0.0
 11
153.8965167314
 21
124.4192440718
 31
0.0
  0
LINE
  5
2DC
330
260
100
AcDbEntity
  8
AP_447__230
  6
Continuous
 62
     7
100
AcDbLine
 10
154.2550806065
 20
126.8199268212
 30
0.0
 11
153.8965167515
 21
126.8199268243
 31
0.0
  0
LINE
  5
2DD
330
260
100
AcDbEntity
  8
AP_447__230
  6
Continuous
 62
     7
100
AcDbLine
 10
154.4204247481
 20
126.5648798208
 30
0.0
 11
154.2550806065
 21
126.8199268212
 31
0.0
  0
ARC
  5
2DE
330
260
100
AcDbEntity
  8
AP_447__230
  6
Continuous
 62
     7
100
AcDbCircle
 10
154.5360924003
 20
126.6398658769
 30
0.0
 40
0.137847431530419
100
AcDbArc
 50
212.9548939443
 51
281.7960351406
  0
ARC
  5
2DF
330
260
100
AcDbEntity
  8
AP_447__230
  6
Continuous
 62
     7
100
AcDbCircle
 10
154.4756743242
 20
126.929170906
 30
0.0
 40
0.4333939486490139
100
AcDbArc
 50
281.7960351406
 51
301.7846009598
  0
ARC
  5
2E0
330
260
100
AcDbEntity
  8
AP_447__230
  6
Continuous
 62
     7
100
AcDbCircle
 10
153.6809260338
 20
127.8860202559
 30
0.0
 40
1.67417827315704
100
AcDbArc
 50
307.6664192741
 51
0.3048125102
  0
ARC
  5
2E1
330
260
100
AcDbEntity
  8
AP_447__230
  6
Continuous
 62
     7
100
AcDbCircle
 10
153.293787069
 20
127.7091467476
 30
0.0
 40
2.069648597527392
100
AcDbArc
 50
5.1500338834
 51
46.98632124
  0
ARC
  5
2E2
330
260
100
AcDbEntity
  8
AP_447__230
  6
Continuous
 62
     7
100
AcDbCircle
 10
154.4772447842
 20
128.8632161416
 30
0.0
 40
0.4256985936373839
100
AcDbArc
 50
57.5521893104
 51
78.2035900703
  0
ARC
  5
2E3
330
260
100
AcDbEntity
  8
AP_447__230
  6
Continuous
 62
     7
100
AcDbCircle
 10
154.5362318886
 20
129.1456598938
 30
0.0
 40
0.1371609849226389
100
AcDbArc
 50
78.2035900703
 51
146.4442800437
  0
LINE
  5
2E4
330
260
100
AcDbEntity
  8
AP_447__230
  6
Continuous
 62
     7
100
AcDbLine
 10
154.2550806245
 20
128.9699268212
 30
0.0
 11
154.4219289641
 21
129.2214753094
 31
0.0
  0
LINE
  5
2E5
330
260
100
AcDbEntity
  8
AP_447__230
  6
Continuous
 62
     7
100
AcDbLine
 10
153.8975684611
 20
128.9699268242
 30
0.0
 11
154.2550806245
 21
128.9699268212
 31
0.0
  0
LINE
  5
2E6
330
260
100
AcDbEntity
  8
AP_447__230
  6
Continuous
 62
     7
100
AcDbLine
 10
154.0967325613
 20
130.4627246615
 30
0.0
 11
153.8975684611
 21
128.9699268242
 31
0.0
  0
ARC
  5
2E7
330
260
100
AcDbEntity
  8
AP_447__230
  6
Continuous
 62
     7
100
AcDbCircle
 10
153.8636063307
 20
130.4848460641
 30
0.0
 40
0.2341734310521879
100
AcDbArc
 50
354.57942042
 51
93.5048650376
  0
ARC
  5
2E8
330
260
100
AcDbEntity
  8
AP_447__230
  6
Continuous
 62
     7
100
AcDbCircle
 10
153.8662095389
 20
130.4423432139
 30
0.0
 40
0.2767559271290341
100
AcDbArc
 50
93.5048650376
 51
163.9867859968
  0
ARC
  5
2E9
330
260
100
AcDbEntity
  8
AP_447__230
  6
Continuous
 62
     7
100
AcDbCircle
 10
163.5983632121
 20
127.6492638383
 30
0.0
 40
10.401779755085
100
AcDbArc
 50
163.9867859968
 51
188.1930038057
  0
ARC
  5
2EA
330
260
100
AcDbEntity
  8
AP_447__230
  6
Continuous
 62
     7
100
AcDbCircle
 10
152.9450964967
 20
125.723689153
 30
0.0
 40
0.569538010260723
100
AcDbArc
 50
295.1036805747
 51
51.0996840391
  0
LINE
  5
2EB
330
260
100
AcDbEntity
  8
AP_447__230
  6
Continuous
 62
     7
100
AcDbLine
 10
153.1867272285
 20
113.9776697091
 30
0.0
 11
153.1867273226
 21
125.2079488219
 31
0.0
  0
ARC
  5
2EC
330
260
100
AcDbEntity
  8
AP_447__230
  6
Continuous
 62
     7
100
AcDbCircle
 10
155.6867268794
 20
113.9789374613
 30
0.0
 40
2.499999972401836
100
AcDbArc
 50
180.0290547414
 51
248.1920793071
  0
ARC
  5
2ED
330
260
100
AcDbEntity
  8
AP_447__230
  6
Continuous
 62
     7
100
AcDbCircle
 10
164.0453912655
 20
134.8687136413
 30
0.0
 40
25.00000039846504
100
AcDbArc
 50
248.1920793069
 51
269.7563826105
  0
ARC
  5
2EE
330
260
100
AcDbEntity
  8
AP_447__230
  6
Continuous
 62
     7
100
AcDbCircle
 10
163.8327960437
 20
134.8687136431
 30
0.0
 40
25.00000039846503
100
AcDbArc
 50
270.2436164289
 51
291.8079197324
  0
ARC
  5
2EF
330
260
100
AcDbEntity
  8
AP_447__230
  6
Continuous
 62
     7
100
AcDbCircle
 10
172.1914600795
 20
113.9789373229
 30
0.0
 40
2.499999972401818
100
AcDbArc
 50
291.8079197324
 51
359.9709442979
  0
LINE
  5
2F0
330
260
100
AcDbEntity
  8
AP_447__230
  6
Continuous
 62
     7
100
AcDbLine
 10
174.6914598246
 20
125.2079486416
 30
0.0
 11
174.6914597304
 21
113.9776695288
 31
0.0
  0
ARC
  5
2F1
330
260
100
AcDbEntity
  8
AP_447__230
  6
Continuous
 62
     7
100
AcDbCircle
 10
174.9330906591
 20
125.7236889686
 30
0.0
 40
0.5695380102607279
100
AcDbArc
 50
128.9003150002
 51
244.8963184646
  0
ARC
  5
2F2
330
260
100
AcDbEntity
  8
AP_447__230
  6
Continuous
 62
     7
100
AcDbCircle
 10
164.279823976
 20
127.6492638326
 30
0.0
 40
10.40177975508503
100
AcDbArc
 50
351.8069952336
 51
16.0132130425
  0
ARC
  5
2F3
330
260
100
AcDbEntity
  8
AP_447__230
  6
Continuous
 62
     7
100
AcDbCircle
 10
174.0119776961
 20
130.442343045
 30
0.0
 40
0.276755927129066
100
AcDbArc
 50
16.0132130425
 51
86.4951340017
  0
ARC
  5
2F4
330
260
100
AcDbEntity
  8
AP_447__230
  6
Continuous
 62
     7
100
AcDbCircle
 10
174.0145809049
 20
130.4848458952
 30
0.0
 40
0.2341734310521853
100
AcDbArc
 50
86.4951340017
 51
185.4205786193
  0
LINE
  5
2F5
330
260
100
AcDbEntity
  8
AP_447__230
  6
Continuous
 62
     7
100
AcDbLine
 10
173.9816704407
 20
128.9699266559
 30
0.0
 11
173.781454674
 21
130.4627244965
 31
0.0
  0
LINE
  5
2F6
330
260
100
AcDbEntity
  8
AP_447__230
  6
Continuous
 62
     7
100
AcDbLine
 10
173.6231065858
 20
128.9699266589
 30
0.0
 11
173.9816704407
 21
128.9699266559
 31
0.0
  0
LINE
  5
2F7
330
260
100
AcDbEntity
  8
AP_447__230
  6
Continuous
 62
     7
100
AcDbLine
 10
173.4562582504
 20
129.2214751498
 30
0.0
 11
173.6231065858
 21
128.9699266589
 31
0.0
  0
ARC
  5
2F8
330
260
100
AcDbEntity
  8
AP_447__230
  6
Continuous
 62
     7
100
AcDbCircle
 10
173.3419553246
 20
129.1456597361
 30
0.0
 40
0.1371609849226443
100
AcDbArc
 50
33.5557189956
 51
101.796408969
  0
ARC
  5
2F9
330
260
100
AcDbEntity
  8
AP_447__230
  6
Continuous
 62
     7
100
AcDbCircle
 10
173.4009424243
 20
128.863215983
 30
0.0
 40
0.4256985936373821
100
AcDbArc
 50
101.796408969
 51
122.4478097289
  0
ARC
  5
2FA
330
260
100
AcDbEntity
  8
AP_447__230
  6
Continuous
 62
     7
100
AcDbCircle
 10
174.5844001201
 20
127.7091465691
 30
0.0
 40
2.069648597527391
100
AcDbArc
 50
133.0136777993
 51
174.8499651559
  0
ARC
  5
2FB
330
260
100
AcDbEntity
  8
AP_447__230
  6
Continuous
 62
     7
100
AcDbCircle
 10
174.1972611583
 20
127.8860200839
 30
0.0
 40
1.674178273157056
100
AcDbArc
 50
179.6951865291
 51
232.3335797653
  0
ARC
  5
2FC
330
260
100
AcDbEntity
  8
AP_447__230
  6
Continuous
 62
     7
100
AcDbCircle
 10
173.4025128519
 20
126.9291707473
 30
0.0
 40
0.4333939486490215
100
AcDbArc
 50
238.2153980795
 51
258.2039638987
  0
ARC
  5
2FD
330
260
100
AcDbEntity
  8
AP_447__230
  6
Continuous
 62
     7
100
AcDbCircle
 10
173.3420947709
 20
126.6398657192
 30
0.0
 40
0.1378474315304183
100
AcDbArc
 50
258.2039638987
 51
327.0451050951
  0
LINE
  5
2FE
330
260
100
AcDbEntity
  8
AP_447__230
  6
Continuous
 62
     7
100
AcDbLine
 10
173.6231065677
 20
126.8199266589
 30
0.0
 11
173.4577624219
 21
126.5648796612
 31
0.0
  0
LINE
  5
2FF
330
260
100
AcDbEntity
  8
AP_447__230
  6
Continuous
 62
     7
100
AcDbLine
 10
173.9816704227
 20
126.8199266559
 30
0.0
 11
173.6231065677
 21
126.8199266589
 31
0.0
  0
LINE
  5
300
330
260
100
AcDbEntity
  8
AP_447__230
  6
Continuous
 62
     7
100
AcDbLine
 10
173.9816704026
 20
124.4192439034
 30
0.0
 11
173.9816704227
 21
126.8199266559
 31
0.0
  0
ARC
  5
301
330
260
100
AcDbEntity
  8
AP_447__230
  6
Continuous
 62
     7
100
AcDbCircle
 10
173.8057404544
 20
123.8775593103
 30
0.0
 40
0.5695380102607218
100
AcDbArc
 50
305.4393121517
 51
72.007084405
  0
ARC
  5
302
330
260
100
AcDbEntity
  8
AP_447__230
  6
Continuous
 62
     7
100
AcDbCircle
 10
175.1796941247
 20
121.9470252666
 30
0.0
 40
1.8
100
AcDbArc
 50
125.4393121517
 51
179.9999995192
  0
LINE
  5
303
330
260
100
AcDbEntity
  8
AP_447__230
  6
Continuous
 62
     7
100
AcDbLine
 10
173.3796940569
 20
113.8716819672
 30
0.0
 11
173.3796941247
 21
121.9470252817
 31
0.0
  0
ARC
  5
304
330
260
100
AcDbEntity
  8
AP_447__230
  6
Continuous
 62
     7
100
AcDbCircle
 10
173.5796940569
 20
113.8716819655
 30
0.0
 40
0.200000000003553
100
AcDbArc
 50
179.9999995192
 51
240.5090193507
  0
ARC
  5
305
330
260
100
AcDbEntity
  8
AP_447__230
  6
Continuous
 62
     7
100
AcDbCircle
 10
173.2350934755
 20
113.2623787247
 30
0.0
 40
0.4999999999996906
100
AcDbArc
 50
220.7147900262
 51
60.5090193507
  0
ARC
  5
306
330
260
100
AcDbEntity
  8
AP_447__230
  6
Continuous
 62
     7
100
AcDbCircle
 10
172.7045172883
 20
112.8057728667
 30
0.0
 40
0.1999999999910126
100
AcDbArc
 50
40.7147900262
 51
121.6603536472
  0
ARC
  5
307
330
260
100
AcDbEntity
  8
AP_447__230
  6
Continuous
 62
     7
100
AcDbCircle
 10
163.711314579
 20
127.3895712631
 30
0.0
 40
16.93373487119723
100
AcDbArc
 50
270.7707196112
 51
301.6603536472
  0
ARC
  5
308
330
260
100
AcDbEntity
  8
AP_447__230
  6
Continuous
 62
     7
100
AcDbCircle
 10
164.1668726048
 20
127.3895712592
 30
0.0
 40
16.93373487119719
100
AcDbArc
 50
238.3396453922
 51
269.2292794281
  0
ARC
  5
309
330
260
100
AcDbEntity
  8
AP_447__230
  6
Continuous
 62
     7
100
AcDbCircle
 10
155.173669651
 20
112.8057730137
 30
0.0
 40
0.1999999999909933
100
AcDbArc
 50
58.3396453922
 51
139.2852090131
  0
LINE
  5
30A
330
260
100
AcDbEntity
  8
AP_448_0200
  6
Continuous
 62
     7
100
AcDbLine
 10
155.8976009917
 20
125.5909644707
 30
0.0
 11
155.897600933
 21
118.5925641643
 31
0.0
  0
ARC
  5
30B
330
260
100
AcDbEntity
  8
AP_448_0200
  6
Continuous
 62
     7
100
AcDbCircle
 10
156.4976009915
 20
125.5909644657
 30
0.0
 40
0.5999999997806147
100
AcDbArc
 50
144.049431724
 51
179.9999995198
  0
ARC
  5
30C
330
260
100
AcDbEntity
  8
AP_448_0200
  6
Continuous
 62
     7
100
AcDbCircle
 10
154.7976010058
 20
126.8238472856
 30
0.0
 40
1.499999999999107
100
AcDbArc
 50
324.049431724
 51
359.9999995198
  0
LINE
  5
30D
330
260
100
AcDbEntity
  8
AP_448_0200
  6
Continuous
 62
     7
100
AcDbLine
 10
156.2976010248
 20
129.0970327735
 30
0.0
 11
156.2976010058
 21
126.823847273
 31
0.0
  0
ARC
  5
30E
330
260
100
AcDbEntity
  8
AP_448_0200
  6
Continuous
 62
     7
100
AcDbCircle
 10
154.7976010248
 20
129.0970327861
 30
0.0
 40
1.500000000002819
100
AcDbArc
 50
0.0
 51
89.9999995198
  0
LINE
  5
30F
330
260
100
AcDbEntity
  8
AP_448_0200
  6
Continuous
 62
     7
100
AcDbLine
 10
154.1471748188
 20
130.5970327915
 30
0.0
 11
154.7976010374
 21
130.5970327861
 31
0.0
  0
ARC
  5
310
330
260
100
AcDbEntity
  8
AP_448_0200
  6
Continuous
 62
     7
100
AcDbCircle
 10
154.1471748171
 20
130.3970327915
 30
0.0
 40
0.1999999999999988
100
AcDbArc
 50
89.9999995198
 51
110.9042796709
  0
LINE
  5
311
330
260
100
AcDbEntity
  8
AP_448_0200
  6
Continuous
 62
     7
100
AcDbLine
 10
153.9471748074
 20
129.2357094821
 30
0.0
 11
153.9471748083
 21
129.3417420648
 31
0.0
  0
ARC
  5
312
330
260
100
AcDbEntity
  8
AP_448_0200
  6
Continuous
 62
     7
100
AcDbCircle
 10
154.0971748074
 20
129.2357094808
 30
0.0
 40
0.1500000000004692
100
AcDbArc
 50
179.9999995198
 51
269.9999995198
  0
LINE
  5
313
330
260
100
AcDbEntity
  8
AP_448_0200
  6
Continuous
 62
     7
100
AcDbLine
 10
154.1354317947
 20
129.0857094805
 30
0.0
 11
154.0971748061
 21
129.0857094808
 31
0.0
  0
ARC
  5
314
330
260
100
AcDbEntity
  8
AP_448_0200
  6
Continuous
 62
     7
100
AcDbCircle
 10
154.1354317959
 20
129.2357095553
 30
0.0
 40
0.1500000748122822
100
AcDbArc
 50
269.9999995198
 51
340.17611573
  0
LINE
  5
315
330
260
100
AcDbEntity
  8
AP_448_0200
  6
Continuous
 62
     7
100
AcDbLine
 10
154.4202785473
 20
129.5835598592
 30
0.0
 11
154.2765427885
 21
129.1848400141
 31
0.0
  0
ARC
  5
316
330
260
100
AcDbEntity
  8
AP_448_0200
  6
Continuous
 62
     7
100
AcDbCircle
 10
154.6084264435
 20
129.5157338381
 30
0.0
 40
0.2000000000007135
100
AcDbArc
 50
89.9999995198
 51
160.17611573
  0
LINE
  5
317
330
260
100
AcDbEntity
  8
AP_448_0200
  6
Continuous
 62
     7
100
AcDbLine
 10
154.8710895122
 20
129.7157338359
 30
0.0
 11
154.6084264452
 21
129.7157338381
 31
0.0
  0
ARC
  5
318
330
260
100
AcDbEntity
  8
AP_448_0200
  6
Continuous
 62
     7
100
AcDbCircle
 10
154.8710895105
 20
129.5157338359
 30
0.0
 40
0.2000000000060439
100
AcDbArc
 50
44.9999995196
 51
89.9999995198
  0
LINE
  5
319
330
260
100
AcDbEntity
  8
AP_448_0200
  6
Continuous
 62
     7
100
AcDbLine
 10
155.4819480479
 20
129.1877180031
 30
0.0
 11
155.0125108679
 21
129.6571551909
 31
0.0
  0
ARC
  5
31A
330
260
100
AcDbEntity
  8
AP_448_0200
  6
Continuous
 62
     7
100
AcDbCircle
 10
155.1283946544
 20
128.8341646154
 30
0.0
 40
0.499999999998061
100
AcDbArc
 50
0.0
 51
44.9999995196
  0
LINE
  5
31B
330
260
100
AcDbEntity
  8
AP_448_0200
  6
Continuous
 62
     7
100
AcDbLine
 10
155.6283946402
 20
127.1368608409
 30
0.0
 11
155.6283946544
 21
128.8341646112
 31
0.0
  0
ARC
  5
31C
330
260
100
AcDbEntity
  8
AP_448_0200
  6
Continuous
 62
     7
100
AcDbCircle
 10
155.1283946402
 20
127.136860845
 30
0.0
 40
0.4999999999999983
100
AcDbArc
 50
314.9999995202
 51
359.9999995198
  0
LINE
  5
31D
330
260
100
AcDbEntity
  8
AP_448_0200
  6
Continuous
 62
     7
100
AcDbLine
 10
154.9703432483
 20
126.2717026806
 30
0.0
 11
155.4819480278
 21
126.7833074515
 31
0.0
  0
ARC
  5
31E
330
260
100
AcDbEntity
  8
AP_448_0200
  6
Continuous
 62
     7
100
AcDbCircle
 10
154.8289218933
 20
126.413124038
 30
0.0
 40
0.2000000000012686
100
AcDbArc
 50
269.9999995199
 51
314.9999995201
  0
LINE
  5
31F
330
260
100
AcDbEntity
  8
AP_448_0200
  6
Continuous
 62
     7
100
AcDbLine
 10
154.6084261472
 20
126.2131240399
 30
0.0
 11
154.8289218916
 21
126.213124038
 31
0.0
  0
ARC
  5
320
330
260
100
AcDbEntity
  8
AP_448_0200
  6
Continuous
 62
     7
100
AcDbCircle
 10
154.6084261489
 20
126.4131240358
 30
0.0
 40
0.1999999959098377
100
AcDbArc
 50
199.8238678092
 51
269.9999995198
  0
LINE
  5
321
330
260
100
AcDbEntity
  8
AP_448_0200
  6
Continuous
 62
     7
100
AcDbLine
 10
154.2765426813
 20
126.7440180333
 30
0.0
 11
154.420278237
 21
126.3452980701
 31
0.0
  0
ARC
  5
322
330
260
100
AcDbEntity
  8
AP_448_0200
  6
Continuous
 62
     7
100
AcDbCircle
 10
154.1354317379
 20
126.6931485967
 30
0.0
 40
0.1499999930655582
100
AcDbArc
 50
19.8238530314
 51
57.6921060397
  0
ARC
  5
323
330
260
100
AcDbEntity
  8
AP_448_0200
  6
Continuous
 62
     7
100
AcDbCircle
 10
154.0971747852
 20
126.6931487235
 30
0.0
 40
0.1499998666290412
100
AcDbArc
 50
122.3079069797
 51
180.0000046783
  0
LINE
  5
324
330
260
100
AcDbEntity
  8
AP_448_0200
  6
Continuous
 62
     7
100
AcDbLine
 10
153.9471750047
 20
125.6385609639
 30
0.0
 11
153.9471749186
 21
126.6931487113
 31
0.0
  0
ARC
  5
325
330
260
100
AcDbEntity
  8
AP_448_0200
  6
Continuous
 62
     7
100
AcDbCircle
 10
154.5941359925
 20
125.6385609585
 30
0.0
 40
0.6469609877716125
100
AcDbArc
 50
179.9999995198
 51
233.32440471
  0
LINE
  5
326
330
260
100
AcDbEntity
  8
AP_448_0200
  6
Continuous
 62
     7
100
AcDbLine
 10
154.6953132988
 20
124.7565585134
 30
0.0
 11
154.207716816
 21
125.1196787563
 31
0.0
  0
ARC
  5
327
330
260
100
AcDbEntity
  8
AP_448_0200
  6
Continuous
 62
     7
100
AcDbCircle
 10
154.3966715076
 20
124.3555434506
 30
0.0
 40
0.5000000000000004
100
AcDbArc
 50
0.0
 51
53.32440471
  0
LINE
  5
328
330
260
100
AcDbEntity
  8
AP_448_0200
  6
Continuous
 62
     7
100
AcDbLine
 10
154.8966714596
 20
118.5959715602
 30
0.0
 11
154.8966715076
 21
124.3555434465
 31
0.0
  0
ARC
  5
329
330
260
100
AcDbEntity
  8
AP_448_0200
  6
Continuous
 62
     7
100
AcDbCircle
 10
156.8966513077
 20
118.5869933883
 30
0.0
 40
2.000000000000004
100
AcDbArc
 50
179.7427934585
 51
275.024257625
  0
LINE
  5
32A
330
260
100
AcDbEntity
  8
AP_448_0200
  6
Continuous
 62
     7
100
AcDbLine
 10
170.9815159786
 20
116.5946778533
 30
0.0
 11
157.0718063062
 21
116.5946779699
 31
0.0
  0
ARC
  5
32B
330
260
100
AcDbEntity
  8
AP_448_0200
  6
Continuous
 62
     7
100
AcDbCircle
 10
170.9815159953
 20
118.5946740062
 30
0.0
 40
1.999996152865285
100
AcDbArc
 50
269.9999995198
 51
0.0371679158
  0
LINE
  5
32C
330
260
100
AcDbEntity
  8
AP_448_0200
  6
Continuous
 62
     7
100
AcDbLine
 10
172.9815158914
 20
124.3555432949
 30
0.0
 11
172.9815117274
 21
118.5959714086
 31
0.0
  0
ARC
  5
32D
330
260
100
AcDbEntity
  8
AP_448_0200
  6
Continuous
 62
     7
100
AcDbCircle
 10
173.4815158914
 20
124.3555432907
 30
0.0
 40
0.5000000000000007
100
AcDbArc
 50
126.6756323496
 51
179.9999995198
  0
LINE
  5
32E
330
260
100
AcDbEntity
  8
AP_448_0200
  6
Continuous
 62
     7
100
AcDbLine
 10
173.7604479527
 20
125.2624328702
 30
0.0
 11
173.1828738408
 21
124.7565581603
 31
0.0
  0
ARC
  5
32F
330
260
100
AcDbEntity
  8
AP_448_0200
  6
Continuous
 62
     7
100
AcDbCircle
 10
173.4310122446
 20
125.6385606599
 30
0.0
 40
0.4999999999979506
100
AcDbArc
 50
311.2138572742
 51
359.9999943614
  0
LINE
  5
330
330
260
100
AcDbEntity
  8
AP_448_0200
  6
Continuous
 62
     7
100
AcDbLine
 10
173.9310123484
 20
126.6931484353
 30
0.0
 11
173.9310122446
 21
125.6385606107
 31
0.0
  0
ARC
  5
331
330
260
100
AcDbEntity
  8
AP_448_0200
  6
Continuous
 62
     7
100
AcDbCircle
 10
173.7810123868
 20
126.6931484501
 30
0.0
 40
0.1499999615606831
100
AcDbArc
 50
0.0
 51
57.6921121742
  0
ARC
  5
332
330
260
100
AcDbEntity
  8
AP_448_0200
  6
Continuous
 62
     7
100
AcDbCircle
 10
173.7427554341
 20
126.693148412
 30
0.0
 40
0.1499999999955269
100
AcDbArc
 50
122.3078826215
 51
160.1761386654
  0
LINE
  5
333
330
260
100
AcDbEntity
  8
AP_448_0200
  6
Continuous
 62
     7
100
AcDbLine
 10
173.4579088781
 20
126.345297929
 30
0.0
 11
173.6016444916
 21
126.7440178713
 31
0.0
  0
ARC
  5
334
330
260
100
AcDbEntity
  8
AP_448_0200
  6
Continuous
 62
     7
100
AcDbCircle
 10
173.2697609607
 20
126.4131238794
 30
0.0
 40
0.1999999959117482
100
AcDbArc
 50
269.9999995198
 51
340.1761368385
  0
LINE
  5
335
330
260
100
AcDbEntity
  8
AP_448_0200
  6
Continuous
 62
     7
100
AcDbLine
 10
173.0492652769
 20
126.2131238853
 30
0.0
 11
173.269760959
 21
126.2131238835
 31
0.0
  0
ARC
  5
336
330
260
100
AcDbEntity
  8
AP_448_0200
  6
Continuous
 62
     7
100
AcDbCircle
 10
173.0492652741
 20
126.4131238853
 30
0.0
 40
0.2000000000010736
100
AcDbArc
 50
224.9999995198
 51
270.0000008032
  0
LINE
  5
337
330
260
100
AcDbEntity
  8
AP_448_0200
  6
Continuous
 62
     7
100
AcDbLine
 10
172.3962391458
 20
126.7833073097
 30
0.0
 11
172.9078439167
 21
126.2717025303
 31
0.0
  0
ARC
  5
338
330
260
100
AcDbEntity
  8
AP_448_0200
  6
Continuous
 62
     7
100
AcDbCircle
 10
172.7497925393
 20
127.1368606974
 30
0.0
 40
0.499999999999997
100
AcDbArc
 50
179.9999995198
 51
224.9999995198
  0
LINE
  5
339
330
260
100
AcDbEntity
  8
AP_448_0200
  6
Continuous
 62
     7
100
AcDbLine
 10
172.2497925535
 20
128.8341644719
 30
0.0
 11
172.2497925393
 21
127.1368607016
 31
0.0
  0
ARC
  5
33A
330
260
100
AcDbEntity
  8
AP_448_0200
  6
Continuous
 62
     7
100
AcDbCircle
 10
172.7497925536
 20
128.8341644677
 30
0.0
 40
0.5000000000246597
100
AcDbArc
 50
134.9999995213
 51
179.9999995198
  0
LINE
  5
33B
330
260
100
AcDbEntity
  8
AP_448_0200
  6
Continuous
 62
     7
100
AcDbLine
 10
172.8656763538
 20
129.6571550413
 30
0.0
 11
172.3962391659
 21
129.1877178613
 31
0.0
  0
ARC
  5
33C
330
260
100
AcDbEntity
  8
AP_448_0200
  6
Continuous
 62
     7
100
AcDbCircle
 10
173.0070977088
 20
129.5157336839
 30
0.0
 40
0.2000000000385929
100
AcDbArc
 50
89.9999995198
 51
134.9999995213
  0
LINE
  5
33D
330
260
100
AcDbEntity
  8
AP_448_0200
  6
Continuous
 62
     7
100
AcDbLine
 10
173.2697607775
 20
129.7157336817
 30
0.0
 11
173.0070977105
 21
129.7157336839
 31
0.0
  0
ARC
  5
33E
330
260
100
AcDbEntity
  8
AP_448_0200
  6
Continuous
 62
     7
100
AcDbCircle
 10
173.2697607758
 20
129.5157336817
 30
0.0
 40
0.2000000000007111
100
AcDbArc
 50
19.8238833095
 51
89.9999995198
  0
LINE
  5
33F
330
260
100
AcDbEntity
  8
AP_448_0200
  6
Continuous
 62
     7
100
AcDbLine
 10
173.6016444253
 20
129.1848398521
 30
0.0
 11
173.4579086732
 21
129.5835596997
 31
0.0
  0
ARC
  5
340
330
260
100
AcDbEntity
  8
AP_448_0200
  6
Continuous
 62
     7
100
AcDbCircle
 10
173.7427554187
 20
129.235709391
 30
0.0
 40
0.1500000748122787
100
AcDbArc
 50
199.8238833096
 51
269.9999995198
  0
LINE
  5
341
330
260
100
AcDbEntity
  8
AP_448_0200
  6
Continuous
 62
     7
100
AcDbLine
 10
173.781012406
 20
129.0857093159
 30
0.0
 11
173.7427554174
 21
129.0857093162
 31
0.0
  0
ARC
  5
342
330
260
100
AcDbEntity
  8
AP_448_0200
  6
Continuous
 62
     7
100
AcDbCircle
 10
173.7810124073
 20
129.2357093159
 30
0.0
 40
0.1500000000005317
100
AcDbArc
 50
269.9999995198
 51
359.9999995198
  0
LINE
  5
343
330
260
100
AcDbEntity
  8
AP_448_0200
  6
Continuous
 62
     7
100
AcDbLine
 10
173.9310124082
 20
129.3476301845
 30
0.0
 11
173.9310124073
 21
129.2357093146
 31
0.0
  0
ARC
  5
344
330
260
100
AcDbEntity
  8
AP_448_0200
  6
Continuous
 62
     7
100
AcDbCircle
 10
173.731012417
 20
130.3970326274
 30
0.0
 40
0.1999999999999988
100
AcDbArc
 50
69.0957191557
 51
89.9999995198
  0
LINE
  5
345
330
260
100
AcDbEntity
  8
AP_448_0200
  6
Continuous
 62
     7
100
AcDbLine
 10
173.0805862001
 20
130.5970326328
 30
0.0
 11
173.7310124187
 21
130.5970326274
 31
0.0
  0
ARC
  5
346
330
260
100
AcDbEntity
  8
AP_448_0200
  6
Continuous
 62
     7
100
AcDbCircle
 10
173.0805861875
 20
129.0970326328
 30
0.0
 40
1.500000000002813
100
AcDbArc
 50
89.9999995198
 51
179.9999995198
  0
LINE
  5
347
330
260
100
AcDbEntity
  8
AP_448_0200
  6
Continuous
 62
     7
100
AcDbLine
 10
171.5805861684
 20
126.823847145
 30
0.0
 11
171.5805861875
 21
129.0970326454
 31
0.0
  0
ARC
  5
348
330
260
100
AcDbEntity
  8
AP_448_0200
  6
Continuous
 62
     7
100
AcDbCircle
 10
173.0805861684
 20
126.8238471324
 30
0.0
 40
1.499999999999098
100
AcDbArc
 50
179.9999995198
 51
215.9505673158
  0
ARC
  5
349
330
260
100
AcDbEntity
  8
AP_448_0200
  6
Continuous
 62
     7
100
AcDbCircle
 10
171.3805861619
 20
125.5909643408
 30
0.0
 40
0.6000000000000024
100
AcDbArc
 50
0.0
 51
35.9505673158
  0
LINE
  5
34A
330
260
100
AcDbEntity
  8
AP_448_0200
  6
Continuous
 62
     7
100
AcDbLine
 10
171.9805861033
 20
118.5925640295
 30
0.0
 11
171.9805861619
 21
125.5909643358
 31
0.0
  0
ARC
  5
34B
330
260
100
AcDbEntity
  8
AP_448_0200
  6
Continuous
 62
     7
100
AcDbCircle
 10
170.9805861033
 20
118.5925640379
 30
0.0
 40
0.9999999999977458
100
AcDbArc
 50
269.9999995185
 51
359.99999952
  0
LINE
  5
34C
330
260
100
AcDbEntity
  8
AP_448_0200
  6
Continuous
 62
     7
100
AcDbLine
 10
156.8976009246
 20
117.5925641562
 30
0.0
 11
170.9805860949
 21
117.5925640379
 31
0.0
  0
ARC
  5
34D
330
260
100
AcDbEntity
  8
AP_448_0200
  6
Continuous
 62
     7
100
AcDbCircle
 10
156.897600933
 20
118.5925641562
 30
0.0
 40
0.9999999999977449
100
AcDbArc
 50
179.9999995362
 51
269.9999995186
  0
ARC
  5
34E
330
260
100
AcDbEntity
  8
AP_451__200
  6
Continuous
 62
     7
100
AcDbCircle
 10
152.1390947162
 20
112.3970348084
 30
0.0
 40
0.1999999999999988
100
AcDbArc
 50
179.9999995198
 51
269.9999995198
  0
LINE
  5
34F
330
260
100
AcDbEntity
  8
AP_451__200
  6
Continuous
 62
     7
100
AcDbLine
 10
151.9390948738
 20
131.1970323101
 30
0.0
 11
151.9390947162
 21
112.3970348101
 31
0.0
  0
ARC
  5
350
330
260
100
AcDbEntity
  8
AP_451__200
  6
Continuous
 62
     7
100
AcDbCircle
 10
152.9390948738
 20
131.1970323017
 30
0.0
 40
0.9999999999996332
100
AcDbArc
 50
143.1300745475
 51
179.9999995198
  0
ARC
  5
351
330
260
100
AcDbEntity
  8
AP_451__200
  6
Continuous
 62
     7
100
AcDbCircle
 10
174.9390923738
 20
131.1970321173
 30
0.0
 40
0.9999999999996123
100
AcDbArc
 50
0.0
 51
36.8698698341
  0
LINE
  5
352
330
260
100
AcDbEntity
  8
AP_451__200
  6
Continuous
 62
     7
100
AcDbLine
 10
175.9390922162
 20
112.391661661
 30
0.0
 11
175.9390923738
 21
131.1970321089
 31
0.0
  0
ARC
  5
353
330
260
100
AcDbEntity
  8
AP_451__200
  6
Continuous
 62
     7
100
AcDbCircle
 10
175.7438966637
 20
112.3916616627
 30
0.0
 40
0.1951955524478997
100
AcDbArc
 50
269.5337069184
 51
359.9999995198
  0
ARC
  5
354
330
260
100
AcDbEntity
  8
AP_451__200
  6
Continuous
 62
     7
100
AcDbCircle
 10
175.7488985256
 20
113.006252061
 30
0.0
 40
0.8098063043086596
100
AcDbArc
 50
179.9999995199
 51
269.5337069184
  0
LINE
  5
355
330
260
100
AcDbEntity
  8
AP_451__200
  6
Continuous
 62
     7
100
AcDbLine
 10
174.9390923704
 20
130.7970326172
 30
0.0
 11
174.9390922213
 21
113.0062520677
 31
0.0
  0
ARC
  5
356
330
260
100
AcDbEntity
  8
AP_451__200
  6
Continuous
 62
     7
100
AcDbCircle
 10
174.7390923704
 20
130.7970326189
 30
0.0
 40
0.2000000000001723
100
AcDbArc
 50
0.0
 51
89.9999995197
  0
ARC
  5
357
330
260
100
AcDbEntity
  8
AP_451__200
  6
Continuous
 62
     7
100
AcDbCircle
 10
172.8390936072
 20
129.1970326348
 30
0.0
 40
1.800000000000001
100
AcDbArc
 50
89.9999995197
 51
179.9999995198
  0
LINE
  5
358
330
260
100
AcDbEntity
  8
AP_451__200
  6
Continuous
 62
     7
100
AcDbLine
 10
171.0390935569
 20
123.1970326497
 30
0.0
 11
171.0390936072
 21
129.1970326499
 31
0.0
  0
ARC
  5
359
330
260
100
AcDbEntity
  8
AP_451__200
  6
Continuous
 62
     7
100
AcDbCircle
 10
169.8390935569
 20
123.1970326598
 30
0.0
 40
1.199999999999999
100
AcDbArc
 50
269.9999995101
 51
359.9999995198
  0
LINE
  5
35A
330
260
100
AcDbEntity
  8
AP_451__200
  6
Continuous
 62
     7
100
AcDbLine
 10
168.2390935466
 20
121.9970326734
 30
0.0
 11
169.8390935467
 21
121.9970326598
 31
0.0
  0
ARC
  5
35B
330
260
100
AcDbEntity
  8
AP_451__200
  6
Continuous
 62
     7
100
AcDbCircle
 10
168.2390935483
 20
122.1970326734
 30
0.0
 40
0.1999999999999997
100
AcDbArc
 50
179.9999995198
 51
269.9999995101
  0
LINE
  5
35C
330
260
100
AcDbEntity
  8
AP_451__200
  6
Continuous
 62
     7
100
AcDbLine
 10
168.0390935534
 20
122.7970326751
 30
0.0
 11
168.0390935483
 21
122.1970326751
 31
0.0
  0
ARC
  5
35D
330
260
100
AcDbEntity
  8
AP_451__200
  6
Continuous
 62
     7
100
AcDbCircle
 10
168.2390935534
 20
122.7970326734
 30
0.0
 40
0.2000000000000005
100
AcDbArc
 50
89.9999995198
 51
179.9999995198
  0
LINE
  5
35E
330
260
100
AcDbEntity
  8
AP_451__200
  6
Continuous
 62
     7
100
AcDbLine
 10
169.939093555
 20
122.9970326592
 30
0.0
 11
168.239093555
 21
122.9970326734
 31
0.0
  0
ARC
  5
35F
330
260
100
AcDbEntity
  8
AP_451__200
  6
Continuous
 62
     7
100
AcDbCircle
 10
169.9390935567
 20
123.1970326592
 30
0.0
 40
0.1999999999999988
100
AcDbArc
 50
269.9999995198
 51
359.9999995198
  0
LINE
  5
360
330
260
100
AcDbEntity
  8
AP_451__200
  6
Continuous
 62
     7
100
AcDbLine
 10
170.1390936187
 20
130.5970326575
 30
0.0
 11
170.1390935567
 21
123.1970326575
 31
0.0
  0
ARC
  5
361
330
260
100
AcDbEntity
  8
AP_451__200
  6
Continuous
 62
     7
100
AcDbCircle
 10
169.7390936187
 20
130.5970326609
 30
0.0
 40
0.400000000000001
100
AcDbArc
 50
0.0
 51
75.5224462396
  0
ARC
  5
362
330
260
100
AcDbEntity
  8
AP_451__200
  6
Continuous
 62
     7
100
AcDbCircle
 10
158.1390936187
 20
130.5970327581
 30
0.0
 40
0.4000000000000019
100
AcDbArc
 50
104.4774706115
 51
179.9999995198
  0
LINE
  5
363
330
260
100
AcDbEntity
  8
AP_451__200
  6
Continuous
 62
     7
100
AcDbLine
 10
157.7390935567
 20
123.1970327614
 30
0.0
 11
157.7390936187
 21
130.5970327614
 31
0.0
  0
ARC
  5
364
330
260
100
AcDbEntity
  8
AP_451__200
  6
Continuous
 62
     7
100
AcDbCircle
 10
157.9390935567
 20
123.1970327598
 30
0.0
 40
0.2000000000000023
100
AcDbArc
 50
179.9999995198
 51
269.9999995198
  0
LINE
  5
365
330
260
100
AcDbEntity
  8
AP_451__200
  6
Continuous
 62
     7
100
AcDbLine
 10
159.539093555
 20
122.9970327464
 30
0.0
 11
157.939093555
 21
122.9970327598
 31
0.0
  0
ARC
  5
366
330
260
100
AcDbEntity
  8
AP_451__200
  6
Continuous
 62
     7
100
AcDbCircle
 10
159.5390935534
 20
122.7970327464
 30
0.0
 40
0.1999999999999997
100
AcDbArc
 50
0.0
 51
89.9999995198
  0
LINE
  5
367
330
260
100
AcDbEntity
  8
AP_451__200
  6
Continuous
 62
     7
100
AcDbLine
 10
159.7390935483
 20
122.1970327447
 30
0.0
 11
159.7390935534
 21
122.7970327447
 31
0.0
  0
ARC
  5
368
330
260
100
AcDbEntity
  8
AP_451__200
  6
Continuous
 62
     7
100
AcDbCircle
 10
159.5390935483
 20
122.1970327464
 30
0.0
 40
0.2000000000000014
100
AcDbArc
 50
269.9999995198
 51
359.9999995198
  0
LINE
  5
369
330
260
100
AcDbEntity
  8
AP_451__200
  6
Continuous
 62
     7
100
AcDbLine
 10
158.0390935467
 20
121.9970327589
 30
0.0
 11
159.5390935467
 21
121.9970327464
 31
0.0
  0
ARC
  5
36A
330
260
100
AcDbEntity
  8
AP_451__200
  6
Continuous
 62
     7
100
AcDbCircle
 10
158.0390935567
 20
123.1970327589
 30
0.0
 40
1.2
100
AcDbArc
 50
179.9999995198
 51
269.9999995198
  0
LINE
  5
36B
330
260
100
AcDbEntity
  8
AP_451__200
  6
Continuous
 62
     7
100
AcDbLine
 10
156.839093607
 20
129.197032769
 30
0.0
 11
156.8390935567
 21
123.197032769
 31
0.0
  0
ARC
  5
36C
330
260
100
AcDbEntity
  8
AP_451__200
  6
Continuous
 62
     7
100
AcDbCircle
 10
155.039093607
 20
129.1970327841
 30
0.0
 40
1.8
100
AcDbArc
 50
0.0
 51
89.9999995198
  0
ARC
  5
36D
330
260
100
AcDbEntity
  8
AP_451__200
  6
Continuous
 62
     7
100
AcDbCircle
 10
153.1390948704
 20
130.7970328
 30
0.0
 40
0.1999999999999988
100
AcDbArc
 50
89.9999995198
 51
179.9999995198
  0
LINE
  5
36E
330
260
100
AcDbEntity
  8
AP_451__200
  6
Continuous
 62
     7
100
AcDbLine
 10
152.9390947212
 20
112.9970348017
 30
0.0
 11
152.9390948704
 21
130.7970328017
 31
0.0
  0
ARC
  5
36F
330
260
100
AcDbEntity
  8
AP_451__200
  6
Continuous
 62
     7
100
AcDbCircle
 10
152.1390947212
 20
112.9970348084
 30
0.0
 40
0.8000000000000006
100
AcDbArc
 50
269.9999995198
 51
359.9999995198
  0
ENDBLK
  5
371
330
260
100
AcDbEntity
  8
0
100
AcDbBlockEnd
  0
BLOCK
  5
37A
330
373
100
AcDbEntity
  8
0
100
AcDbBlockBegin
  2
DMBLK15
 70
     0
 10
0.0
 20
0.0
 30
0.0
  3
DMBLK15
  1
DMBLK15
  0
LWPOLYLINE
  5
374
330
373
100
AcDbEntity
  8
Standard
  6
Continuous
 62
     7
100
AcDbPolyline
 90
        3
 70
     0
 43
0.0
 10
40.2828495635
 20
233.2883678247
 10
36.5328496474
 20
233.9133678108
 10
40.2828495635
 20
234.5383677968
  0
LWPOLYLINE
  5
375
330
373
100
AcDbEntity
  8
Standard
  6
Continuous
 62
     7
100
AcDbPolyline
 90
        3
 70
     0
 43
0.0
 10
56.7828480771
 20
233.2883678247
 10
60.5328479933
 20
233.9133678108
 10
56.7828480771
 20
234.5383677968
  0
LINE
  5
376
330
373
100
AcDbEntity
  8
Standard
  6
Continuous
 62
     7
100
AcDbLine
 10
36.5328496474
 20
228.6993824748
 30
0.0
 11
36.5328496474
 21
235.1633677828
 31
0.0
  0
LINE
  5
377
330
373
100
AcDbEntity
  8
Standard
  6
Continuous
 62
     7
100
AcDbLine
 10
60.5328471474
 20
228.6993822736
 30
0.0
 11
60.5328471474
 21
235.1633677828
 31
0.0
  0
LINE
  5
378
330
373
100
AcDbEntity
  8
Standard
  6
Continuous
 62
     7
100
AcDbLine
 10
36.5328496474
 20
233.9133678108
 30
0.0
 11
60.5328479933
 21
233.9133678108
 31
0.0
  0
TEXT
  5
379
330
373
100
AcDbEntity
  8
Standard
  6
Continuous
 62
     7
100
AcDbText
 10
46.5763270812
 20
234.5383678108
 30
0.0
 40
2.5
  1
24
  7
SEACAD_Arial
 11
46.5763270812
 21
237.0383678108
 31
0.0
100
AcDbText
 73
     3
  0
ENDBLK
  5
37B
330
373
100
AcDbEntity
  8
0
100
AcDbBlockEnd
  0
BLOCK
  5
384
330
37D
100
AcDbEntity
  8
0
100
AcDbBlockBegin
  2
DMBLK16
 70
     0
 10
0.0
 20
0.0
 30
0.0
  3
DMBLK16
  1
DMBLK16
  0
LWPOLYLINE
  5
37E
330
37D
100
AcDbEntity
  8
Standard
  6
Continuous
 62
     7
100
AcDbPolyline
 90
        3
 70
     0
 43
0.0
 10
65.2951209507
 20
225.1993823593
 10
65.9201209367
 20
228.9493822755
 10
66.5451209228
 20
225.1993823593
  0
LWPOLYLINE
  5
37F
330
37D
100
AcDbEntity
  8
Standard
  6
Continuous
 62
     7
100
AcDbPolyline
 90
        3
 70
     0
 43
0.0
 10
65.2951209507
 20
212.6988219825
 10
65.9201209367
 20
208.9488220663
 10
66.5451209228
 20
212.6988219825
  0
LINE
  5
380
330
37D
100
AcDbEntity
  8
Standard
  6
Continuous
 62
     7
100
AcDbLine
 10
60.2828471623
 20
228.9493822755
 30
0.0
 11
67.1701209088
 21
228.9493822755
 31
0.0
  0
LINE
  5
381
330
37D
100
AcDbEntity
  8
Standard
  6
Continuous
 62
     7
100
AcDbLine
 10
61.0860628917
 20
208.9488227325
 30
0.0
 11
67.1701209088
 21
208.9488227325
 31
0.0
  0
LINE
  5
382
330
37D
100
AcDbEntity
  8
Standard
  6
Continuous
 62
     7
100
AcDbLine
 10
65.9201209367
 20
228.9493822755
 30
0.0
 11
65.9201209367
 21
208.9488220663
 31
0.0
  0
TEXT
  5
383
330
37D
100
AcDbEntity
  8
Standard
  6
Continuous
 62
     7
100
AcDbText
 10
65.2951209367
 20
216.9925804318
 30
0.0
 40
2.5
  1
20
 50
90.0
  7
SEACAD_Arial
 11
62.7951209367
 21
216.9925804318
 31
0.0
100
AcDbText
 73
     3
  0
ENDBLK
  5
385
330
37D
100
AcDbEntity
  8
0
100
AcDbBlockEnd
  0
BLOCK
  5
431
330
386
100
AcDbEntity
  8
0
100
AcDbBlockBegin
  2
SE3
 70
     0
 10
0.0
 20
0.0
 30
0.0
  3
SE3
  1
SE3
  0
LINE
  5
388
330
386
100
AcDbEntity
  8
AJ_221
  6
Continuous
 62
     7
100
AcDbLine
 10
169.1795345844
 20
227.3493827774
 30
0.0
 11
158.1795345844
 21
227.3493828696
 31
0.0
  0
LINE
  5
389
330
386
100
AcDbEntity
  8
AJ_221
  6
Continuous
 62
     7
100
AcDbLine
 10
169.1795345291
 20
220.7493827774
 30
0.0
 11
158.1795345291
 21
220.7493828696
 31
0.0
  0
LINE
  5
38A
330
386
100
AcDbEntity
  8
AJ_221
  6
Continuous
 62
     7
100
AcDbLine
 10
169.1795345844
 20
227.3493827774
 30
0.0
 11
169.2145749523
 21
227.3493827772
 31
0.0
  0
ARC
  5
38B
330
386
100
AcDbEntity
  8
AJ_221
  6
Continuous
 62
     7
100
AcDbCircle
 10
161.1173840832
 20
225.5385039287
 30
0.0
 40
8.297215326481739
100
AcDbArc
 50
0.1391586021
 51
12.6063499485
  0
LINE
  5
38C
330
386
100
AcDbEntity
  8
AJ_221
  6
Continuous
 62
     7
100
AcDbLine
 10
169.4145749373
 20
225.5586559845
 30
0.0
 11
169.414574912
 21
222.5401095664
 31
0.0
  0
ARC
  5
38D
330
386
100
AcDbEntity
  8
AJ_221
  6
Continuous
 62
     7
100
AcDbCircle
 10
161.1173840583
 20
222.5602617614
 30
0.0
 40
8.297215326481428
100
AcDbArc
 50
347.3936490911
 51
359.8608404375
  0
LINE
  5
38E
330
386
100
AcDbEntity
  8
AJ_221
  6
Continuous
 62
     7
100
AcDbLine
 10
169.214574897
 20
220.7493827772
 30
0.0
 11
169.1795345291
 21
220.7493827774
 31
0.0
  0
LINE
  5
38F
330
386
100
AcDbEntity
  8
AJ_221
  6
Continuous
 62
     7
100
AcDbLine
 10
157.414574912
 20
222.540109667
 30
0.0
 11
157.4145749373
 21
225.5586560851
 31
0.0
  0
ARC
  5
390
330
386
100
AcDbEntity
  8
AJ_221
  6
Continuous
 62
     7
100
AcDbCircle
 10
165.711765791
 20
225.5385038901
 30
0.0
 40
8.297215326480998
100
AcDbArc
 50
167.3936490911
 51
179.8608404375
  0
LINE
  5
391
330
386
100
AcDbEntity
  8
AJ_221
  6
Continuous
 62
     7
100
AcDbLine
 10
157.6145749523
 20
227.3493828744
 30
0.0
 11
158.1795345844
 21
227.3493828696
 31
0.0
  0
LINE
  5
392
330
386
100
AcDbEntity
  8
AJ_221
  6
Continuous
 62
     7
100
AcDbLine
 10
158.1795345291
 20
220.7493828696
 30
0.0
 11
157.614574897
 21
220.7493828744
 31
0.0
  0
ARC
  5
393
330
386
100
AcDbEntity
  8
AJ_221
  6
Continuous
 62
     7
100
AcDbCircle
 10
165.7117657661
 20
222.5602617229
 30
0.0
 40
8.297215326481838
100
AcDbArc
 50
180.1391586021
 51
192.6063499485
  0
ARC
  5
394
330
386
100
AcDbEntity
  8
AP_447__230
  6
Continuous
 62
     7
100
AcDbCircle
 10
154.1185748016
 20
209.6147289968
 30
0.0
 40
0.4999999999996897
100
AcDbArc
 50
119.4909796886
 51
319.2852090131
  0
ARC
  5
395
330
386
100
AcDbEntity
  8
AP_447__230
  6
Continuous
 62
     7
100
AcDbCircle
 10
153.7739742304
 20
210.2240322434
 30
0.0
 40
0.2000000000036122
100
AcDbArc
 50
299.4909796886
 51
359.9999995202
  0
LINE
  5
396
330
386
100
AcDbEntity
  8
AP_447__230
  6
Continuous
 62
     7
100
AcDbLine
 10
153.973974298
 20
218.2993755562
 30
0.0
 11
153.9739742304
 21
210.2240322418
 31
0.0
  0
ARC
  5
397
330
386
100
AcDbEntity
  8
AP_447__230
  6
Continuous
 62
     7
100
AcDbCircle
 10
152.173974298
 20
218.2993755713
 30
0.0
 40
1.799999999999999
100
AcDbArc
 50
0.0
 51
54.5606868876
  0
ARC
  5
398
330
386
100
AcDbEntity
  8
AP_447__230
  6
Continuous
 62
     7
100
AcDbCircle
 10
153.5479280007
 20
220.229909592
 30
0.0
 40
0.5695380102607248
100
AcDbArc
 50
107.9929146343
 51
234.5606868876
  0
LINE
  5
399
330
386
100
AcDbEntity
  8
AP_447__230
  6
Continuous
 62
     7
100
AcDbLine
 10
153.3719980817
 20
223.1722769405
 30
0.0
 11
153.3719980616
 21
220.7715941881
 31
0.0
  0
LINE
  5
39A
330
386
100
AcDbEntity
  8
AP_447__230
  6
Continuous
 62
     7
100
AcDbLine
 10
153.7305619367
 20
223.1722769375
 30
0.0
 11
153.3719980817
 21
223.1722769405
 31
0.0
  0
LINE
  5
39B
330
386
100
AcDbEntity
  8
AP_447__230
  6
Continuous
 62
     7
100
AcDbLine
 10
153.8959060783
 20
222.9172299371
 30
0.0
 11
153.7305619367
 21
223.1722769375
 31
0.0
  0
ARC
  5
39C
330
386
100
AcDbEntity
  8
AP_447__230
  6
Continuous
 62
     7
100
AcDbCircle
 10
154.0115737305
 20
222.9922159932
 30
0.0
 40
0.137847431530419
100
AcDbArc
 50
212.9548939443
 51
281.7960351406
  0
ARC
  5
39D
330
386
100
AcDbEntity
  8
AP_447__230
  6
Continuous
 62
     7
100
AcDbCircle
 10
153.9511556544
 20
223.2815210223
 30
0.0
 40
0.4333939486490139
100
AcDbArc
 50
281.7960351406
 51
301.7846009599
  0
ARC
  5
39E
330
386
100
AcDbEntity
  8
AP_447__230
  6
Continuous
 62
     7
100
AcDbCircle
 10
153.156407364
 20
224.2383703722
 30
0.0
 40
1.67417827315704
100
AcDbArc
 50
307.6664192741
 51
0.3048125102
  0
ARC
  5
39F
330
386
100
AcDbEntity
  8
AP_447__230
  6
Continuous
 62
     7
100
AcDbCircle
 10
152.7692683992
 20
224.0614968639
 30
0.0
 40
2.069648597527392
100
AcDbArc
 50
5.1500338834
 51
46.98632124
  0
ARC
  5
3A0
330
386
100
AcDbEntity
  8
AP_447__230
  6
Continuous
 62
     7
100
AcDbCircle
 10
153.9527261144
 20
225.2155662579
 30
0.0
 40
0.4256985936373839
100
AcDbArc
 50
57.5521893104
 51
78.2035900703
  0
ARC
  5
3A1
330
386
100
AcDbEntity
  8
AP_447__230
  6
Continuous
 62
     7
100
AcDbCircle
 10
154.0117132188
 20
225.4980100101
 30
0.0
 40
0.1371609849226389
100
AcDbArc
 50
78.2035900703
 51
146.4442800437
  0
LINE
  5
3A2
330
386
100
AcDbEntity
  8
AP_447__230
  6
Continuous
 62
     7
100
AcDbLine
 10
153.7305619547
 20
225.3222769375
 30
0.0
 11
153.8974102943
 21
225.5738254257
 31
0.0
  0
LINE
  5
3A3
330
386
100
AcDbEntity
  8
AP_447__230
  6
Continuous
 62
     7
100
AcDbLine
 10
153.3730497913
 20
225.3222769405
 30
0.0
 11
153.7305619547
 21
225.3222769375
 31
0.0
  0
LINE
  5
3A4
330
386
100
AcDbEntity
  8
AP_447__230
  6
Continuous
 62
     7
100
AcDbLine
 10
153.5722138915
 20
226.8150747778
 30
0.0
 11
153.3730497913
 21
225.3222769405
 31
0.0
  0
ARC
  5
3A5
330
386
100
AcDbEntity
  8
AP_447__230
  6
Continuous
 62
     7
100
AcDbCircle
 10
153.339087661
 20
226.8371961804
 30
0.0
 40
0.2341734310521879
100
AcDbArc
 50
354.57942042
 51
93.5048650376
  0
ARC
  5
3A6
330
386
100
AcDbEntity
  8
AP_447__230
  6
Continuous
 62
     7
100
AcDbCircle
 10
153.3416908691
 20
226.7946933302
 30
0.0
 40
0.2767559271290341
100
AcDbArc
 50
93.5048650376
 51
163.9867859968
  0
ARC
  5
3A7
330
386
100
AcDbEntity
  8
AP_447__230
  6
Continuous
 62
     7
100
AcDbCircle
 10
163.0738445423
 20
224.0016139546
 30
0.0
 40
10.401779755085
100
AcDbArc
 50
163.9867859968
 51
188.1930038057
  0
ARC
  5
3A8
330
386
100
AcDbEntity
  8
AP_447__230
  6
Continuous
 62
     7
100
AcDbCircle
 10
152.420577827
 20
222.0760392692
 30
0.0
 40
0.569538010260723
100
AcDbArc
 50
295.1036805747
 51
51.0996840391
  0
LINE
  5
3A9
330
386
100
AcDbEntity
  8
AP_447__230
  6
Continuous
 62
     7
100
AcDbLine
 10
152.6622085587
 20
210.3300198253
 30
0.0
 11
152.6622086528
 21
221.5602989382
 31
0.0
  0
ARC
  5
3AA
330
386
100
AcDbEntity
  8
AP_447__230
  6
Continuous
 62
     7
100
AcDbCircle
 10
155.1622082096
 20
210.3312875775
 30
0.0
 40
2.499999972401836
100
AcDbArc
 50
180.0290547414
 51
248.1920793071
  0
ARC
  5
3AB
330
386
100
AcDbEntity
  8
AP_447__230
  6
Continuous
 62
     7
100
AcDbCircle
 10
163.5208725957
 20
231.2210637576
 30
0.0
 40
25.00000039846504
100
AcDbArc
 50
248.1920793069
 51
269.7563826105
  0
ARC
  5
3AC
330
386
100
AcDbEntity
  8
AP_447__230
  6
Continuous
 62
     7
100
AcDbCircle
 10
163.3082773739
 20
231.2210637594
 30
0.0
 40
25.00000039846503
100
AcDbArc
 50
270.2436164289
 51
291.8079197324
  0
ARC
  5
3AD
330
386
100
AcDbEntity
  8
AP_447__230
  6
Continuous
 62
     7
100
AcDbCircle
 10
171.6669414097
 20
210.3312874392
 30
0.0
 40
2.499999972401818
100
AcDbArc
 50
291.8079197324
 51
359.9709442979
  0
LINE
  5
3AE
330
386
100
AcDbEntity
  8
AP_447__230
  6
Continuous
 62
     7
100
AcDbLine
 10
174.1669411548
 20
221.5602987579
 30
0.0
 11
174.1669410606
 21
210.3300196451
 31
0.0
  0
ARC
  5
3AF
330
386
100
AcDbEntity
  8
AP_447__230
  6
Continuous
 62
     7
100
AcDbCircle
 10
174.4085719893
 20
222.0760390849
 30
0.0
 40
0.5695380102607279
100
AcDbArc
 50
128.9003150002
 51
244.8963184646
  0
ARC
  5
3B0
330
386
100
AcDbEntity
  8
AP_447__230
  6
Continuous
 62
     7
100
AcDbCircle
 10
163.7553053063
 20
224.0016139489
 30
0.0
 40
10.40177975508503
100
AcDbArc
 50
351.8069952336
 51
16.0132130425
  0
ARC
  5
3B1
330
386
100
AcDbEntity
  8
AP_447__230
  6
Continuous
 62
     7
100
AcDbCircle
 10
173.4874590263
 20
226.7946931613
 30
0.0
 40
0.276755927129066
100
AcDbArc
 50
16.0132130425
 51
86.4951340017
  0
ARC
  5
3B2
330
386
100
AcDbEntity
  8
AP_447__230
  6
Continuous
 62
     7
100
AcDbCircle
 10
173.4900622352
 20
226.8371960115
 30
0.0
 40
0.2341734310521853
100
AcDbArc
 50
86.4951340017
 51
185.4205786193
  0
LINE
  5
3B3
330
386
100
AcDbEntity
  8
AP_447__230
  6
Continuous
 62
     7
100
AcDbLine
 10
173.457151771
 20
225.3222767721
 30
0.0
 11
173.2569360043
 21
226.8150746127
 31
0.0
  0
LINE
  5
3B4
330
386
100
AcDbEntity
  8
AP_447__230
  6
Continuous
 62
     7
100
AcDbLine
 10
173.098587916
 20
225.3222767752
 30
0.0
 11
173.457151771
 21
225.3222767721
 31
0.0
  0
LINE
  5
3B5
330
386
100
AcDbEntity
  8
AP_447__230
  6
Continuous
 62
     7
100
AcDbLine
 10
172.9317395806
 20
225.5738252661
 30
0.0
 11
173.098587916
 21
225.3222767752
 31
0.0
  0
ARC
  5
3B6
330
386
100
AcDbEntity
  8
AP_447__230
  6
Continuous
 62
     7
100
AcDbCircle
 10
172.8174366549
 20
225.4980098524
 30
0.0
 40
0.1371609849226443
100
AcDbArc
 50
33.5557189956
 51
101.796408969
  0
ARC
  5
3B7
330
386
100
AcDbEntity
  8
AP_447__230
  6
Continuous
 62
     7
100
AcDbCircle
 10
172.8764237545
 20
225.2155660992
 30
0.0
 40
0.4256985936373821
100
AcDbArc
 50
101.796408969
 51
122.4478097289
  0
ARC
  5
3B8
330
386
100
AcDbEntity
  8
AP_447__230
  6
Continuous
 62
     7
100
AcDbCircle
 10
174.0598814504
 20
224.0614966854
 30
0.0
 40
2.069648597527391
100
AcDbArc
 50
133.0136777993
 51
174.8499651559
  0
ARC
  5
3B9
330
386
100
AcDbEntity
  8
AP_447__230
  6
Continuous
 62
     7
100
AcDbCircle
 10
173.6727424885
 20
224.2383702002
 30
0.0
 40
1.674178273157056
100
AcDbArc
 50
179.6951865291
 51
232.3335797653
  0
ARC
  5
3BA
330
386
100
AcDbEntity
  8
AP_447__230
  6
Continuous
 62
     7
100
AcDbCircle
 10
172.8779941821
 20
223.2815208636
 30
0.0
 40
0.4333939486490215
100
AcDbArc
 50
238.2153980795
 51
258.2039638987
  0
ARC
  5
3BB
330
386
100
AcDbEntity
  8
AP_447__230
  6
Continuous
 62
     7
100
AcDbCircle
 10
172.8175761011
 20
222.9922158355
 30
0.0
 40
0.1378474315304183
100
AcDbArc
 50
258.2039638987
 51
327.0451050951
  0
LINE
  5
3BC
330
386
100
AcDbEntity
  8
AP_447__230
  6
Continuous
 62
     7
100
AcDbLine
 10
173.098587898
 20
223.1722767751
 30
0.0
 11
172.9332437521
 21
222.9172297775
 31
0.0
  0
LINE
  5
3BD
330
386
100
AcDbEntity
  8
AP_447__230
  6
Continuous
 62
     7
100
AcDbLine
 10
173.4571517529
 20
223.1722767721
 30
0.0
 11
173.098587898
 21
223.1722767751
 31
0.0
  0
LINE
  5
3BE
330
386
100
AcDbEntity
  8
AP_447__230
  6
Continuous
 62
     7
100
AcDbLine
 10
173.4571517328
 20
220.7715940197
 30
0.0
 11
173.4571517529
 21
223.1722767721
 31
0.0
  0
ARC
  5
3BF
330
386
100
AcDbEntity
  8
AP_447__230
  6
Continuous
 62
     7
100
AcDbCircle
 10
173.2812217846
 20
220.2299094265
 30
0.0
 40
0.5695380102607218
100
AcDbArc
 50
305.4393121517
 51
72.007084405
  0
ARC
  5
3C0
330
386
100
AcDbEntity
  8
AP_447__230
  6
Continuous
 62
     7
100
AcDbCircle
 10
174.6551754549
 20
218.2993753828
 30
0.0
 40
1.8
100
AcDbArc
 50
125.4393121517
 51
179.9999995192
  0
LINE
  5
3C1
330
386
100
AcDbEntity
  8
AP_447__230
  6
Continuous
 62
     7
100
AcDbLine
 10
172.8551753872
 20
210.2240320835
 30
0.0
 11
172.8551754549
 21
218.2993753979
 31
0.0
  0
ARC
  5
3C2
330
386
100
AcDbEntity
  8
AP_447__230
  6
Continuous
 62
     7
100
AcDbCircle
 10
173.0551753872
 20
210.2240320818
 30
0.0
 40
0.200000000003553
100
AcDbArc
 50
179.9999995192
 51
240.5090193507
  0
ARC
  5
3C3
330
386
100
AcDbEntity
  8
AP_447__230
  6
Continuous
 62
     7
100
AcDbCircle
 10
172.7105748057
 20
209.614728841
 30
0.0
 40
0.4999999999996906
100
AcDbArc
 50
220.7147900262
 51
60.5090193507
  0
ARC
  5
3C4
330
386
100
AcDbEntity
  8
AP_447__230
  6
Continuous
 62
     7
100
AcDbCircle
 10
172.1799986185
 20
209.158122983
 30
0.0
 40
0.1999999999910126
100
AcDbArc
 50
40.7147900262
 51
121.6603536472
  0
ARC
  5
3C5
330
386
100
AcDbEntity
  8
AP_447__230
  6
Continuous
 62
     7
100
AcDbCircle
 10
163.1867959092
 20
223.7419213793
 30
0.0
 40
16.93373487119723
100
AcDbArc
 50
270.7707196112
 51
301.6603536472
  0
ARC
  5
3C6
330
386
100
AcDbEntity
  8
AP_447__230
  6
Continuous
 62
     7
100
AcDbCircle
 10
163.642353935
 20
223.7419213755
 30
0.0
 40
16.93373487119719
100
AcDbArc
 50
238.3396453922
 51
269.2292794281
  0
ARC
  5
3C7
330
386
100
AcDbEntity
  8
AP_447__230
  6
Continuous
 62
     7
100
AcDbCircle
 10
154.6491509812
 20
209.15812313
 30
0.0
 40
0.1999999999909933
100
AcDbArc
 50
58.3396453922
 51
139.2852090131
  0
LINE
  5
3C8
330
386
100
AcDbEntity
  8
AP_448_0200
  6
Continuous
 62
     7
100
AcDbLine
 10
155.3730823219
 20
221.943314587
 30
0.0
 11
155.3730822632
 21
214.9449142806
 31
0.0
  0
ARC
  5
3C9
330
386
100
AcDbEntity
  8
AP_448_0200
  6
Continuous
 62
     7
100
AcDbCircle
 10
155.9730823217
 20
221.9433145819
 30
0.0
 40
0.5999999997806147
100
AcDbArc
 50
144.049431724
 51
179.9999995198
  0
ARC
  5
3CA
330
386
100
AcDbEntity
  8
AP_448_0200
  6
Continuous
 62
     7
100
AcDbCircle
 10
154.273082336
 20
223.1761974019
 30
0.0
 40
1.499999999999107
100
AcDbArc
 50
324.049431724
 51
359.9999995198
  0
LINE
  5
3CB
330
386
100
AcDbEntity
  8
AP_448_0200
  6
Continuous
 62
     7
100
AcDbLine
 10
155.7730823551
 20
225.4493828898
 30
0.0
 11
155.773082336
 21
223.1761973893
 31
0.0
  0
ARC
  5
3CC
330
386
100
AcDbEntity
  8
AP_448_0200
  6
Continuous
 62
     7
100
AcDbCircle
 10
154.2730823551
 20
225.4493829023
 30
0.0
 40
1.500000000002819
100
AcDbArc
 50
0.0
 51
89.9999995198
  0
LINE
  5
3CD
330
386
100
AcDbEntity
  8
AP_448_0200
  6
Continuous
 62
     7
100
AcDbLine
 10
153.622656149
 20
226.9493829078
 30
0.0
 11
154.2730823676
 21
226.9493829023
 31
0.0
  0
ARC
  5
3CE
330
386
100
AcDbEntity
  8
AP_448_0200
  6
Continuous
 62
     7
100
AcDbCircle
 10
153.6226561473
 20
226.7493829078
 30
0.0
 40
0.1999999999999988
100
AcDbArc
 50
89.9999995198
 51
110.9042796709
  0
LINE
  5
3CF
330
386
100
AcDbEntity
  8
AP_448_0200
  6
Continuous
 62
     7
100
AcDbLine
 10
153.4226561376
 20
225.5880595984
 30
0.0
 11
153.4226561385
 21
225.6940921811
 31
0.0
  0
ARC
  5
3D0
330
386
100
AcDbEntity
  8
AP_448_0200
  6
Continuous
 62
     7
100
AcDbCircle
 10
153.5726561376
 20
225.5880595971
 30
0.0
 40
0.1500000000004692
100
AcDbArc
 50
179.9999995198
 51
269.9999995198
  0
LINE
  5
3D1
330
386
100
AcDbEntity
  8
AP_448_0200
  6
Continuous
 62
     7
100
AcDbLine
 10
153.6109131249
 20
225.4380595968
 30
0.0
 11
153.5726561363
 21
225.4380595971
 31
0.0
  0
ARC
  5
3D2
330
386
100
AcDbEntity
  8
AP_448_0200
  6
Continuous
 62
     7
100
AcDbCircle
 10
153.6109131262
 20
225.5880596716
 30
0.0
 40
0.1500000748122822
100
AcDbArc
 50
269.9999995198
 51
340.17611573
  0
LINE
  5
3D3
330
386
100
AcDbEntity
  8
AP_448_0200
  6
Continuous
 62
     7
100
AcDbLine
 10
153.8957598775
 20
225.9359099755
 30
0.0
 11
153.7520241187
 21
225.5371901304
 31
0.0
  0
ARC
  5
3D4
330
386
100
AcDbEntity
  8
AP_448_0200
  6
Continuous
 62
     7
100
AcDbCircle
 10
154.0839077738
 20
225.8680839544
 30
0.0
 40
0.2000000000007135
100
AcDbArc
 50
89.9999995198
 51
160.17611573
  0
LINE
  5
3D5
330
386
100
AcDbEntity
  8
AP_448_0200
  6
Continuous
 62
     7
100
AcDbLine
 10
154.3465708424
 20
226.0680839522
 30
0.0
 11
154.0839077754
 21
226.0680839544
 31
0.0
  0
ARC
  5
3D6
330
386
100
AcDbEntity
  8
AP_448_0200
  6
Continuous
 62
     7
100
AcDbCircle
 10
154.3465708407
 20
225.8680839522
 30
0.0
 40
0.2000000000060439
100
AcDbArc
 50
44.9999995196
 51
89.9999995198
  0
LINE
  5
3D7
330
386
100
AcDbEntity
  8
AP_448_0200
  6
Continuous
 62
     7
100
AcDbLine
 10
154.9574293782
 20
225.5400681193
 30
0.0
 11
154.4879921981
 21
226.0095053072
 31
0.0
  0
ARC
  5
3D8
330
386
100
AcDbEntity
  8
AP_448_0200
  6
Continuous
 62
     7
100
AcDbCircle
 10
154.6038759846
 20
225.1865147317
 30
0.0
 40
0.499999999998061
100
AcDbArc
 50
0.0
 51
44.9999995196
  0
LINE
  5
3D9
330
386
100
AcDbEntity
  8
AP_448_0200
  6
Continuous
 62
     7
100
AcDbLine
 10
155.1038759704
 20
223.4892109571
 30
0.0
 11
155.1038759846
 21
225.1865147275
 31
0.0
  0
ARC
  5
3DA
330
386
100
AcDbEntity
  8
AP_448_0200
  6
Continuous
 62
     7
100
AcDbCircle
 10
154.6038759704
 20
223.4892109613
 30
0.0
 40
0.4999999999999983
100
AcDbArc
 50
314.9999995202
 51
359.9999995198
  0
LINE
  5
3DB
330
386
100
AcDbEntity
  8
AP_448_0200
  6
Continuous
 62
     7
100
AcDbLine
 10
154.4458245785
 20
222.6240527969
 30
0.0
 11
154.957429358
 21
223.1356575678
 31
0.0
  0
ARC
  5
3DC
330
386
100
AcDbEntity
  8
AP_448_0200
  6
Continuous
 62
     7
100
AcDbCircle
 10
154.3044032235
 20
222.7654741543
 30
0.0
 40
0.2000000000012686
100
AcDbArc
 50
269.9999995199
 51
314.9999995201
  0
LINE
  5
3DD
330
386
100
AcDbEntity
  8
AP_448_0200
  6
Continuous
 62
     7
100
AcDbLine
 10
154.0839074774
 20
222.5654741561
 30
0.0
 11
154.3044032218
 21
222.5654741543
 31
0.0
  0
ARC
  5
3DE
330
386
100
AcDbEntity
  8
AP_448_0200
  6
Continuous
 62
     7
100
AcDbCircle
 10
154.0839074791
 20
222.7654741521
 30
0.0
 40
0.1999999959098377
100
AcDbArc
 50
199.8238678092
 51
269.9999995198
  0
LINE
  5
3DF
330
386
100
AcDbEntity
  8
AP_448_0200
  6
Continuous
 62
     7
100
AcDbLine
 10
153.7520240115
 20
223.0963681496
 30
0.0
 11
153.8957595672
 21
222.6976481864
 31
0.0
  0
ARC
  5
3E0
330
386
100
AcDbEntity
  8
AP_448_0200
  6
Continuous
 62
     7
100
AcDbCircle
 10
153.6109130681
 20
223.045498713
 30
0.0
 40
0.1499999930655582
100
AcDbArc
 50
19.8238530314
 51
57.6921060397
  0
ARC
  5
3E1
330
386
100
AcDbEntity
  8
AP_448_0200
  6
Continuous
 62
     7
100
AcDbCircle
 10
153.5726561155
 20
223.0454988398
 30
0.0
 40
0.1499998666290412
100
AcDbArc
 50
122.3079069797
 51
180.0000046783
  0
LINE
  5
3E2
330
386
100
AcDbEntity
  8
AP_448_0200
  6
Continuous
 62
     7
100
AcDbLine
 10
153.4226563349
 20
221.9909110802
 30
0.0
 11
153.4226562488
 21
223.0454988275
 31
0.0
  0
ARC
  5
3E3
330
386
100
AcDbEntity
  8
AP_448_0200
  6
Continuous
 62
     7
100
AcDbCircle
 10
154.0696173227
 20
221.9909110748
 30
0.0
 40
0.6469609877716125
100
AcDbArc
 50
179.9999995198
 51
233.32440471
  0
LINE
  5
3E4
330
386
100
AcDbEntity
  8
AP_448_0200
  6
Continuous
 62
     7
100
AcDbLine
 10
154.170794629
 20
221.1089086296
 30
0.0
 11
153.6831981462
 21
221.4720288726
 31
0.0
  0
ARC
  5
3E5
330
386
100
AcDbEntity
  8
AP_448_0200
  6
Continuous
 62
     7
100
AcDbCircle
 10
153.8721528378
 20
220.7078935669
 30
0.0
 40
0.5000000000000004
100
AcDbArc
 50
0.0
 51
53.32440471
  0
LINE
  5
3E6
330
386
100
AcDbEntity
  8
AP_448_0200
  6
Continuous
 62
     7
100
AcDbLine
 10
154.3721527899
 20
214.9483216765
 30
0.0
 11
154.3721528378
 21
220.7078935627
 31
0.0
  0
ARC
  5
3E7
330
386
100
AcDbEntity
  8
AP_448_0200
  6
Continuous
 62
     7
100
AcDbCircle
 10
156.3721326379
 20
214.9393435046
 30
0.0
 40
2.000000000000004
100
AcDbArc
 50
179.7427934585
 51
275.024257625
  0
LINE
  5
3E8
330
386
100
AcDbEntity
  8
AP_448_0200
  6
Continuous
 62
     7
100
AcDbLine
 10
170.4569973088
 20
212.9470279696
 30
0.0
 11
156.5472876364
 21
212.9470280862
 31
0.0
  0
ARC
  5
3E9
330
386
100
AcDbEntity
  8
AP_448_0200
  6
Continuous
 62
     7
100
AcDbCircle
 10
170.4569973255
 20
214.9470241225
 30
0.0
 40
1.999996152865285
100
AcDbArc
 50
269.9999995198
 51
0.0371679158
  0
LINE
  5
3EA
330
386
100
AcDbEntity
  8
AP_448_0200
  6
Continuous
 62
     7
100
AcDbLine
 10
172.4569972216
 20
220.7078934111
 30
0.0
 11
172.4569930576
 21
214.9483215249
 31
0.0
  0
ARC
  5
3EB
330
386
100
AcDbEntity
  8
AP_448_0200
  6
Continuous
 62
     7
100
AcDbCircle
 10
172.9569972216
 20
220.707893407
 30
0.0
 40
0.5000000000000007
100
AcDbArc
 50
126.6756323496
 51
179.9999995198
  0
LINE
  5
3EC
330
386
100
AcDbEntity
  8
AP_448_0200
  6
Continuous
 62
     7
100
AcDbLine
 10
173.2359292829
 20
221.6147829864
 30
0.0
 11
172.658355171
 21
221.1089082765
 31
0.0
  0
ARC
  5
3ED
330
386
100
AcDbEntity
  8
AP_448_0200
  6
Continuous
 62
     7
100
AcDbCircle
 10
172.9064935748
 20
221.9909107762
 30
0.0
 40
0.4999999999979506
100
AcDbArc
 50
311.2138572742
 51
359.9999943614
  0
LINE
  5
3EE
330
386
100
AcDbEntity
  8
AP_448_0200
  6
Continuous
 62
     7
100
AcDbLine
 10
173.4064936786
 20
223.0454985516
 30
0.0
 11
173.4064935748
 21
221.990910727
 31
0.0
  0
ARC
  5
3EF
330
386
100
AcDbEntity
  8
AP_448_0200
  6
Continuous
 62
     7
100
AcDbCircle
 10
173.256493717
 20
223.0454985664
 30
0.0
 40
0.1499999615606831
100
AcDbArc
 50
0.0
 51
57.6921121742
  0
ARC
  5
3F0
330
386
100
AcDbEntity
  8
AP_448_0200
  6
Continuous
 62
     7
100
AcDbCircle
 10
173.2182367644
 20
223.0454985283
 30
0.0
 40
0.1499999999955269
100
AcDbArc
 50
122.3078826215
 51
160.1761386654
  0
LINE
  5
3F1
330
386
100
AcDbEntity
  8
AP_448_0200
  6
Continuous
 62
     7
100
AcDbLine
 10
172.9333902083
 20
222.6976480453
 30
0.0
 11
173.0771258218
 21
223.0963679876
 31
0.0
  0
ARC
  5
3F2
330
386
100
AcDbEntity
  8
AP_448_0200
  6
Continuous
 62
     7
100
AcDbCircle
 10
172.7452422909
 20
222.7654739957
 30
0.0
 40
0.1999999959117482
100
AcDbArc
 50
269.9999995198
 51
340.1761368385
  0
LINE
  5
3F3
330
386
100
AcDbEntity
  8
AP_448_0200
  6
Continuous
 62
     7
100
AcDbLine
 10
172.5247466071
 20
222.5654740016
 30
0.0
 11
172.7452422893
 21
222.5654739998
 31
0.0
  0
ARC
  5
3F4
330
386
100
AcDbEntity
  8
AP_448_0200
  6
Continuous
 62
     7
100
AcDbCircle
 10
172.5247466043
 20
222.7654740016
 30
0.0
 40
0.2000000000010736
100
AcDbArc
 50
224.9999995198
 51
270.0000008032
  0
LINE
  5
3F5
330
386
100
AcDbEntity
  8
AP_448_0200
  6
Continuous
 62
     7
100
AcDbLine
 10
171.871720476
 20
223.135657426
 30
0.0
 11
172.3833252469
 21
222.6240526465
 31
0.0
  0
ARC
  5
3F6
330
386
100
AcDbEntity
  8
AP_448_0200
  6
Continuous
 62
     7
100
AcDbCircle
 10
172.2252738695
 20
223.4892108137
 30
0.0
 40
0.499999999999997
100
AcDbArc
 50
179.9999995198
 51
224.9999995198
  0
LINE
  5
3F7
330
386
100
AcDbEntity
  8
AP_448_0200
  6
Continuous
 62
     7
100
AcDbLine
 10
171.7252738838
 20
225.1865145882
 30
0.0
 11
171.7252738695
 21
223.4892108178
 31
0.0
  0
ARC
  5
3F8
330
386
100
AcDbEntity
  8
AP_448_0200
  6
Continuous
 62
     7
100
AcDbCircle
 10
172.2252738838
 20
225.186514584
 30
0.0
 40
0.5000000000246597
100
AcDbArc
 50
134.9999995213
 51
179.9999995198
  0
LINE
  5
3F9
330
386
100
AcDbEntity
  8
AP_448_0200
  6
Continuous
 62
     7
100
AcDbLine
 10
172.341157684
 20
226.0095051576
 30
0.0
 11
171.8717204961
 21
225.5400679776
 31
0.0
  0
ARC
  5
3FA
330
386
100
AcDbEntity
  8
AP_448_0200
  6
Continuous
 62
     7
100
AcDbCircle
 10
172.4825790391
 20
225.8680838001
 30
0.0
 40
0.2000000000385929
100
AcDbArc
 50
89.9999995198
 51
134.9999995213
  0
LINE
  5
3FB
330
386
100
AcDbEntity
  8
AP_448_0200
  6
Continuous
 62
     7
100
AcDbLine
 10
172.7452421077
 20
226.068083798
 30
0.0
 11
172.4825790407
 21
226.0680838002
 31
0.0
  0
ARC
  5
3FC
330
386
100
AcDbEntity
  8
AP_448_0200
  6
Continuous
 62
     7
100
AcDbCircle
 10
172.745242106
 20
225.868083798
 30
0.0
 40
0.2000000000007111
100
AcDbArc
 50
19.8238833095
 51
89.9999995198
  0
LINE
  5
3FD
330
386
100
AcDbEntity
  8
AP_448_0200
  6
Continuous
 62
     7
100
AcDbLine
 10
173.0771257555
 20
225.5371899684
 30
0.0
 11
172.9333900034
 21
225.9359098159
 31
0.0
  0
ARC
  5
3FE
330
386
100
AcDbEntity
  8
AP_448_0200
  6
Continuous
 62
     7
100
AcDbCircle
 10
173.2182367489
 20
225.5880595073
 30
0.0
 40
0.1500000748122787
100
AcDbArc
 50
199.8238833096
 51
269.9999995198
  0
LINE
  5
3FF
330
386
100
AcDbEntity
  8
AP_448_0200
  6
Continuous
 62
     7
100
AcDbLine
 10
173.2564937362
 20
225.4380594321
 30
0.0
 11
173.2182367477
 21
225.4380594325
 31
0.0
  0
ARC
  5
400
330
386
100
AcDbEntity
  8
AP_448_0200
  6
Continuous
 62
     7
100
AcDbCircle
 10
173.2564937375
 20
225.5880594321
 30
0.0
 40
0.1500000000005317
100
AcDbArc
 50
269.9999995198
 51
359.9999995198
  0
LINE
  5
401
330
386
100
AcDbEntity
  8
AP_448_0200
  6
Continuous
 62
     7
100
AcDbLine
 10
173.4064937384
 20
225.6999803008
 30
0.0
 11
173.4064937375
 21
225.5880594309
 31
0.0
  0
ARC
  5
402
330
386
100
AcDbEntity
  8
AP_448_0200
  6
Continuous
 62
     7
100
AcDbCircle
 10
173.2064937472
 20
226.7493827437
 30
0.0
 40
0.1999999999999988
100
AcDbArc
 50
69.0957191557
 51
89.9999995198
  0
LINE
  5
403
330
386
100
AcDbEntity
  8
AP_448_0200
  6
Continuous
 62
     7
100
AcDbLine
 10
172.5560675303
 20
226.9493827491
 30
0.0
 11
173.2064937489
 21
226.9493827437
 31
0.0
  0
ARC
  5
404
330
386
100
AcDbEntity
  8
AP_448_0200
  6
Continuous
 62
     7
100
AcDbCircle
 10
172.5560675177
 20
225.4493827491
 30
0.0
 40
1.500000000002813
100
AcDbArc
 50
89.9999995198
 51
179.9999995198
  0
LINE
  5
405
330
386
100
AcDbEntity
  8
AP_448_0200
  6
Continuous
 62
     7
100
AcDbLine
 10
171.0560674987
 20
223.1761972612
 30
0.0
 11
171.0560675177
 21
225.4493827617
 31
0.0
  0
ARC
  5
406
330
386
100
AcDbEntity
  8
AP_448_0200
  6
Continuous
 62
     7
100
AcDbCircle
 10
172.5560674987
 20
223.1761972487
 30
0.0
 40
1.499999999999098
100
AcDbArc
 50
179.9999995198
 51
215.9505673158
  0
ARC
  5
407
330
386
100
AcDbEntity
  8
AP_448_0200
  6
Continuous
 62
     7
100
AcDbCircle
 10
170.8560674921
 20
221.9433144571
 30
0.0
 40
0.6000000000000024
100
AcDbArc
 50
0.0
 51
35.9505673158
  0
LINE
  5
408
330
386
100
AcDbEntity
  8
AP_448_0200
  6
Continuous
 62
     7
100
AcDbLine
 10
171.4560674335
 20
214.9449141458
 30
0.0
 11
171.4560674921
 21
221.9433144521
 31
0.0
  0
ARC
  5
409
330
386
100
AcDbEntity
  8
AP_448_0200
  6
Continuous
 62
     7
100
AcDbCircle
 10
170.4560674335
 20
214.9449141542
 30
0.0
 40
0.9999999999977458
100
AcDbArc
 50
269.9999995186
 51
359.99999952
  0
LINE
  5
40A
330
386
100
AcDbEntity
  8
AP_448_0200
  6
Continuous
 62
     7
100
AcDbLine
 10
156.3730822548
 20
213.9449142725
 30
0.0
 11
170.4560674251
 21
213.9449141542
 31
0.0
  0
ARC
  5
40B
330
386
100
AcDbEntity
  8
AP_448_0200
  6
Continuous
 62
     7
100
AcDbCircle
 10
156.3730822632
 20
214.9449142725
 30
0.0
 40
0.9999999999977449
100
AcDbArc
 50
179.9999995362
 51
269.9999995186
  0
ARC
  5
40C
330
386
100
AcDbEntity
  8
AP_451__200
  6
Continuous
 62
     7
100
AcDbCircle
 10
151.6145760464
 20
208.7493849247
 30
0.0
 40
0.1999999999999988
100
AcDbArc
 50
179.9999995198
 51
269.9999995198
  0
LINE
  5
40D
330
386
100
AcDbEntity
  8
AP_451__200
  6
Continuous
 62
     7
100
AcDbLine
 10
151.414576204
 20
227.5493824263
 30
0.0
 11
151.4145760464
 21
208.7493849263
 31
0.0
  0
ARC
  5
40E
330
386
100
AcDbEntity
  8
AP_451__200
  6
Continuous
 62
     7
100
AcDbCircle
 10
152.414576204
 20
227.5493824179
 30
0.0
 40
0.9999999999996332
100
AcDbArc
 50
89.9999995198
 51
179.9999995198
  0
LINE
  5
40F
330
386
100
AcDbEntity
  8
AP_451__200
  6
Continuous
 62
     7
100
AcDbLine
 10
174.4145737124
 20
228.5493822336
 30
0.0
 11
152.4145762124
 21
228.5493824179
 31
0.0
  0
ARC
  5
410
330
386
100
AcDbEntity
  8
AP_451__200
  6
Continuous
 62
     7
100
AcDbCircle
 10
174.414573704
 20
227.5493822336
 30
0.0
 40
0.9999999999996123
100
AcDbArc
 50
0.0
 51
89.9999995198
  0
LINE
  5
411
330
386
100
AcDbEntity
  8
AP_451__200
  6
Continuous
 62
     7
100
AcDbLine
 10
175.4145735464
 20
208.7440117773
 30
0.0
 11
175.414573704
 21
227.5493822252
 31
0.0
  0
ARC
  5
412
330
386
100
AcDbEntity
  8
AP_451__200
  6
Continuous
 62
     7
100
AcDbCircle
 10
175.2193779939
 20
208.7440117789
 30
0.0
 40
0.1951955524478997
100
AcDbArc
 50
269.5337069184
 51
359.9999995198
  0
ARC
  5
413
330
386
100
AcDbEntity
  8
AP_451__200
  6
Continuous
 62
     7
100
AcDbCircle
 10
175.2243798559
 20
209.3586021772
 30
0.0
 40
0.8098063043086596
100
AcDbArc
 50
179.9999995199
 51
269.5337069184
  0
LINE
  5
414
330
386
100
AcDbEntity
  8
AP_451__200
  6
Continuous
 62
     7
100
AcDbLine
 10
174.4145737006
 20
227.1493827335
 30
0.0
 11
174.4145735515
 21
209.358602184
 31
0.0
  0
ARC
  5
415
330
386
100
AcDbEntity
  8
AP_451__200
  6
Continuous
 62
     7
100
AcDbCircle
 10
174.2145737006
 20
227.1493827352
 30
0.0
 40
0.2000000000001723
100
AcDbArc
 50
0.0
 51
89.9999995197
  0
LINE
  5
416
330
386
100
AcDbEntity
  8
AP_451__200
  6
Continuous
 62
     7
100
AcDbLine
 10
172.3145749525
 20
227.3493827511
 30
0.0
 11
174.2145737023
 21
227.3493827352
 31
0.0
  0
ARC
  5
417
330
386
100
AcDbEntity
  8
AP_451__200
  6
Continuous
 62
     7
100
AcDbCircle
 10
172.3145749374
 20
225.5493827511
 30
0.0
 40
1.800000000000001
100
AcDbArc
 50
89.9999995197
 51
179.9999995198
  0
LINE
  5
418
330
386
100
AcDbEntity
  8
AP_451__200
  6
Continuous
 62
     7
100
AcDbLine
 10
170.5145748871
 20
219.549382766
 30
0.0
 11
170.5145749374
 21
225.5493827662
 31
0.0
  0
ARC
  5
419
330
386
100
AcDbEntity
  8
AP_451__200
  6
Continuous
 62
     7
100
AcDbCircle
 10
169.3145748871
 20
219.549382776
 30
0.0
 40
1.199999999999999
100
AcDbArc
 50
269.9999995101
 51
359.9999995198
  0
LINE
  5
41A
330
386
100
AcDbEntity
  8
AP_451__200
  6
Continuous
 62
     7
100
AcDbLine
 10
167.7145748768
 20
218.3493827897
 30
0.0
 11
169.3145748769
 21
218.349382776
 31
0.0
  0
ARC
  5
41B
330
386
100
AcDbEntity
  8
AP_451__200
  6
Continuous
 62
     7
100
AcDbCircle
 10
167.7145748786
 20
218.5493827897
 30
0.0
 40
0.1999999999999997
100
AcDbArc
 50
179.9999995198
 51
269.9999995101
  0
LINE
  5
41C
330
386
100
AcDbEntity
  8
AP_451__200
  6
Continuous
 62
     7
100
AcDbLine
 10
167.5145748836
 20
219.1493827914
 30
0.0
 11
167.5145748786
 21
218.5493827914
 31
0.0
  0
ARC
  5
41D
330
386
100
AcDbEntity
  8
AP_451__200
  6
Continuous
 62
     7
100
AcDbCircle
 10
167.7145748836
 20
219.1493827897
 30
0.0
 40
0.2000000000000005
100
AcDbArc
 50
89.9999995198
 51
179.9999995198
  0
LINE
  5
41E
330
386
100
AcDbEntity
  8
AP_451__200
  6
Continuous
 62
     7
100
AcDbLine
 10
169.4145748853
 20
219.3493827755
 30
0.0
 11
167.7145748853
 21
219.3493827897
 31
0.0
  0
ARC
  5
41F
330
386
100
AcDbEntity
  8
AP_451__200
  6
Continuous
 62
     7
100
AcDbCircle
 10
169.4145748869
 20
219.5493827755
 30
0.0
 40
0.1999999999999988
100
AcDbArc
 50
269.9999995198
 51
359.9999995198
  0
LINE
  5
420
330
386
100
AcDbEntity
  8
AP_451__200
  6
Continuous
 62
     7
100
AcDbLine
 10
169.614574949
 20
226.9493827738
 30
0.0
 11
169.6145748869
 21
219.5493827738
 31
0.0
  0
ARC
  5
421
330
386
100
AcDbEntity
  8
AP_451__200
  6
Continuous
 62
     7
100
AcDbCircle
 10
169.214574949
 20
226.9493827772
 30
0.0
 40
0.400000000000001
100
AcDbArc
 50
0.0
 51
89.9999995198
  0
ARC
  5
422
330
386
100
AcDbEntity
  8
AP_451__200
  6
Continuous
 62
     7
100
AcDbCircle
 10
157.614574949
 20
226.9493828744
 30
0.0
 40
0.4000000000000019
100
AcDbArc
 50
89.9999995198
 51
179.9999995198
  0
LINE
  5
423
330
386
100
AcDbEntity
  8
AP_451__200
  6
Continuous
 62
     7
100
AcDbLine
 10
157.2145748869
 20
219.5493828777
 30
0.0
 11
157.214574949
 21
226.9493828777
 31
0.0
  0
ARC
  5
424
330
386
100
AcDbEntity
  8
AP_451__200
  6
Continuous
 62
     7
100
AcDbCircle
 10
157.4145748869
 20
219.549382876
 30
0.0
 40
0.2000000000000023
100
AcDbArc
 50
179.9999995198
 51
269.9999995198
  0
LINE
  5
425
330
386
100
AcDbEntity
  8
AP_451__200
  6
Continuous
 62
     7
100
AcDbLine
 10
159.0145748853
 20
219.3493828626
 30
0.0
 11
157.4145748853
 21
219.349382876
 31
0.0
  0
ARC
  5
426
330
386
100
AcDbEntity
  8
AP_451__200
  6
Continuous
 62
     7
100
AcDbCircle
 10
159.0145748836
 20
219.1493828626
 30
0.0
 40
0.1999999999999997
100
AcDbArc
 50
0.0
 51
89.9999995198
  0
LINE
  5
427
330
386
100
AcDbEntity
  8
AP_451__200
  6
Continuous
 62
     7
100
AcDbLine
 10
159.2145748786
 20
218.549382861
 30
0.0
 11
159.2145748836
 21
219.149382861
 31
0.0
  0
ARC
  5
428
330
386
100
AcDbEntity
  8
AP_451__200
  6
Continuous
 62
     7
100
AcDbCircle
 10
159.0145748786
 20
218.5493828626
 30
0.0
 40
0.2000000000000014
100
AcDbArc
 50
269.9999995198
 51
359.9999995198
  0
LINE
  5
429
330
386
100
AcDbEntity
  8
AP_451__200
  6
Continuous
 62
     7
100
AcDbLine
 10
157.5145748769
 20
218.3493828752
 30
0.0
 11
159.0145748769
 21
218.3493828626
 31
0.0
  0
ARC
  5
42A
330
386
100
AcDbEntity
  8
AP_451__200
  6
Continuous
 62
     7
100
AcDbCircle
 10
157.5145748869
 20
219.5493828752
 30
0.0
 40
1.2
100
AcDbArc
 50
179.9999995198
 51
269.9999995198
  0
LINE
  5
42B
330
386
100
AcDbEntity
  8
AP_451__200
  6
Continuous
 62
     7
100
AcDbLine
 10
156.3145749372
 20
225.5493828853
 30
0.0
 11
156.3145748869
 21
219.5493828853
 31
0.0
  0
ARC
  5
42C
330
386
100
AcDbEntity
  8
AP_451__200
  6
Continuous
 62
     7
100
AcDbCircle
 10
154.5145749372
 20
225.5493829003
 30
0.0
 40
1.8
100
AcDbArc
 50
0.0
 51
89.9999995198
  0
LINE
  5
42D
330
386
100
AcDbEntity
  8
AP_451__200
  6
Continuous
 62
     7
100
AcDbLine
 10
152.6145762023
 20
227.3493829163
 30
0.0
 11
154.5145749523
 21
227.3493829003
 31
0.0
  0
ARC
  5
42E
330
386
100
AcDbEntity
  8
AP_451__200
  6
Continuous
 62
     7
100
AcDbCircle
 10
152.6145762006
 20
227.1493829163
 30
0.0
 40
0.1999999999999988
100
AcDbArc
 50
89.9999995198
 51
179.9999995198
  0
LINE
  5
42F
330
386
100
AcDbEntity
  8
AP_451__200
  6
Continuous
 62
     7
100
AcDbLine
 10
152.4145760515
 20
209.3493849179
 30
0.0
 11
152.4145762006
 21
227.1493829179
 31
0.0
  0
ARC
  5
430
330
386
100
AcDbEntity
  8
AP_451__200
  6
Continuous
 62
     7
100
AcDbCircle
 10
151.6145760515
 20
209.3493849247
 30
0.0
 40
0.8000000000000006
100
AcDbArc
 50
269.9999995198
 51
359.9999995198
  0
ENDBLK
  5
432
330
386
100
AcDbEntity
  8
0
100
AcDbBlockEnd
  0
ENDSEC
  0
SECTION
  2
ENTITIES
  0
LINE
  5
70
330
1F
100
AcDbEntity
  8
Standard
  6
HIDDEN2
 62
     7
100
AcDbLine
 10
38.9479789462
 20
131.7678011794
 30
0.0
 11
60.4790237127
 21
131.7678011794
 31
0.0
  0
LINE
  5
71
330
1F
100
AcDbEntity
  8
Standard
  6
HIDDEN2
 62
     7
100
AcDbLine
 10
153.4080476157
 20
132.1970321173
 30
0.0
 11
174.9390923821
 21
132.1970321173
 31
0.0
  0
INSERT
  5
73
330
1F
100
AcDbEntity
  8
Standard
100
AcDbBlockReference
  2
SE
 10
0.0
 20
0.0
 30
0.0
  0
INSERT
  5
18B
330
1F
100
AcDbEntity
  8
Standard
100
AcDbBlockReference
  2
SE1
 10
0.0
 20
0.0
 30
0.0
  0
DIMENSION
  5
24C
330
1F
100
AcDbEntity
  8
Standard
  6
Continuous
 62
     7
100
AcDbDimension
  2
DMBLK13
 10
37.4790262043
 20
155.0519797633
 30
0.0
 11
49.4790253773
 21
155.0519797633
 31
0.0
 70
   161
  1
\A1;<>
 71
     5
 42
-1.0
 73
     0
 74
     0
 75
     0
  3
E-Katalog
100
AcDbAlignedDimension
 13
37.4790262043
 23
130.7678013722
 33
0.0
 14
61.4790237043
 24
130.767801171
 34
0.0
  0
DIMENSION
  5
256
330
1F
100
AcDbEntity
  8
Standard
  6
Continuous
 62
     7
100
AcDbDimension
  2
DMBLK14
 10
68.0755053041
 20
111.7672416365
 30
0.0
 11
68.0755053041
 21
121.7675210749
 31
0.0
 70
   160
  1
\A1;<>
 71
     5
 42
-1.0
 73
     0
 74
     0
 75
     0
  3
E-Katalog
100
AcDbAlignedDimension
 13
60.4790237127
 23
131.7678011794
 33
0.0
 14
61.2822394421
 24
111.7672416365
 34
0.0
 50
90.0
100
AcDbRotatedDimension
  0
INSERT
  5
261
330
1F
100
AcDbEntity
  8
Standard
100
AcDbBlockReference
  2
SE2
 10
0.0
 20
0.0
 30
0.0
  0
DIMENSION
  5
372
330
1F
100
AcDbEntity
  8
Standard
  6
Continuous
 62
     7
100
AcDbDimension
  2
DMBLK15
 10
36.5328496474
 20
233.9133678108
 30
0.0
 11
48.5328488203
 21
233.9133678108
 31
0.0
 70
   161
  1
\A1;<>
 71
     5
 42
-1.0
 73
     0
 74
     0
 75
     0
  3
E-Katalog
100
AcDbAlignedDimension
 13
36.5328496474
 23
227.9493824682
 33
0.0
 14
60.5328471474
 24
227.9493822671
 34
0.0
  0
DIMENSION
  5
37C
330
1F
100
AcDbEntity
  8
Standard
  6
Continuous
 62
     7
100
AcDbDimension
  2
DMBLK16
 10
65.9201209367
 20
208.9488227325
 30
0.0
 11
65.9201209367
 21
218.9491021709
 31
0.0
 70
   160
  1
\A1;<>
 71
     5
 42
-1.0
 73
     0
 74
     0
 75
     0
  3
E-Katalog
100
AcDbAlignedDimension
 13
59.5328471557
 23
228.9493822755
 33
0.0
 14
60.3360628852
 24
208.9488227325
 34
0.0
 50
90.0
100
AcDbRotatedDimension
  0
INSERT
  5
387
330
1F
100
AcDbEntity
  8
Standard
100
AcDbBlockReference
  2
SE3
 10
0.0
 20
0.0
 30
0.0
  0
LINE
  5
433
330
1F
100
AcDbEntity
  8
Standard
  6
Continuous
 62
     7
100
AcDbLine
 10
18.1568766159
 20
171.0856000139
 30
0.0
 11
198.0131616313
 21
171.0856000139
 31
0.0
  0
LINE
  5
434
330
1F
100
AcDbEntity
  8
Standard
  6
Continuous
 62
     7
100
AcDbLine
 10
108.0850191236
 20
248.4701847857
 30
0.0
 11
108.0850191236
 21
78.496657704
 31
0.0
  0
ENDSEC
  0
SECTION
  2
OBJECTS
  0
DICTIONARY
  5
C
330
0
100
AcDbDictionary
281
     1
  3
ACAD_DETAILVIEWSTYLE
350
470
  3
ACAD_GROUP
350
D
  3
ACAD_LAYOUT
350
1A
  3
ACAD_MATERIAL
350
43
  3
ACAD_MLEADERSTYLE
350
6B
  3
ACAD_MLINESTYLE
350
17
  3
ACAD_PLOTSETTINGS
350
19
  3
ACAD_PLOTSTYLENAME
350
E
  3
ACAD_SCALELIST
350
47
  3
ACAD_SECTIONVIEWSTYLE
350
471
  3
ACAD_TABLESTYLE
350
69
  3
ACAD_VISUALSTYLE
350
2A
  3
ACDB_RECOMPOSE_DATA
350
46D
  3
AcDbVariableDictionary
350
435
  0
SUN
  5
6D
330
29
100
AcDbSun
 90
        1
290
     0
 63
     7
421
 16777215
 40
1.0
291
     1
 91
  2455826
 92
 54000000
292
     0
 70
     2
 71
   256
280
     1
  0
DICTIONARY
  5
470
102
{ACAD_REACTORS
330
C
102
}
330
C
100
AcDbDictionary
281
     1
  0
DICTIONARY
  5
D
102
{ACAD_REACTORS
330
C
102
}
330
C
100
AcDbDictionary
281
     1
  0
DICTIONARY
  5
1A
102
{ACAD_REACTORS
330
C
102
}
330
C
100
AcDbDictionary
281
     1
  3
Layout1
350
1E
  3
Model
350
22
  0
DICTIONARY
  5
43
102
{ACAD_REACTORS
330
C
102
}
330
C
100
AcDbDictionary
281
     1
  3
ByBlock
350
45
  3
ByLayer
350
44
  3
Global
350
46
  0
DICTIONARY
  5
6B
102
{ACAD_REACTORS
330
C
102
}
330
C
100
AcDbDictionary
281
     1
  3
Standard
350
6C
  0
DICTIONARY
  5
17
102
{ACAD_REACTORS
330
C
102
}
330
C
100
AcDbDictionary
281
     1
  3
Standard
350
18
  0
DICTIONARY
  5
19
102
{ACAD_REACTORS
330
C
102
}
330
C
100
AcDbDictionary
281
     1
  0
ACDBDICTIONARYWDFLT
  5
E
102
{ACAD_REACTORS
330
C
102
}
330
C
100
AcDbDictionary
281
     1
  3
Normal
350
F
100
AcDbDictionaryWithDefault
340
F
  0
DICTIONARY
  5
47
102
{ACAD_REACTORS
330
C
102
}
330
C
100
AcDbDictionary
281
     1
  3
A0
350
48
  3
A1
350
49
  3
A2
350
4A
  3
A3
350
4B
  3
A4
350
4C
  3
A5
350
4D
  3
A6
350
4E
  3
A7
350
4F
  3
A8
350
50
  3
A9
350
51
  3
B0
350
52
  3
B1
350
53
  3
B2
350
54
  3
B3
350
55
  3
B4
350
56
  3
B5
350
57
  3
B6
350
58
  3
B7
350
59
  3
B8
350
5A
  3
B9
350
5B
  3
C0
350
5C
  3
C1
350
5D
  3
C2
350
5E
  3
C3
350
5F
  3
C4
350
60
  3
C5
350
61
  3
C6
350
62
  3
C7
350
63
  3
C8
350
64
  3
C9
350
65
  3
D0
350
66
  3
D1
350
67
  3
D2
350
68
  0
DICTIONARY
  5
471
102
{ACAD_REACTORS
330
C
102
}
330
C
100
AcDbDictionary
281
     1
  0
DICTIONARY
  5
69
102
{ACAD_REACTORS
330
C
102
}
330
C
100
AcDbDictionary
281
     1
  3
Standard
350
6A
  0
DICTIONARY
  5
2A
102
{ACAD_REACTORS
330
C
102
}
330
C
100
AcDbDictionary
281
     1
  3
2dWireframe
350
2F
  3
Basic
350
32
  3
Brighten
350
36
  3
ColorChange
350
3A
  3
Conceptual
350
34
  3
Dim
350
35
  3
EdgeColorOff
350
3D
  3
Facepattern
350
39
  3
Flat
350
2B
  3
FlatWithEdges
350
2C
  3
Gouraud
350
2D
  3
GouraudWithEdges
350
2E
  3
Hidden
350
31
  3
JitterOff
350
3B
  3
Linepattern
350
38
  3
OverhangOff
350
3C
  3
Realistic
350
33
  3
Shaded
350
42
  3
Shaded with edges
350
41
  3
Shades of Gray
350
3E
  3
Sketchy
350
3F
  3
Thicken
350
37
  3
Wireframe
350
30
  3
X-Ray
350
40
  0
XRECORD
  5
46D
102
{ACAD_REACTORS
330
C
102
}
330
C
100
AcDbXrecord
280
     1
 90
        1
330
6A
  0
DICTIONARY
  5
435
102
{ACAD_REACTORS
330
C
102
}
330
C
100
AcDbDictionary
281
     1
  3
CANNOSCALE
350
436
  3
CMLEADERSTYLE
350
46F
  3
CTABLESTYLE
350
46E
  3
XCLIPFRAME
350
437
  0
LAYOUT
  5
1E
102
{ACAD_REACTORS
330
1A
102
}
330
1A
100
AcDbPlotSettings
  1

  2
none_device
  4

  6

 40
0.0
 41
0.0
 42
0.0
 43
0.0
 44
0.0
 45
0.0
 46
0.0
 47
0.0
 48
0.0
 49
0.0
140
0.0
141
0.0
142
1.0
143
1.0
 70
   688
 72
     1
 73
     0
 74
     5
  7

 75
    16
 76
     0
 77
     2
 78
   300
147
1.0
148
0.0
149
0.0
100
AcDbLayout
  1
Layout1
 70
     1
 71
     1
 10
0.0
 20
0.0
 11
215.9
 21
279.4
 12
0.0
 22
0.0
 32
0.0
 14
0.0
 24
0.0
 34
0.0
 15
215.9
 25
279.4
 35
0.0
146
0.0
 13
0.0
 23
0.0
 33
0.0
 16
1.0
 26
0.0
 36
0.0
 17
0.0
 27
1.0
 37
0.0
 76
     0
330
1B
  0
LAYOUT
  5
22
102
{ACAD_REACTORS
330
1A
102
}
330
1A
100
AcDbPlotSettings
  1

  2
none_device
  4
Letter_(8.50_x_11.00_Inches)
  6

 40
6.35
 41
6.35
 42
6.35000508
 43
6.35000508
 44
215.9
 45
279.4
 46
0.0
 47
0.0
 48
0.0
 49
0.0
140
0.0
141
0.0
142
1.0
143
1.0
 70
  1712
 72
     1
 73
     0
 74
     0
  7

 75
     0
 76
     0
 77
     2
 78
   300
147
1.0
148
0.0
149
0.0
100
AcDbLayout
  1
Model
 70
     1
 71
     0
 10
0.0
 20
0.0
 11
215.9
 21
279.4
 12
0.0
 22
0.0
 32
0.0
 14
0.0
 24
0.0
 34
0.0
 15
215.9
 25
279.4
 35
0.0
146
0.0
 13
0.0
 23
0.0
 33
0.0
 16
1.0
 26
0.0
 36
0.0
 17
0.0
 27
1.0
 37
0.0
 76
     0
330
1F
331
29
  0
MATERIAL
  5
45
102
{ACAD_REACTORS
330
43
102
}
330
43
100
AcDbMaterial
  1
ByBlock
 72
     1
 94
      127
  0
MATERIAL
  5
44
102
{ACAD_REACTORS
330
43
102
}
330
43
100
AcDbMaterial
  1
ByLayer
 72
     1
 94
      127
  0
MATERIAL
  5
46
102
{ACAD_REACTORS
330
43
102
}
330
43
100
AcDbMaterial
  1
Global
 72
     1
 94
      127
  0
MLEADERSTYLE
  5
6C
102
{ACAD_REACTORS
330
6B
102
}
102
{ACAD_XDICTIONARY
360
46B
102
}
330
6B
100
AcDbMLeaderStyle
170
     2
171
     1
172
     0
 90
        2
 40
0.0
 41
0.0
173
     1
 91
-1056964608
340
14
 92
       -2
290
     1
 42
2.0
291
     1
 43
8.0
  3
Standard
341
0
 44
4.0
300

342
11
174
     1
178
     6
175
     1
176
     0
 93
-1056964608
 45
4.0
292
     0
297
     0
 46
4.0
343
0
 94
-1056964608
 47
1.0
 49
1.0
140
1.0
293
     1
141
0.0
294
     1
177
     0
142
1.0
295
     0
296
     0
143
3.75
1001
ACAD_MLEADERVER
1070
     2
  0
MLINESTYLE
  5
18
102
{ACAD_REACTORS
330
17
102
}
330
17
100
AcDbMlineStyle
  2
Standard
 70
     0
  3

 62
   256
 51
90.0
 52
90.0
 71
     2
 49
0.5
 62
   256
  6
BYLAYER
 49
-0.5
 62
   256
  6
BYLAYER
  0
ACDBPLACEHOLDER
  5
F
102
{ACAD_REACTORS
330
E
102
}
330
E
  0
SCALE
  5
48
102
{ACAD_REACTORS
330
47
102
}
330
47
100
AcDbScale
 70
     0
300
1:1
140
1.0
141
1.0
290
     1
  0
SCALE
  5
49
102
{ACAD_REACTORS
330
47
102
}
330
47
100
AcDbScale
 70
     0
300
1:2
140
1.0
141
2.0
290
     0
  0
SCALE
  5
4A
102
{ACAD_REACTORS
330
47
102
}
330
47
100
AcDbScale
 70
     0
300
1:4
140
1.0
141
4.0
290
     0
  0
SCALE
  5
4B
102
{ACAD_REACTORS
330
47
102
}
330
47
100
AcDbScale
 70
     0
300
1:5
140
1.0
141
5.0
290
     0
  0
SCALE
  5
4C
102
{ACAD_REACTORS
330
47
102
}
330
47
100
AcDbScale
 70
     0
300
1:8
140
1.0
141
8.0
290
     0
  0
SCALE
  5
4D
102
{ACAD_REACTORS
330
47
102
}
330
47
100
AcDbScale
 70
     0
300
1:10
140
1.0
141
10.0
290
     0
  0
SCALE
  5
4E
102
{ACAD_REACTORS
330
47
102
}
330
47
100
AcDbScale
 70
     0
300
1:16
140
1.0
141
16.0
290
     0
  0
SCALE
  5
4F
102
{ACAD_REACTORS
330
47
102
}
330
47
100
AcDbScale
 70
     0
300
1:20
140
1.0
141
20.0
290
     0
  0
SCALE
  5
50
102
{ACAD_REACTORS
330
47
102
}
330
47
100
AcDbScale
 70
     0
300
1:30
140
1.0
141
30.0
290
     0
  0
SCALE
  5
51
102
{ACAD_REACTORS
330
47
102
}
330
47
100
AcDbScale
 70
     0
300
1:40
140
1.0
141
40.0
290
     0
  0
SCALE
  5
52
102
{ACAD_REACTORS
330
47
102
}
330
47
100
AcDbScale
 70
     0
300
1:50
140
1.0
141
50.0
290
     0
  0
SCALE
  5
53
102
{ACAD_REACTORS
330
47
102
}
330
47
100
AcDbScale
 70
     0
300
1:100
140
1.0
141
100.0
290
     0
  0
SCALE
  5
54
102
{ACAD_REACTORS
330
47
102
}
330
47
100
AcDbScale
 70
     0
300
2:1
140
2.0
141
1.0
290
     0
  0
SCALE
  5
55
102
{ACAD_REACTORS
330
47
102
}
330
47
100
AcDbScale
 70
     0
300
4:1
140
4.0
141
1.0
290
     0
  0
SCALE
  5
56
102
{ACAD_REACTORS
330
47
102
}
330
47
100
AcDbScale
 70
     0
300
8:1
140
8.0
141
1.0
290
     0
  0
SCALE
  5
57
102
{ACAD_REACTORS
330
47
102
}
330
47
100
AcDbScale
 70
     0
300
10:1
140
10.0
141
1.0
290
     0
  0
SCALE
  5
58
102
{ACAD_REACTORS
330
47
102
}
330
47
100
AcDbScale
 70
     0
300
100:1
140
100.0
141
1.0
290
     0
  0
SCALE
  5
59
102
{ACAD_REACTORS
330
47
102
}
330
47
100
AcDbScale
 70
     0
300
1/128" = 1'-0"
140
0.0078125
141
12.0
290
     0
  0
SCALE
  5
5A
102
{ACAD_REACTORS
330
47
102
}
330
47
100
AcDbScale
 70
     0
300
1/64" = 1'-0"
140
0.015625
141
12.0
290
     0
  0
SCALE
  5
5B
102
{ACAD_REACTORS
330
47
102
}
330
47
100
AcDbScale
 70
     0
300
1/32" = 1'-0"
140
0.03125
141
12.0
290
     0
  0
SCALE
  5
5C
102
{ACAD_REACTORS
330
47
102
}
330
47
100
AcDbScale
 70
     0
300
1/16" = 1'-0"
140
0.0625
141
12.0
290
     0
  0
SCALE
  5
5D
102
{ACAD_REACTORS
330
47
102
}
330
47
100
AcDbScale
 70
     0
300
3/32" = 1'-0"
140
0.09375
141
12.0
290
     0
  0
SCALE
  5
5E
102
{ACAD_REACTORS
330
47
102
}
330
47
100
AcDbScale
 70
     0
300
1/8" = 1'-0"
140
0.125
141
12.0
290
     0
  0
SCALE
  5
5F
102
{ACAD_REACTORS
330
47
102
}
330
47
100
AcDbScale
 70
     0
300
3/16" = 1'-0"
140
0.1875
141
12.0
290
     0
  0
SCALE
  5
60
102
{ACAD_REACTORS
330
47
102
}
330
47
100
AcDbScale
 70
     0
300
1/4" = 1'-0"
140
0.25
141
12.0
290
     0
  0
SCALE
  5
61
102
{ACAD_REACTORS
330
47
102
}
330
47
100
AcDbScale
 70
     0
300
3/8" = 1'-0"
140
0.375
141
12.0
290
     0
  0
SCALE
  5
62
102
{ACAD_REACTORS
330
47
102
}
330
47
100
AcDbScale
 70
     0
300
1/2" = 1'-0"
140
0.5
141
12.0
290
     0
  0
SCALE
  5
63
102
{ACAD_REACTORS
330
47
102
}
330
47
100
AcDbScale
 70
     0
300
3/4" = 1'-0"
140
0.75
141
12.0
290
     0
  0
SCALE
  5
64
102
{ACAD_REACTORS
330
47
102
}
330
47
100
AcDbScale
 70
     0
300
1" = 1'-0"
140
1.0
141
12.0
290
     0
  0
SCALE
  5
65
102
{ACAD_REACTORS
330
47
102
}
330
47
100
AcDbScale
 70
     0
300
1-1/2" = 1'-0"
140
1.5
141
12.0
290
     0
  0
SCALE
  5
66
102
{ACAD_REACTORS
330
47
102
}
330
47
100
AcDbScale
 70
     0
300
3" = 1'-0"
140
3.0
141
12.0
290
     0
  0
SCALE
  5
67
102
{ACAD_REACTORS
330
47
102
}
330
47
100
AcDbScale
 70
     0
300
6" = 1'-0"
140
6.0
141
12.0
290
     0
  0
SCALE
  5
68
102
{ACAD_REACTORS
330
47
102
}
330
47
100
AcDbScale
 70
     0
300
1'-0" = 1'-0"
140
12.0
141
12.0
290
     0
  0
TABLESTYLE
  5
6A
102
{ACAD_REACTORS
330
69
102
}
102
{ACAD_XDICTIONARY
360
468
102
}
330
69
100
AcDbTableStyle
  3
Standard
 70
     0
 71
     0
 40
0.06
 41
0.06
280
     0
281
     0
  7
Standard
140
4.5
170
     2
 62
     0
 63
   257
283
     0
 90
        4
 91
        0
  1

274
    -2
284
     1
 64
     0
275
    -2
285
     1
 65
     0
276
    -2
286
     1
 66
     0
277
    -2
287
     1
 67
     0
278
    -2
288
     1
 68
     0
279
    -2
289
     1
 69
     0
  7
Standard
140
6.0
170
     5
 62
     0
 63
   257
283
     0
 90
        4
 91
        0
  1

274
    -2
284
     1
 64
     0
275
    -2
285
     1
 65
     0
276
    -2
286
     1
 66
     0
277
    -2
287
     1
 67
     0
278
    -2
288
     1
 68
     0
279
    -2
289
     1
 69
     0
  7
Standard
140
4.5
170
     5
 62
     0
 63
   257
283
     0
 90
        4
 91
        0
  1

274
    -2
284
     1
 64
     0
275
    -2
285
     1
 65
     0
276
    -2
286
     1
 66
     0
277
    -2
287
     1
 67
     0
278
    -2
288
     1
 68
     0
279
    -2
289
     1
 69
     0
  0
VISUALSTYLE
  5
2F
102
{ACAD_REACTORS
330
2A
102
}
102
{ACAD_XDICTIONARY
360
440
102
}
330
2A
100
AcDbVisualStyle
  2
2dWireframe
 70
     4
 71
     0
 72
     2
 73
     0
 90
        0
 40
0.6
 41
30.0
 62
     5
 63
     7
421
 16777215
 74
     1
 91
        4
 64
     7
 65
   257
 75
     1
175
     1
 42
1.0
 92
        0
 66
   257
 43
1.0
 76
     1
 77
     6
 78
     2
 67
     7
 79
     5
170
     0
171
     0
290
     0
174
     0
 93
        1
 44
0.0
173
     0
291
     0
 45
0.0
  0
VISUALSTYLE
  5
32
102
{ACAD_REACTORS
330
2A
102
}
102
{ACAD_XDICTIONARY
360
446
102
}
330
2A
100
AcDbVisualStyle
  2
Basic
 70
     7
 71
     1
 72
     0
 73
     1
 90
        0
 40
0.6
 41
30.0
 62
     5
 63
     7
421
 16777215
 74
     0
 91
        4
 64
     7
 65
   257
 75
     1
175
     1
 42
1.0
 92
        8
 66
     7
 43
1.0
 76
     1
 77
     6
 78
     2
 67
     7
 79
     5
170
     0
171
     0
290
     0
174
     0
 93
        1
 44
0.0
173
     0
291
     1
 45
0.0
  0
VISUALSTYLE
  5
36
102
{ACAD_REACTORS
330
2A
102
}
102
{ACAD_XDICTIONARY
360
44E
102
}
330
2A
100
AcDbVisualStyle
  2
Brighten
 70
    12
 71
     2
 72
     2
 73
     0
 90
        0
 40
0.6
 41
30.0
 62
     5
 63
     7
421
 16777215
 74
     1
 91
        4
 64
     7
 65
   257
 75
     1
175
     1
 42
1.0
 92
        8
 66
     7
 43
1.0
 76
     1
 77
     6
 78
     2
 67
     7
 79
     5
170
     0
171
     0
290
     0
174
     0
 93
        1
 44
50.0
173
     0
291
     1
 45
0.0
  0
VISUALSTYLE
  5
3A
102
{ACAD_REACTORS
330
2A
102
}
102
{ACAD_XDICTIONARY
360
456
102
}
330
2A
100
AcDbVisualStyle
  2
ColorChange
 70
    16
 71
     2
 72
     2
 73
     3
 90
        0
 40
0.6
 41
30.0
 62
     5
 63
     8
421
  8421504
 74
     1
 91
        4
 64
     7
 65
   257
 75
     1
175
     1
 42
1.0
 92
        8
 66
     8
424
  8421504
 43
1.0
 76
     1
 77
     6
 78
     2
 67
     7
 79
     5
170
     0
171
     0
290
     0
174
     0
 93
        1
 44
0.0
173
     0
291
     1
 45
0.0
  0
VISUALSTYLE
  5
34
102
{ACAD_REACTORS
330
2A
102
}
102
{ACAD_XDICTIONARY
360
44A
102
}
330
2A
100
AcDbVisualStyle
  2
Conceptual
 70
     9
 71
     3
 72
     2
 73
     0
 90
        0
 40
0.6
 41
30.0
 62
     5
 63
     7
421
 16777215
 74
     2
 91
        2
 64
     7
 65
   257
 75
     1
175
     1
 42
179.0
 92
        8
 66
     7
 43
1.0
 76
     1
 77
     6
 78
     2
 67
     7
 79
     3
170
     0
171
     0
290
     0
174
     0
 93
        1
 44
0.0
173
     0
291
     0
 45
0.0
  0
VISUALSTYLE
  5
35
102
{ACAD_REACTORS
330
2A
102
}
102
{ACAD_XDICTIONARY
360
44C
102
}
330
2A
100
AcDbVisualStyle
  2
Dim
 70
    11
 71
     2
 72
     2
 73
     0
 90
        0
 40
0.6
 41
30.0
 62
     5
 63
     7
421
 16777215
 74
     1
 91
        4
 64
     7
 65
   257
 75
     1
175
     1
 42
1.0
 92
        8
 66
     7
 43
1.0
 76
     1
 77
     6
 78
     2
 67
     7
 79
     5
170
     0
171
     0
290
     0
174
     0
 93
        1
 44
-50.0
173
     0
291
     1
 45
0.0
  0
VISUALSTYLE
  5
3D
102
{ACAD_REACTORS
330
2A
102
}
102
{ACAD_XDICTIONARY
360
45C
102
}
330
2A
100
AcDbVisualStyle
  2
EdgeColorOff
 70
    22
 71
     2
 72
     2
 73
     0
 90
        0
 40
0.6
 41
30.0
 62
     5
 63
     7
421
 16777215
 74
     1
 91
        4
 64
     7
 65
   257
 75
     1
175
     1
 42
1.0
 92
        8
 66
     7
 43
1.0
 76
     1
 77
     6
 78
     2
 67
     7
 79
     5
170
     0
171
     0
290
     0
174
     0
 93
        1
 44
0.0
173
     0
291
     1
 45
0.0
  0
VISUALSTYLE
  5
39
102
{ACAD_REACTORS
330
2A
102
}
102
{ACAD_XDICTIONARY
360
454
102
}
330
2A
100
AcDbVisualStyle
  2
Facepattern
 70
    15
 71
     2
 72
     2
 73
     0
 90
        0
 40
0.6
 41
30.0
 62
     5
 63
     7
421
 16777215
 74
     1
 91
        4
 64
     7
 65
   257
 75
     1
175
     1
 42
1.0
 92
        8
 66
     7
 43
1.0
 76
     1
 77
     6
 78
     2
 67
     7
 79
     5
170
     0
171
     0
290
     0
174
     0
 93
        1
 44
0.0
173
     0
291
     1
 45
0.0
  0
VISUALSTYLE
  5
2B
102
{ACAD_REACTORS
330
2A
102
}
102
{ACAD_XDICTIONARY
360
438
102
}
330
2A
100
AcDbVisualStyle
  2
Flat
 70
     0
 71
     2
 72
     1
 73
     1
 90
        2
 40
0.6
 41
30.0
 62
     5
 63
     7
421
 16777215
 74
     0
 91
        0
 64
     7
 65
   257
 75
     1
175
     1
 42
1.0
 92
        8
 66
     7
 43
1.0
 76
     1
 77
     6
 78
     2
 67
     7
 79
     5
170
     0
171
     0
290
     0
174
     0
 93
       13
 44
0.0
173
     0
291
     1
 45
0.0
  0
VISUALSTYLE
  5
2C
102
{ACAD_REACTORS
330
2A
102
}
102
{ACAD_XDICTIONARY
360
43A
102
}
330
2A
100
AcDbVisualStyle
  2
FlatWithEdges
 70
     1
 71
     2
 72
     1
 73
     1
 90
        2
 40
0.6
 41
30.0
 62
     5
 63
     7
421
 16777215
 74
     1
 91
        0
 64
     7
 65
   257
 75
     1
175
     1
 42
1.0
 92
        0
 66
   257
 43
1.0
 76
     1
 77
     6
 78
     2
 67
     7
 79
     5
170
     0
171
     0
290
     0
174
     0
 93
       13
 44
0.0
173
     0
291
     1
 45
0.0
  0
VISUALSTYLE
  5
2D
102
{ACAD_REACTORS
330
2A
102
}
102
{ACAD_XDICTIONARY
360
43C
102
}
330
2A
100
AcDbVisualStyle
  2
Gouraud
 70
     2
 71
     2
 72
     2
 73
     1
 90
        2
 40
0.6
 41
30.0
 62
     5
 63
     7
421
 16777215
 74
     0
 91
        0
 64
     7
 65
   257
 75
     1
175
     1
 42
1.0
 92
        0
 66
     7
 43
1.0
 76
     1
 77
     6
 78
     2
 67
     7
 79
     5
170
     0
171
     0
290
     0
174
     0
 93
       13
 44
0.0
173
     0
291
     1
 45
0.0
  0
VISUALSTYLE
  5
2E
102
{ACAD_REACTORS
330
2A
102
}
102
{ACAD_XDICTIONARY
360
43E
102
}
330
2A
100
AcDbVisualStyle
  2
GouraudWithEdges
 70
     3
 71
     2
 72
     2
 73
     1
 90
        2
 40
0.6
 41
30.0
 62
     5
 63
     7
421
 16777215
 74
     1
 91
        0
 64
     7
 65
   257
 75
     1
175
     1
 42
1.0
 92
        0
 66
   257
 43
1.0
 76
     1
 77
     6
 78
     2
 67
     7
 79
     5
170
     0
171
     0
290
     0
174
     0
 93
       13
 44
0.0
173
     0
291
     1
 45
0.0
  0
VISUALSTYLE
  5
31
102
{ACAD_REACTORS
330
2A
102
}
102
{ACAD_XDICTIONARY
360
444
102
}
330
2A
100
AcDbVisualStyle
  2
Hidden
 70
     6
 71
     1
 72
     2
 73
     2
 90
        0
 40
0.6
 41
30.0
 62
     5
 63
     7
421
 16777215
 74
     2
 91
        2
 64
     7
 65
   257
 75
     2
175
     1
 42
40.0
 92
        0
 66
   257
 43
1.0
 76
     1
 77
     6
 78
     2
 67
     7
 79
     3
170
     0
171
     0
290
     0
174
     0
 93
        1
 44
0.0
173
     0
291
     0
 45
0.0
  0
VISUALSTYLE
  5
3B
102
{ACAD_REACTORS
330
2A
102
}
102
{ACAD_XDICTIONARY
360
458
102
}
330
2A
100
AcDbVisualStyle
  2
JitterOff
 70
    20
 71
     2
 72
     2
 73
     0
 90
        0
 40
0.6
 41
30.0
 62
     5
 63
     7
421
 16777215
 74
     1
 91
        4
 64
     7
 65
   257
 75
     1
175
     1
 42
1.0
 92
       10
 66
     7
 43
1.0
 76
     1
 77
     6
 78
     2
 67
     7
 79
     5
170
     0
171
     0
290
     0
174
     0
 93
        1
 44
0.0
173
     0
291
     1
 45
0.0
  0
VISUALSTYLE
  5
38
102
{ACAD_REACTORS
330
2A
102
}
102
{ACAD_XDICTIONARY
360
452
102
}
330
2A
100
AcDbVisualStyle
  2
Linepattern
 70
    14
 71
     2
 72
     2
 73
     0
 90
        0
 40
0.6
 41
30.0
 62
     5
 63
     7
421
 16777215
 74
     1
 91
        4
 64
     7
 65
   257
 75
     7
175
     7
 42
1.0
 92
        8
 66
     7
 43
1.0
 76
     1
 77
     6
 78
     2
 67
     7
 79
     5
170
     0
171
     0
290
     0
174
     0
 93
        1
 44
0.0
173
     0
291
     1
 45
0.0
  0
VISUALSTYLE
  5
3C
102
{ACAD_REACTORS
330
2A
102
}
102
{ACAD_XDICTIONARY
360
45A
102
}
330
2A
100
AcDbVisualStyle
  2
OverhangOff
 70
    21
 71
     2
 72
     2
 73
     0
 90
        0
 40
0.6
 41
30.0
 62
     5
 63
     7
421
 16777215
 74
     1
 91
        4
 64
     7
 65
   257
 75
     1
175
     1
 42
1.0
 92
        9
 66
     7
 43
1.0
 76
     1
 77
     6
 78
     2
 67
     7
 79
     5
170
     0
171
     0
290
     0
174
     0
 93
        1
 44
0.0
173
     0
291
     1
 45
0.0
  0
VISUALSTYLE
  5
33
102
{ACAD_REACTORS
330
2A
102
}
102
{ACAD_XDICTIONARY
360
448
102
}
330
2A
100
AcDbVisualStyle
  2
Realistic
 70
     8
 71
     2
 72
     3
 73
     0
 90
        2
 40
0.6
 41
30.0
 62
     5
 63
     7
421
 16777215
 74
     0
 91
        0
 64
     7
 65
   257
 75
     1
175
     1
 42
1.0
 92
        8
 66
   257
 43
1.0
 76
     1
 77
     6
 78
     2
 67
     7
 79
     3
170
     0
171
     0
290
     0
174
     0
 93
       13
 44
0.0
173
     0
291
     0
 45
0.0
  0
VISUALSTYLE
  5
42
102
{ACAD_REACTORS
330
2A
102
}
102
{ACAD_XDICTIONARY
360
466
102
}
330
2A
100
AcDbVisualStyle
  2
Shaded
 70
    27
 71
     2
 72
     2
 73
     1
 90
        2
 40
0.6
 41
30.0
 62
     5
 63
     7
421
 16777215
 74
     0
 91
        4
 64
     7
 65
   257
 75
     1
175
     1
 42
1.0
 92
        8
 66
   257
 43
1.0
 76
     1
 77
     6
 78
     2
 67
     8
425
  7895160
 79
     3
170
     0
171
     0
290
     0
174
     0
 93
        5
 44
0.0
173
     0
291
     0
 45
0.0
  0
VISUALSTYLE
  5
41
102
{ACAD_REACTORS
330
2A
102
}
102
{ACAD_XDICTIONARY
360
464
102
}
330
2A
100
AcDbVisualStyle
  2
Shaded with edges
 70
    26
 71
     2
 72
     2
 73
     1
 90
        2
 40
0.6
 41
30.0
 62
     5
 63
     7
421
 16777215
 74
     1
 91
       10
 64
     7
 65
   257
 75
     2
175
     1
 42
1.0
 92
        8
 66
   257
 43
1.0
 76
     1
 77
     6
 78
     2
 67
     7
 79
     3
170
     0
171
     0
290
     0
174
     0
 93
        5
 44
0.0
173
     0
291
     0
 45
0.0
  0
VISUALSTYLE
  5
3E
102
{ACAD_REACTORS
330
2A
102
}
102
{ACAD_XDICTIONARY
360
45E
102
}
330
2A
100
AcDbVisualStyle
  2
Shades of Gray
 70
    23
 71
     2
 72
     2
 73
     3
 90
        0
 40
0.6
 41
30.0
 62
     5
 63
     7
421
 16777215
 74
     2
 91
        2
 64
     7
 65
     7
 75
     1
175
     1
 42
40.0
 92
        8
 66
     7
 43
1.0
 76
     1
 77
     6
 78
     2
 67
     7
 79
     3
170
     0
171
     0
290
     0
174
     0
 93
        1
 44
0.0
173
     0
291
     0
 45
0.0
  0
VISUALSTYLE
  5
3F
102
{ACAD_REACTORS
330
2A
102
}
102
{ACAD_XDICTIONARY
360
460
102
}
330
2A
100
AcDbVisualStyle
  2
Sketchy
 70
    24
 71
     1
 72
     2
 73
     2
 90
        0
 40
0.6
 41
30.0
 62
     5
 63
     7
421
 16777215
 74
     2
 91
        2
 64
     7
 65
     7
 75
     1
175
     1
 42
40.0
 92
       11
 66
     7
 43
1.0
 76
     1
 77
     6
 78
     2
 67
     7
 79
     6
170
     0
171
     0
290
     0
174
     0
 93
        1
 44
0.0
173
     0
291
     0
 45
0.0
  0
VISUALSTYLE
  5
37
102
{ACAD_REACTORS
330
2A
102
}
102
{ACAD_XDICTIONARY
360
450
102
}
330
2A
100
AcDbVisualStyle
  2
Thicken
 70
    13
 71
     2
 72
     2
 73
     0
 90
        0
 40
0.6
 41
30.0
 62
     5
 63
     7
421
 16777215
 74
     1
 91
        4
 64
     7
 65
   257
 75
     1
175
     1
 42
1.0
 92
       12
 66
     7
 43
1.0
 76
     1
 77
     6
 78
     2
 67
     7
 79
     5
170
     0
171
     0
290
     0
174
     0
 93
        1
 44
0.0
173
     0
291
     1
 45
0.0
  0
VISUALSTYLE
  5
30
102
{ACAD_REACTORS
330
2A
102
}
102
{ACAD_XDICTIONARY
360
442
102
}
330
2A
100
AcDbVisualStyle
  2
Wireframe
 70
     5
 71
     0
 72
     2
 73
     0
 90
        0
 40
0.6
 41
30.0
 62
     5
 63
     7
421
 16777215
 74
     1
 91
        4
 64
     7
 65
   257
 75
     1
175
     1
 42
1.0
 92
        0
 66
   257
 43
1.0
 76
     1
 77
     6
 78
     2
 67
     7
 79
     3
170
     0
171
     0
290
     0
174
     0
 93
        1
 44
0.0
173
     0
291
     0
 45
0.0
  0
VISUALSTYLE
  5
40
102
{ACAD_REACTORS
330
2A
102
}
102
{ACAD_XDICTIONARY
360
462
102
}
330
2A
100
AcDbVisualStyle
  2
X-Ray
 70
    25
 71
     2
 72
     2
 73
     1
 90
        1
 40
0.5
 41
30.0
 62
     5
 63
     7
421
 16777215
 74
     1
 91
        0
 64
     7
 65
   257
 75
     1
175
     1
 42
1.0
 92
        8
 66
     7
 43
1.0
 76
     1
 77
     6
 78
     2
 67
     7
 79
     3
170
     0
171
     0
290
     0
174
     0
 93
       13
 44
0.0
173
     0
291
     0
 45
0.0
  0
DICTIONARYVAR
  5
436
102
{ACAD_REACTORS
330
435
102
}
330
435
100
DictionaryVariables
280
     0
  1
1:1
  0
DICTIONARYVAR
  5
46F
102
{ACAD_REACTORS
330
435
102
}
330
435
100
DictionaryVariables
280
     0
  1
Standard
  0
DICTIONARYVAR
  5
46E
102
{ACAD_REACTORS
330
435
102
}
330
435
100
DictionaryVariables
280
     0
  1
Standard
  0
DICTIONARYVAR
  5
437
102
{ACAD_REACTORS
330
435
102
}
330
435
100
DictionaryVariables
280
     0
  1
2
  0
DICTIONARY
  5
46B
330
6C
100
AcDbDictionary
280
     1
281
     1
  3
ACAD_XREC_ROUNDTRIP
360
46C
  0
DICTIONARY
  5
468
330
6A
100
AcDbDictionary
280
     1
281
     1
  3
ACAD_ROUNDTRIP_2008_TABLESTYLE_CELLSTYLEMAP
360
469
  0
DICTIONARY
  5
440
330
2F
100
AcDbDictionary
280
     1
281
     1
  3
ACAD_XREC_ROUNDTRIP
360
441
  0
DICTIONARY
  5
446
330
32
100
AcDbDictionary
280
     1
281
     1
  3
ACAD_XREC_ROUNDTRIP
360
447
  0
DICTIONARY
  5
44E
330
36
100
AcDbDictionary
280
     1
281
     1
  3
ACAD_XREC_ROUNDTRIP
360
44F
  0
DICTIONARY
  5
456
330
3A
100
AcDbDictionary
280
     1
281
     1
  3
ACAD_XREC_ROUNDTRIP
360
457
  0
DICTIONARY
  5
44A
330
34
100
AcDbDictionary
280
     1
281
     1
  3
ACAD_XREC_ROUNDTRIP
360
44B
  0
DICTIONARY
  5
44C
330
35
100
AcDbDictionary
280
     1
281
     1
  3
ACAD_XREC_ROUNDTRIP
360
44D
  0
DICTIONARY
  5
45C
330
3D
100
AcDbDictionary
280
     1
281
     1
  3
ACAD_XREC_ROUNDTRIP
360
45D
  0
DICTIONARY
  5
454
330
39
100
AcDbDictionary
280
     1
281
     1
  3
ACAD_XREC_ROUNDTRIP
360
455
  0
DICTIONARY
  5
438
330
2B
100
AcDbDictionary
280
     1
281
     1
  3
ACAD_XREC_ROUNDTRIP
360
439
  0
DICTIONARY
  5
43A
330
2C
100
AcDbDictionary
280
     1
281
     1
  3
ACAD_XREC_ROUNDTRIP
360
43B
  0
DICTIONARY
  5
43C
330
2D
100
AcDbDictionary
280
     1
281
     1
  3
ACAD_XREC_ROUNDTRIP
360
43D
  0
DICTIONARY
  5
43E
330
2E
100
AcDbDictionary
280
     1
281
     1
  3
ACAD_XREC_ROUNDTRIP
360
43F
  0
DICTIONARY
  5
444
330
31
100
AcDbDictionary
280
     1
281
     1
  3
ACAD_XREC_ROUNDTRIP
360
445
  0
DICTIONARY
  5
458
330
3B
100
AcDbDictionary
280
     1
281
     1
  3
ACAD_XREC_ROUNDTRIP
360
459
  0
DICTIONARY
  5
452
330
38
100
AcDbDictionary
280
     1
281
     1
  3
ACAD_XREC_ROUNDTRIP
360
453
  0
DICTIONARY
  5
45A
330
3C
100
AcDbDictionary
280
     1
281
     1
  3
ACAD_XREC_ROUNDTRIP
360
45B
  0
DICTIONARY
  5
448
330
33
100
AcDbDictionary
280
     1
281
     1
  3
ACAD_XREC_ROUNDTRIP
360
449
  0
DICTIONARY
  5
466
330
42
100
AcDbDictionary
280
     1
281
     1
  3
ACAD_XREC_ROUNDTRIP
360
467
  0
DICTIONARY
  5
464
330
41
100
AcDbDictionary
280
     1
281
     1
  3
ACAD_XREC_ROUNDTRIP
360
465
  0
DICTIONARY
  5
45E
330
3E
100
AcDbDictionary
280
     1
281
     1
  3
ACAD_XREC_ROUNDTRIP
360
45F
  0
DICTIONARY
  5
460
330
3F
100
AcDbDictionary
280
     1
281
     1
  3
ACAD_XREC_ROUNDTRIP
360
461
  0
DICTIONARY
  5
450
330
37
100
AcDbDictionary
280
     1
281
     1
  3
ACAD_XREC_ROUNDTRIP
360
451
  0
DICTIONARY
  5
442
330
30
100
AcDbDictionary
280
     1
281
     1
  3
ACAD_XREC_ROUNDTRIP
360
443
  0
DICTIONARY
  5
462
330
40
100
AcDbDictionary
280
     1
281
     1
  3
ACAD_XREC_ROUNDTRIP
360
463
  0
XRECORD
  5
46C
102
{ACAD_REACTORS
330
46B
102
}
330
46B
100
AcDbXrecord
280
     1
102
ACAD_ROUNDTRIP_2010_MLEADER_STYLE
  0
CELLSTYLEMAP
  5
469
102
{ACAD_REACTORS
330
468
102
}
330
468
100
AcDbCellStyleMap
 90
        3
300
CELLSTYLE
  1
TABLEFORMAT_BEGIN
 90
        5
170
     1
 91
        0
 92
    32768
 62
   257
 93
        1
300
CONTENTFORMAT
  1
CONTENTFORMAT_BEGIN
 90
        0
 91
        0
 92
        4
 93
        0
300

 40
0.0
140
1.0
 94
        5
 62
     0
340
11
144
6.0
309
CONTENTFORMAT_END
171
     1
301
MARGIN
  1
CELLMARGIN_BEGIN
 40
1.5
 40
1.5
 40
1.5
 40
1.5
 40
1.5
 40
1.5
309
CELLMARGIN_END
 94
        6
 95
        1
302
GRIDFORMAT
  1
GRIDFORMAT_BEGIN
 90
        0
 91
        1
 62
     0
 92
       -2
340
14
 93
        0
 40
0.045
309
GRIDFORMAT_END
 95
        2
302
GRIDFORMAT
  1
GRIDFORMAT_BEGIN
 90
        0
 91
        1
 62
     0
 92
       -2
340
14
 93
        0
 40
0.045
309
GRIDFORMAT_END
 95
        4
302
GRIDFORMAT
  1
GRIDFORMAT_BEGIN
 90
        0
 91
        1
 62
     0
 92
       -2
340
14
 93
        0
 40
0.045
309
GRIDFORMAT_END
 95
        8
302
GRIDFORMAT
  1
GRIDFORMAT_BEGIN
 90
        0
 91
        1
 62
     0
 92
       -2
340
14
 93
        0
 40
0.045
309
GRIDFORMAT_END
 95
       16
302
GRIDFORMAT
  1
GRIDFORMAT_BEGIN
 90
        0
 91
        1
 62
     0
 92
       -2
340
14
 93
        0
 40
0.045
309
GRIDFORMAT_END
 95
       32
302
GRIDFORMAT
  1
GRIDFORMAT_BEGIN
 90
        0
 91
        1
 62
     0
 92
       -2
340
14
 93
        0
 40
0.045
309
GRIDFORMAT_END
309
TABLEFORMAT_END
  1
CELLSTYLE_BEGIN
 90
        1
 91
        1
300
_TITLE
309
CELLSTYLE_END
300
CELLSTYLE
  1
TABLEFORMAT_BEGIN
 90
        5
170
     1
 91
        0
 92
        0
 62
   257
 93
        1
300
CONTENTFORMAT
  1
CONTENTFORMAT_BEGIN
 90
        0
 91
        0
 92
        4
 93
        0
300

 40
0.0
140
1.0
 94
        5
 62
     0
340
11
144
4.5
309
CONTENTFORMAT_END
171
     1
301
MARGIN
  1
CELLMARGIN_BEGIN
 40
1.5
 40
1.5
 40
1.5
 40
1.5
 40
1.5
 40
1.5
309
CELLMARGIN_END
 94
        6
 95
        1
302
GRIDFORMAT
  1
GRIDFORMAT_BEGIN
 90
        0
 91
        1
 62
     0
 92
       -2
340
14
 93
        0
 40
0.045
309
GRIDFORMAT_END
 95
        2
302
GRIDFORMAT
  1
GRIDFORMAT_BEGIN
 90
        0
 91
        1
 62
     0
 92
       -2
340
14
 93
        0
 40
0.045
309
GRIDFORMAT_END
 95
        4
302
GRIDFORMAT
  1
GRIDFORMAT_BEGIN
 90
        0
 91
        1
 62
     0
 92
       -2
340
14
 93
        0
 40
0.045
309
GRIDFORMAT_END
 95
        8
302
GRIDFORMAT
  1
GRIDFORMAT_BEGIN
 90
        0
 91
        1
 62
     0
 92
       -2
340
14
 93
        0
 40
0.045
309
GRIDFORMAT_END
 95
       16
302
GRIDFORMAT
  1
GRIDFORMAT_BEGIN
 90
        0
 91
        1
 62
     0
 92
       -2
340
14
 93
        0
 40
0.045
309
GRIDFORMAT_END
 95
       32
302
GRIDFORMAT
  1
GRIDFORMAT_BEGIN
 90
        0
 91
        1
 62
     0
 92
       -2
340
14
 93
        0
 40
0.045
309
GRIDFORMAT_END
309
TABLEFORMAT_END
  1
CELLSTYLE_BEGIN
 90
        2
 91
        1
300
_HEADER
309
CELLSTYLE_END
300
CELLSTYLE
  1
TABLEFORMAT_BEGIN
 90
        5
170
     1
 91
        0
 92
        0
 62
   257
 93
        1
300
CONTENTFORMAT
  1
CONTENTFORMAT_BEGIN
 90
        0
 91
        0
 92
        4
 93
        0
300

 40
0.0
140
1.0
 94
        2
 62
     0
340
11
144
4.5
309
CONTENTFORMAT_END
171
     1
301
MARGIN
  1
CELLMARGIN_BEGIN
 40
1.5
 40
1.5
 40
1.5
 40
1.5
 40
1.5
 40
1.5
309
CELLMARGIN_END
 94
        6
 95
        1
302
GRIDFORMAT
  1
GRIDFORMAT_BEGIN
 90
        0
 91
        1
 62
     0
 92
       -2
340
14
 93
        0
 40
0.045
309
GRIDFORMAT_END
 95
        2
302
GRIDFORMAT
  1
GRIDFORMAT_BEGIN
 90
        0
 91
        1
 62
     0
 92
       -2
340
14
 93
        0
 40
0.045
309
GRIDFORMAT_END
 95
        4
302
GRIDFORMAT
  1
GRIDFORMAT_BEGIN
 90
        0
 91
        1
 62
     0
 92
       -2
340
14
 93
        0
 40
0.045
309
GRIDFORMAT_END
 95
        8
302
GRIDFORMAT
  1
GRIDFORMAT_BEGIN
 90
        0
 91
        1
 62
     0
 92
       -2
340
14
 93
        0
 40
0.045
309
GRIDFORMAT_END
 95
       16
302
GRIDFORMAT
  1
GRIDFORMAT_BEGIN
 90
        0
 91
        1
 62
     0
 92
       -2
340
14
 93
        0
 40
0.045
309
GRIDFORMAT_END
 95
       32
302
GRIDFORMAT
  1
GRIDFORMAT_BEGIN
 90
        0
 91
        1
 62
     0
 92
       -2
340
14
 93
        0
 40
0.045
309
GRIDFORMAT_END
309
TABLEFORMAT_END
  1
CELLSTYLE_BEGIN
 90
        3
 91
        2
300
_DATA
309
CELLSTYLE_END
  0
XRECORD
  5
441
102
{ACAD_REACTORS
330
440
102
}
330
440
100
AcDbXrecord
280
     1
102
RTVSPropertyOp0
 70
     1
102
RTVSPropertyOp1
 70
     1
102
RTVSPropertyOp2
 70
     1
102
RTVSPropertyOp3
 70
     1
102
RTVSPropertyOp4
 70
     1
102
RTVSPropertyOp5
 70
     1
102
RTVSPropertyOp6
 70
     1
102
RTVSPropertyOp7
 70
     1
102
RTVSPropertyOp8
 70
     1
102
RTVSPropertyOp9
 70
     1
102
RTVSPropertyOp10
 70
     1
102
RTVSPropertyOp11
 70
     1
102
RTVSPropertyOp12
 70
     1
102
RTVSPropertyOp13
 70
     1
102
RTVSPropertyOp14
 70
     1
102
RTVSPropertyOp15
 70
     1
102
RTVSPropertyOp16
 70
     1
102
RTVSPropertyOp17
 70
     1
102
RTVSPropertyOp18
 70
     1
102
RTVSPropertyOp19
 70
     1
102
RTVSPropertyOp20
 70
     1
102
RTVSPropertyOp21
 70
     1
102
RTVSPropertyOp22
 70
     1
102
RTVSPropertyOp23
 70
     1
102
RTVSPropertyOp24
 70
     1
102
RTVSPropertyOp25
 70
     1
102
RTVSPropertyOp26
 70
     1
102
RTVSPropertyOp27
 70
     1
102
RTVSPropertyOp28
 70
     1
102
RTVSPropertyOp29
 70
     1
102
RTVSPropertyOp30
 70
     1
102
RTVSPropertyOp31
 70
     1
102
RTVSPropertyOp32
 70
     1
102
RTVSPropertyOp33
 70
     1
102
RTVSPropertyOp34
 70
     1
102
RTVSPropertyOp35
 70
     1
102
RTVSPropertyOp36
 70
     1
102
RTVSPropertyOp37
 70
     1
102
RTVSPropertyOp38
 70
     1
102
RTVSPropertyOp39
 70
     1
102
RTVSPropertyOp40
 70
     1
102
RTVSPropertyOp41
 70
     1
102
RTVSPropertyOp42
 70
     1
102
RTVSPropertyOp43
 70
     1
102
RTVSPropertyOp44
 70
     1
102
RTVSPropertyOp45
 70
     1
102
RTVSPropertyOp46
 70
     1
102
RTVSPropertyOp47
 70
     1
102
RTVSPropertyOp48
 70
     1
102
RTVSPropertyOp49
 70
     1
102
RTVSPropertyOp50
 70
     1
102
RTVSPropertyOp51
 70
     0
102
RTVSPropertyOp52
 70
     0
102
RTVSPropertyOp53
 70
     1
102
RTVSPropertyOp54
 70
     1
102
RTVSPropertyOp55
 70
     1
102
RTVSPropertyOp56
 70
     1
102
RTVSPropertyOp57
 70
     1
102
RTVSPost2010Prop28
280
     1
102
RTVSPost2010PropOp28
 70
     1
102
RTVSPost2010Prop29
280
     1
102
RTVSPost2010PropOp29
 70
     1
102
RTVSPost2010Prop30
280
     0
102
RTVSPost2010PropOp30
 70
     1
102
RTVSPost2010Prop31
280
     0
102
RTVSPost2010PropOp31
 70
     1
102
RTVSPost2010Prop32
280
     0
102
RTVSPost2010PropOp32
 70
     1
102
RTVSPost2010Prop33
280
     0
102
RTVSPost2010PropOp33
 70
     1
102
RTVSPost2010Prop34
280
     0
102
RTVSPost2010PropOp34
 70
     1
102
RTVSPost2010Prop35
280
     0
102
RTVSPost2010PropOp35
 70
     1
102
RTVSPost2010Prop36
280
     0
102
RTVSPost2010PropOp36
 70
     1
102
RTVSPost2010Prop37
 90
       50
102
RTVSPost2010PropOp37
 70
     1
102
RTVSPost2010Prop38
140
0.0
102
RTVSPost2010PropOp38
 70
     1
102
RTVSPost2010Prop39
140
1.0
102
RTVSPost2010PropOp39
 70
     1
102
RTVSPost2010Prop40
 90
        0
102
RTVSPost2010PropOp40
 70
     1
102
RTVSPost2010Prop41ColorIndex
 90
       18
102
RTVSPost2010Prop41ColorRGB
 90
        0
102
RTVSPost2010PropOp41
 70
     1
102
RTVSPost2010Prop42
 90
       50
102
RTVSPost2010PropOp42
 70
     1
102
RTVSPost2010Prop43
 90
        3
102
RTVSPost2010PropOp43
 70
     1
102
RTVSPost2010Prop44ColorIndex
 90
        5
102
RTVSPost2010Prop44ColorRGB
 90
      255
102
RTVSPost2010PropOp44
 70
     1
102
RTVSPost2010Prop45
280
     0
102
RTVSPost2010PropOp45
 70
     1
102
RTVSPost2010Prop46
 90
       50
102
RTVSPost2010PropOp46
 70
     1
102
RTVSPost2010Prop47
 90
       50
102
RTVSPost2010PropOp47
 70
     1
102
RTVSPost2010Prop48
 90
       50
102
RTVSPost2010PropOp48
 70
     1
102
RTVSPost2010Prop49
280
     0
102
RTVSPost2010PropOp49
 70
     1
102
RTVSPost2010Prop50
 90
       50
102
RTVSPost2010PropOp50
 70
     1
102
RTVSPost2010Prop51ColorIndex
 90
      256
102
RTVSPost2010Prop51ColorRGB
 90
-16777216
102
RTVSPost2010PropOp51
 70
     0
102
RTVSPost2010Prop52
140
1.0
102
RTVSPost2010PropOp52
 70
     0
102
RTVSPost2010Prop53
 90
        2
102
RTVSPost2010PropOp53
 70
     1
102
RTVSPost2010Prop54
  1
strokes_ogs.tif
102
RTVSPost2010PropOp54
 70
     1
102
RTVSPost2010Prop55
280
     0
102
RTVSPost2010PropOp55
 70
     1
102
RTVSPost2010Prop56
140
1.0
102
RTVSPost2010PropOp56
 70
     1
102
RTVSPost2010Prop57
140
1.0
102
RTVSPost2010PropOp57
 70
     1
  0
XRECORD
  5
447
102
{ACAD_REACTORS
330
446
102
}
330
446
100
AcDbXrecord
280
     1
102
RTVSPropertyOp0
 70
     1
102
RTVSPropertyOp1
 70
     1
102
RTVSPropertyOp2
 70
     1
102
RTVSPropertyOp3
 70
     1
102
RTVSPropertyOp4
 70
     1
102
RTVSPropertyOp5
 70
     1
102
RTVSPropertyOp6
 70
     1
102
RTVSPropertyOp7
 70
     1
102
RTVSPropertyOp8
 70
     1
102
RTVSPropertyOp9
 70
     1
102
RTVSPropertyOp10
 70
     1
102
RTVSPropertyOp11
 70
     1
102
RTVSPropertyOp12
 70
     1
102
RTVSPropertyOp13
 70
     1
102
RTVSPropertyOp14
 70
     1
102
RTVSPropertyOp15
 70
     1
102
RTVSPropertyOp16
 70
     1
102
RTVSPropertyOp17
 70
     1
102
RTVSPropertyOp18
 70
     1
102
RTVSPropertyOp19
 70
     1
102
RTVSPropertyOp20
 70
     1
102
RTVSPropertyOp21
 70
     1
102
RTVSPropertyOp22
 70
     1
102
RTVSPropertyOp23
 70
     1
102
RTVSPropertyOp24
 70
     1
102
RTVSPropertyOp25
 70
     1
102
RTVSPropertyOp26
 70
     1
102
RTVSPropertyOp27
 70
     1
102
RTVSPropertyOp28
 70
     1
102
RTVSPropertyOp29
 70
     1
102
RTVSPropertyOp30
 70
     1
102
RTVSPropertyOp31
 70
     1
102
RTVSPropertyOp32
 70
     1
102
RTVSPropertyOp33
 70
     1
102
RTVSPropertyOp34
 70
     1
102
RTVSPropertyOp35
 70
     1
102
RTVSPropertyOp36
 70
     1
102
RTVSPropertyOp37
 70
     1
102
RTVSPropertyOp38
 70
     1
102
RTVSPropertyOp39
 70
     1
102
RTVSPropertyOp40
 70
     1
102
RTVSPropertyOp41
 70
     1
102
RTVSPropertyOp42
 70
     1
102
RTVSPropertyOp43
 70
     1
102
RTVSPropertyOp44
 70
     1
102
RTVSPropertyOp45
 70
     1
102
RTVSPropertyOp46
 70
     1
102
RTVSPropertyOp47
 70
     1
102
RTVSPropertyOp48
 70
     1
102
RTVSPropertyOp49
 70
     1
102
RTVSPropertyOp50
 70
     1
102
RTVSPropertyOp51
 70
     0
102
RTVSPropertyOp52
 70
     0
102
RTVSPropertyOp53
 70
     1
102
RTVSPropertyOp54
 70
     1
102
RTVSPropertyOp55
 70
     1
102
RTVSPropertyOp56
 70
     1
102
RTVSPropertyOp57
 70
     1
102
RTVSPost2010Prop28
280
     0
102
RTVSPost2010PropOp28
 70
     1
102
RTVSPost2010Prop29
280
     1
102
RTVSPost2010PropOp29
 70
     1
102
RTVSPost2010Prop30
280
     1
102
RTVSPost2010PropOp30
 70
     1
102
RTVSPost2010Prop31
280
     0
102
RTVSPost2010PropOp31
 70
     1
102
RTVSPost2010Prop32
280
     0
102
RTVSPost2010PropOp32
 70
     1
102
RTVSPost2010Prop33
280
     0
102
RTVSPost2010PropOp33
 70
     1
102
RTVSPost2010Prop34
280
     0
102
RTVSPost2010PropOp34
 70
     1
102
RTVSPost2010Prop35
280
     0
102
RTVSPost2010PropOp35
 70
     1
102
RTVSPost2010Prop36
280
     0
102
RTVSPost2010PropOp36
 70
     1
102
RTVSPost2010Prop37
 90
       50
102
RTVSPost2010PropOp37
 70
     1
102
RTVSPost2010Prop38
140
0.0
102
RTVSPost2010PropOp38
 70
     1
102
RTVSPost2010Prop39
140
1.0
102
RTVSPost2010PropOp39
 70
     1
102
RTVSPost2010Prop40
 90
        0
102
RTVSPost2010PropOp40
 70
     1
102
RTVSPost2010Prop41ColorIndex
 90
       18
102
RTVSPost2010Prop41ColorRGB
 90
        0
102
RTVSPost2010PropOp41
 70
     1
102
RTVSPost2010Prop42
 90
       50
102
RTVSPost2010PropOp42
 70
     1
102
RTVSPost2010Prop43
 90
        3
102
RTVSPost2010PropOp43
 70
     1
102
RTVSPost2010Prop44ColorIndex
 90
        5
102
RTVSPost2010Prop44ColorRGB
 90
      255
102
RTVSPost2010PropOp44
 70
     1
102
RTVSPost2010Prop45
280
     0
102
RTVSPost2010PropOp45
 70
     1
102
RTVSPost2010Prop46
 90
       50
102
RTVSPost2010PropOp46
 70
     1
102
RTVSPost2010Prop47
 90
       50
102
RTVSPost2010PropOp47
 70
     1
102
RTVSPost2010Prop48
 90
       50
102
RTVSPost2010PropOp48
 70
     1
102
RTVSPost2010Prop49
280
     0
102
RTVSPost2010PropOp49
 70
     1
102
RTVSPost2010Prop50
 90
       50
102
RTVSPost2010PropOp50
 70
     1
102
RTVSPost2010Prop51ColorIndex
 90
      256
102
RTVSPost2010Prop51ColorRGB
 90
-16777216
102
RTVSPost2010PropOp51
 70
     0
102
RTVSPost2010Prop52
140
1.0
102
RTVSPost2010PropOp52
 70
     0
102
RTVSPost2010Prop53
 90
        2
102
RTVSPost2010PropOp53
 70
     1
102
RTVSPost2010Prop54
  1
strokes_ogs.tif
102
RTVSPost2010PropOp54
 70
     1
102
RTVSPost2010Prop55
280
     0
102
RTVSPost2010PropOp55
 70
     1
102
RTVSPost2010Prop56
140
1.0
102
RTVSPost2010PropOp56
 70
     1
102
RTVSPost2010Prop57
140
1.0
102
RTVSPost2010PropOp57
 70
     1
  0
XRECORD
  5
44F
102
{ACAD_REACTORS
330
44E
102
}
330
44E
100
AcDbXrecord
280
     1
102
RTVSPropertyOp0
 70
     1
102
RTVSPropertyOp1
 70
     1
102
RTVSPropertyOp2
 70
     1
102
RTVSPropertyOp3
 70
     1
102
RTVSPropertyOp4
 70
     1
102
RTVSPropertyOp5
 70
     1
102
RTVSPropertyOp6
 70
     1
102
RTVSPropertyOp7
 70
     1
102
RTVSPropertyOp8
 70
     1
102
RTVSPropertyOp9
 70
     1
102
RTVSPropertyOp10
 70
     1
102
RTVSPropertyOp11
 70
     1
102
RTVSPropertyOp12
 70
     1
102
RTVSPropertyOp13
 70
     1
102
RTVSPropertyOp14
 70
     1
102
RTVSPropertyOp15
 70
     1
102
RTVSPropertyOp16
 70
     1
102
RTVSPropertyOp17
 70
     1
102
RTVSPropertyOp18
 70
     1
102
RTVSPropertyOp19
 70
     1
102
RTVSPropertyOp20
 70
     1
102
RTVSPropertyOp21
 70
     1
102
RTVSPropertyOp22
 70
     1
102
RTVSPropertyOp23
 70
     1
102
RTVSPropertyOp24
 70
     1
102
RTVSPropertyOp25
 70
     1
102
RTVSPropertyOp26
 70
     1
102
RTVSPropertyOp27
 70
     1
102
RTVSPropertyOp28
 70
     1
102
RTVSPropertyOp29
 70
     1
102
RTVSPropertyOp30
 70
     1
102
RTVSPropertyOp31
 70
     1
102
RTVSPropertyOp32
 70
     1
102
RTVSPropertyOp33
 70
     1
102
RTVSPropertyOp34
 70
     1
102
RTVSPropertyOp35
 70
     1
102
RTVSPropertyOp36
 70
     1
102
RTVSPropertyOp37
 70
     1
102
RTVSPropertyOp38
 70
     1
102
RTVSPropertyOp39
 70
     1
102
RTVSPropertyOp40
 70
     1
102
RTVSPropertyOp41
 70
     1
102
RTVSPropertyOp42
 70
     1
102
RTVSPropertyOp43
 70
     1
102
RTVSPropertyOp44
 70
     1
102
RTVSPropertyOp45
 70
     1
102
RTVSPropertyOp46
 70
     1
102
RTVSPropertyOp47
 70
     1
102
RTVSPropertyOp48
 70
     1
102
RTVSPropertyOp49
 70
     1
102
RTVSPropertyOp50
 70
     1
102
RTVSPropertyOp51
 70
     0
102
RTVSPropertyOp52
 70
     0
102
RTVSPropertyOp53
 70
     1
102
RTVSPropertyOp54
 70
     1
102
RTVSPropertyOp55
 70
     1
102
RTVSPropertyOp56
 70
     1
102
RTVSPropertyOp57
 70
     1
102
RTVSPost2010Prop28
280
     0
102
RTVSPost2010PropOp28
 70
     1
102
RTVSPost2010Prop29
280
     1
102
RTVSPost2010PropOp29
 70
     1
102
RTVSPost2010Prop30
280
     1
102
RTVSPost2010PropOp30
 70
     1
102
RTVSPost2010Prop31
280
     0
102
RTVSPost2010PropOp31
 70
     1
102
RTVSPost2010Prop32
280
     0
102
RTVSPost2010PropOp32
 70
     1
102
RTVSPost2010Prop33
280
     0
102
RTVSPost2010PropOp33
 70
     1
102
RTVSPost2010Prop34
280
     0
102
RTVSPost2010PropOp34
 70
     1
102
RTVSPost2010Prop35
280
     0
102
RTVSPost2010PropOp35
 70
     1
102
RTVSPost2010Prop36
280
     0
102
RTVSPost2010PropOp36
 70
     1
102
RTVSPost2010Prop37
 90
       50
102
RTVSPost2010PropOp37
 70
     1
102
RTVSPost2010Prop38
140
0.0
102
RTVSPost2010PropOp38
 70
     1
102
RTVSPost2010Prop39
140
1.0
102
RTVSPost2010PropOp39
 70
     1
102
RTVSPost2010Prop40
 90
        0
102
RTVSPost2010PropOp40
 70
     1
102
RTVSPost2010Prop41ColorIndex
 90
       18
102
RTVSPost2010Prop41ColorRGB
 90
        0
102
RTVSPost2010PropOp41
 70
     1
102
RTVSPost2010Prop42
 90
       50
102
RTVSPost2010PropOp42
 70
     1
102
RTVSPost2010Prop43
 90
        3
102
RTVSPost2010PropOp43
 70
     1
102
RTVSPost2010Prop44ColorIndex
 90
        5
102
RTVSPost2010Prop44ColorRGB
 90
      255
102
RTVSPost2010PropOp44
 70
     1
102
RTVSPost2010Prop45
280
     0
102
RTVSPost2010PropOp45
 70
     1
102
RTVSPost2010Prop46
 90
       50
102
RTVSPost2010PropOp46
 70
     1
102
RTVSPost2010Prop47
 90
       50
102
RTVSPost2010PropOp47
 70
     1
102
RTVSPost2010Prop48
 90
       50
102
RTVSPost2010PropOp48
 70
     1
102
RTVSPost2010Prop49
280
     0
102
RTVSPost2010PropOp49
 70
     1
102
RTVSPost2010Prop50
 90
       50
102
RTVSPost2010PropOp50
 70
     1
102
RTVSPost2010Prop51ColorIndex
 90
      256
102
RTVSPost2010Prop51ColorRGB
 90
-16777216
102
RTVSPost2010PropOp51
 70
     0
102
RTVSPost2010Prop52
140
1.0
102
RTVSPost2010PropOp52
 70
     0
102
RTVSPost2010Prop53
 90
        2
102
RTVSPost2010PropOp53
 70
     1
102
RTVSPost2010Prop54
  1
strokes_ogs.tif
102
RTVSPost2010PropOp54
 70
     1
102
RTVSPost2010Prop55
280
     0
102
RTVSPost2010PropOp55
 70
     1
102
RTVSPost2010Prop56
140
1.0
102
RTVSPost2010PropOp56
 70
     1
102
RTVSPost2010Prop57
140
1.0
102
RTVSPost2010PropOp57
 70
     1
  0
XRECORD
  5
457
102
{ACAD_REACTORS
330
456
102
}
330
456
100
AcDbXrecord
280
     1
102
RTVSPropertyOp0
 70
     1
102
RTVSPropertyOp1
 70
     1
102
RTVSPropertyOp2
 70
     1
102
RTVSPropertyOp3
 70
     1
102
RTVSPropertyOp4
 70
     1
102
RTVSPropertyOp5
 70
     1
102
RTVSPropertyOp6
 70
     1
102
RTVSPropertyOp7
 70
     1
102
RTVSPropertyOp8
 70
     1
102
RTVSPropertyOp9
 70
     1
102
RTVSPropertyOp10
 70
     1
102
RTVSPropertyOp11
 70
     1
102
RTVSPropertyOp12
 70
     1
102
RTVSPropertyOp13
 70
     1
102
RTVSPropertyOp14
 70
     1
102
RTVSPropertyOp15
 70
     1
102
RTVSPropertyOp16
 70
     1
102
RTVSPropertyOp17
 70
     1
102
RTVSPropertyOp18
 70
     1
102
RTVSPropertyOp19
 70
     1
102
RTVSPropertyOp20
 70
     1
102
RTVSPropertyOp21
 70
     1
102
RTVSPropertyOp22
 70
     1
102
RTVSPropertyOp23
 70
     1
102
RTVSPropertyOp24
 70
     1
102
RTVSPropertyOp25
 70
     1
102
RTVSPropertyOp26
 70
     1
102
RTVSPropertyOp27
 70
     1
102
RTVSPropertyOp28
 70
     1
102
RTVSPropertyOp29
 70
     1
102
RTVSPropertyOp30
 70
     1
102
RTVSPropertyOp31
 70
     1
102
RTVSPropertyOp32
 70
     1
102
RTVSPropertyOp33
 70
     1
102
RTVSPropertyOp34
 70
     1
102
RTVSPropertyOp35
 70
     1
102
RTVSPropertyOp36
 70
     1
102
RTVSPropertyOp37
 70
     1
102
RTVSPropertyOp38
 70
     1
102
RTVSPropertyOp39
 70
     1
102
RTVSPropertyOp40
 70
     1
102
RTVSPropertyOp41
 70
     1
102
RTVSPropertyOp42
 70
     1
102
RTVSPropertyOp43
 70
     1
102
RTVSPropertyOp44
 70
     1
102
RTVSPropertyOp45
 70
     1
102
RTVSPropertyOp46
 70
     1
102
RTVSPropertyOp47
 70
     1
102
RTVSPropertyOp48
 70
     1
102
RTVSPropertyOp49
 70
     1
102
RTVSPropertyOp50
 70
     1
102
RTVSPropertyOp51
 70
     0
102
RTVSPropertyOp52
 70
     0
102
RTVSPropertyOp53
 70
     1
102
RTVSPropertyOp54
 70
     1
102
RTVSPropertyOp55
 70
     1
102
RTVSPropertyOp56
 70
     1
102
RTVSPropertyOp57
 70
     1
102
RTVSPost2010Prop28
280
     0
102
RTVSPost2010PropOp28
 70
     1
102
RTVSPost2010Prop29
280
     1
102
RTVSPost2010PropOp29
 70
     1
102
RTVSPost2010Prop30
280
     1
102
RTVSPost2010PropOp30
 70
     1
102
RTVSPost2010Prop31
280
     0
102
RTVSPost2010PropOp31
 70
     1
102
RTVSPost2010Prop32
280
     0
102
RTVSPost2010PropOp32
 70
     1
102
RTVSPost2010Prop33
280
     0
102
RTVSPost2010PropOp33
 70
     1
102
RTVSPost2010Prop34
280
     0
102
RTVSPost2010PropOp34
 70
     1
102
RTVSPost2010Prop35
280
     0
102
RTVSPost2010PropOp35
 70
     1
102
RTVSPost2010Prop36
280
     0
102
RTVSPost2010PropOp36
 70
     1
102
RTVSPost2010Prop37
 90
       50
102
RTVSPost2010PropOp37
 70
     1
102
RTVSPost2010Prop38
140
0.0
102
RTVSPost2010PropOp38
 70
     1
102
RTVSPost2010Prop39
140
1.0
102
RTVSPost2010PropOp39
 70
     1
102
RTVSPost2010Prop40
 90
        0
102
RTVSPost2010PropOp40
 70
     1
102
RTVSPost2010Prop41ColorIndex
 90
       18
102
RTVSPost2010Prop41ColorRGB
 90
        0
102
RTVSPost2010PropOp41
 70
     1
102
RTVSPost2010Prop42
 90
       50
102
RTVSPost2010PropOp42
 70
     1
102
RTVSPost2010Prop43
 90
        3
102
RTVSPost2010PropOp43
 70
     1
102
RTVSPost2010Prop44ColorIndex
 90
        5
102
RTVSPost2010Prop44ColorRGB
 90
      255
102
RTVSPost2010PropOp44
 70
     1
102
RTVSPost2010Prop45
280
     0
102
RTVSPost2010PropOp45
 70
     1
102
RTVSPost2010Prop46
 90
       50
102
RTVSPost2010PropOp46
 70
     1
102
RTVSPost2010Prop47
 90
       50
102
RTVSPost2010PropOp47
 70
     1
102
RTVSPost2010Prop48
 90
       50
102
RTVSPost2010PropOp48
 70
     1
102
RTVSPost2010Prop49
280
     0
102
RTVSPost2010PropOp49
 70
     1
102
RTVSPost2010Prop50
 90
       50
102
RTVSPost2010PropOp50
 70
     1
102
RTVSPost2010Prop51ColorIndex
 90
      256
102
RTVSPost2010Prop51ColorRGB
 90
-16777216
102
RTVSPost2010PropOp51
 70
     0
102
RTVSPost2010Prop52
140
1.0
102
RTVSPost2010PropOp52
 70
     0
102
RTVSPost2010Prop53
 90
        2
102
RTVSPost2010PropOp53
 70
     1
102
RTVSPost2010Prop54
  1
strokes_ogs.tif
102
RTVSPost2010PropOp54
 70
     1
102
RTVSPost2010Prop55
280
     0
102
RTVSPost2010PropOp55
 70
     1
102
RTVSPost2010Prop56
140
1.0
102
RTVSPost2010PropOp56
 70
     1
102
RTVSPost2010Prop57
140
1.0
102
RTVSPost2010PropOp57
 70
     1
  0
XRECORD
  5
44B
102
{ACAD_REACTORS
330
44A
102
}
330
44A
100
AcDbXrecord
280
     1
102
RTVSPropertyOp0
 70
     1
102
RTVSPropertyOp1
 70
     1
102
RTVSPropertyOp2
 70
     1
102
RTVSPropertyOp3
 70
     1
102
RTVSPropertyOp4
 70
     1
102
RTVSPropertyOp5
 70
     1
102
RTVSPropertyOp6
 70
     1
102
RTVSPropertyOp7
 70
     1
102
RTVSPropertyOp8
 70
     1
102
RTVSPropertyOp9
 70
     1
102
RTVSPropertyOp10
 70
     1
102
RTVSPropertyOp11
 70
     1
102
RTVSPropertyOp12
 70
     1
102
RTVSPropertyOp13
 70
     1
102
RTVSPropertyOp14
 70
     1
102
RTVSPropertyOp15
 70
     1
102
RTVSPropertyOp16
 70
     1
102
RTVSPropertyOp17
 70
     1
102
RTVSPropertyOp18
 70
     1
102
RTVSPropertyOp19
 70
     1
102
RTVSPropertyOp20
 70
     1
102
RTVSPropertyOp21
 70
     1
102
RTVSPropertyOp22
 70
     1
102
RTVSPropertyOp23
 70
     1
102
RTVSPropertyOp24
 70
     1
102
RTVSPropertyOp25
 70
     1
102
RTVSPropertyOp26
 70
     1
102
RTVSPropertyOp27
 70
     1
102
RTVSPropertyOp28
 70
     1
102
RTVSPropertyOp29
 70
     1
102
RTVSPropertyOp30
 70
     1
102
RTVSPropertyOp31
 70
     1
102
RTVSPropertyOp32
 70
     1
102
RTVSPropertyOp33
 70
     1
102
RTVSPropertyOp34
 70
     1
102
RTVSPropertyOp35
 70
     1
102
RTVSPropertyOp36
 70
     1
102
RTVSPropertyOp37
 70
     1
102
RTVSPropertyOp38
 70
     1
102
RTVSPropertyOp39
 70
     1
102
RTVSPropertyOp40
 70
     1
102
RTVSPropertyOp41
 70
     1
102
RTVSPropertyOp42
 70
     1
102
RTVSPropertyOp43
 70
     1
102
RTVSPropertyOp44
 70
     1
102
RTVSPropertyOp45
 70
     1
102
RTVSPropertyOp46
 70
     1
102
RTVSPropertyOp47
 70
     1
102
RTVSPropertyOp48
 70
     1
102
RTVSPropertyOp49
 70
     1
102
RTVSPropertyOp50
 70
     1
102
RTVSPropertyOp51
 70
     0
102
RTVSPropertyOp52
 70
     0
102
RTVSPropertyOp53
 70
     1
102
RTVSPropertyOp54
 70
     1
102
RTVSPropertyOp55
 70
     1
102
RTVSPropertyOp56
 70
     1
102
RTVSPropertyOp57
 70
     1
102
RTVSPost2010Prop28
280
     0
102
RTVSPost2010PropOp28
 70
     1
102
RTVSPost2010Prop29
280
     1
102
RTVSPost2010PropOp29
 70
     1
102
RTVSPost2010Prop30
280
     1
102
RTVSPost2010PropOp30
 70
     1
102
RTVSPost2010Prop31
280
     0
102
RTVSPost2010PropOp31
 70
     1
102
RTVSPost2010Prop32
280
     0
102
RTVSPost2010PropOp32
 70
     1
102
RTVSPost2010Prop33
280
     0
102
RTVSPost2010PropOp33
 70
     1
102
RTVSPost2010Prop34
280
     0
102
RTVSPost2010PropOp34
 70
     1
102
RTVSPost2010Prop35
280
     0
102
RTVSPost2010PropOp35
 70
     1
102
RTVSPost2010Prop36
280
     0
102
RTVSPost2010PropOp36
 70
     1
102
RTVSPost2010Prop37
 90
       50
102
RTVSPost2010PropOp37
 70
     1
102
RTVSPost2010Prop38
140
0.0
102
RTVSPost2010PropOp38
 70
     1
102
RTVSPost2010Prop39
140
1.0
102
RTVSPost2010PropOp39
 70
     1
102
RTVSPost2010Prop40
 90
        0
102
RTVSPost2010PropOp40
 70
     1
102
RTVSPost2010Prop41ColorIndex
 90
       18
102
RTVSPost2010Prop41ColorRGB
 90
        0
102
RTVSPost2010PropOp41
 70
     1
102
RTVSPost2010Prop42
 90
       50
102
RTVSPost2010PropOp42
 70
     1
102
RTVSPost2010Prop43
 90
        3
102
RTVSPost2010PropOp43
 70
     1
102
RTVSPost2010Prop44ColorIndex
 90
        5
102
RTVSPost2010Prop44ColorRGB
 90
      255
102
RTVSPost2010PropOp44
 70
     1
102
RTVSPost2010Prop45
280
     0
102
RTVSPost2010PropOp45
 70
     1
102
RTVSPost2010Prop46
 90
       50
102
RTVSPost2010PropOp46
 70
     1
102
RTVSPost2010Prop47
 90
       50
102
RTVSPost2010PropOp47
 70
     1
102
RTVSPost2010Prop48
 90
       50
102
RTVSPost2010PropOp48
 70
     1
102
RTVSPost2010Prop49
280
     0
102
RTVSPost2010PropOp49
 70
     1
102
RTVSPost2010Prop50
 90
       50
102
RTVSPost2010PropOp50
 70
     1
102
RTVSPost2010Prop51ColorIndex
 90
      256
102
RTVSPost2010Prop51ColorRGB
 90
-16777216
102
RTVSPost2010PropOp51
 70
     0
102
RTVSPost2010Prop52
140
1.0
102
RTVSPost2010PropOp52
 70
     0
102
RTVSPost2010Prop53
 90
        2
102
RTVSPost2010PropOp53
 70
     1
102
RTVSPost2010Prop54
  1
strokes_ogs.tif
102
RTVSPost2010PropOp54
 70
     1
102
RTVSPost2010Prop55
280
     0
102
RTVSPost2010PropOp55
 70
     1
102
RTVSPost2010Prop56
140
1.0
102
RTVSPost2010PropOp56
 70
     1
102
RTVSPost2010Prop57
140
1.0
102
RTVSPost2010PropOp57
 70
     1
  0
XRECORD
  5
44D
102
{ACAD_REACTORS
330
44C
102
}
330
44C
100
AcDbXrecord
280
     1
102
RTVSPropertyOp0
 70
     1
102
RTVSPropertyOp1
 70
     1
102
RTVSPropertyOp2
 70
     1
102
RTVSPropertyOp3
 70
     1
102
RTVSPropertyOp4
 70
     1
102
RTVSPropertyOp5
 70
     1
102
RTVSPropertyOp6
 70
     1
102
RTVSPropertyOp7
 70
     1
102
RTVSPropertyOp8
 70
     1
102
RTVSPropertyOp9
 70
     1
102
RTVSPropertyOp10
 70
     1
102
RTVSPropertyOp11
 70
     1
102
RTVSPropertyOp12
 70
     1
102
RTVSPropertyOp13
 70
     1
102
RTVSPropertyOp14
 70
     1
102
RTVSPropertyOp15
 70
     1
102
RTVSPropertyOp16
 70
     1
102
RTVSPropertyOp17
 70
     1
102
RTVSPropertyOp18
 70
     1
102
RTVSPropertyOp19
 70
     1
102
RTVSPropertyOp20
 70
     1
102
RTVSPropertyOp21
 70
     1
102
RTVSPropertyOp22
 70
     1
102
RTVSPropertyOp23
 70
     1
102
RTVSPropertyOp24
 70
     1
102
RTVSPropertyOp25
 70
     1
102
RTVSPropertyOp26
 70
     1
102
RTVSPropertyOp27
 70
     1
102
RTVSPropertyOp28
 70
     1
102
RTVSPropertyOp29
 70
     1
102
RTVSPropertyOp30
 70
     1
102
RTVSPropertyOp31
 70
     1
102
RTVSPropertyOp32
 70
     1
102
RTVSPropertyOp33
 70
     1
102
RTVSPropertyOp34
 70
     1
102
RTVSPropertyOp35
 70
     1
102
RTVSPropertyOp36
 70
     1
102
RTVSPropertyOp37
 70
     1
102
RTVSPropertyOp38
 70
     1
102
RTVSPropertyOp39
 70
     1
102
RTVSPropertyOp40
 70
     1
102
RTVSPropertyOp41
 70
     1
102
RTVSPropertyOp42
 70
     1
102
RTVSPropertyOp43
 70
     1
102
RTVSPropertyOp44
 70
     1
102
RTVSPropertyOp45
 70
     1
102
RTVSPropertyOp46
 70
     1
102
RTVSPropertyOp47
 70
     1
102
RTVSPropertyOp48
 70
     1
102
RTVSPropertyOp49
 70
     1
102
RTVSPropertyOp50
 70
     1
102
RTVSPropertyOp51
 70
     0
102
RTVSPropertyOp52
 70
     0
102
RTVSPropertyOp53
 70
     1
102
RTVSPropertyOp54
 70
     1
102
RTVSPropertyOp55
 70
     1
102
RTVSPropertyOp56
 70
     1
102
RTVSPropertyOp57
 70
     1
102
RTVSPost2010Prop28
280
     0
102
RTVSPost2010PropOp28
 70
     1
102
RTVSPost2010Prop29
280
     1
102
RTVSPost2010PropOp29
 70
     1
102
RTVSPost2010Prop30
280
     1
102
RTVSPost2010PropOp30
 70
     1
102
RTVSPost2010Prop31
280
     0
102
RTVSPost2010PropOp31
 70
     1
102
RTVSPost2010Prop32
280
     0
102
RTVSPost2010PropOp32
 70
     1
102
RTVSPost2010Prop33
280
     0
102
RTVSPost2010PropOp33
 70
     1
102
RTVSPost2010Prop34
280
     0
102
RTVSPost2010PropOp34
 70
     1
102
RTVSPost2010Prop35
280
     0
102
RTVSPost2010PropOp35
 70
     1
102
RTVSPost2010Prop36
280
     0
102
RTVSPost2010PropOp36
 70
     1
102
RTVSPost2010Prop37
 90
       50
102
RTVSPost2010PropOp37
 70
     1
102
RTVSPost2010Prop38
140
0.0
102
RTVSPost2010PropOp38
 70
     1
102
RTVSPost2010Prop39
140
1.0
102
RTVSPost2010PropOp39
 70
     1
102
RTVSPost2010Prop40
 90
        0
102
RTVSPost2010PropOp40
 70
     1
102
RTVSPost2010Prop41ColorIndex
 90
       18
102
RTVSPost2010Prop41ColorRGB
 90
        0
102
RTVSPost2010PropOp41
 70
     1
102
RTVSPost2010Prop42
 90
       50
102
RTVSPost2010PropOp42
 70
     1
102
RTVSPost2010Prop43
 90
        3
102
RTVSPost2010PropOp43
 70
     1
102
RTVSPost2010Prop44ColorIndex
 90
        5
102
RTVSPost2010Prop44ColorRGB
 90
      255
102
RTVSPost2010PropOp44
 70
     1
102
RTVSPost2010Prop45
280
     0
102
RTVSPost2010PropOp45
 70
     1
102
RTVSPost2010Prop46
 90
       50
102
RTVSPost2010PropOp46
 70
     1
102
RTVSPost2010Prop47
 90
       50
102
RTVSPost2010PropOp47
 70
     1
102
RTVSPost2010Prop48
 90
       50
102
RTVSPost2010PropOp48
 70
     1
102
RTVSPost2010Prop49
280
     0
102
RTVSPost2010PropOp49
 70
     1
102
RTVSPost2010Prop50
 90
       50
102
RTVSPost2010PropOp50
 70
     1
102
RTVSPost2010Prop51ColorIndex
 90
      256
102
RTVSPost2010Prop51ColorRGB
 90
-16777216
102
RTVSPost2010PropOp51
 70
     0
102
RTVSPost2010Prop52
140
1.0
102
RTVSPost2010PropOp52
 70
     0
102
RTVSPost2010Prop53
 90
        2
102
RTVSPost2010PropOp53
 70
     1
102
RTVSPost2010Prop54
  1
strokes_ogs.tif
102
RTVSPost2010PropOp54
 70
     1
102
RTVSPost2010Prop55
280
     0
102
RTVSPost2010PropOp55
 70
     1
102
RTVSPost2010Prop56
140
1.0
102
RTVSPost2010PropOp56
 70
     1
102
RTVSPost2010Prop57
140
1.0
102
RTVSPost2010PropOp57
 70
     1
  0
XRECORD
  5
45D
102
{ACAD_REACTORS
330
45C
102
}
330
45C
100
AcDbXrecord
280
     1
102
RTVSPropertyOp0
 70
     0
102
RTVSPropertyOp1
 70
     0
102
RTVSPropertyOp2
 70
     0
102
RTVSPropertyOp3
 70
     0
102
RTVSPropertyOp4
 70
     0
102
RTVSPropertyOp5
 70
     0
102
RTVSPropertyOp6
 70
     0
102
RTVSPropertyOp7
 70
     0
102
RTVSPropertyOp8
 70
     0
102
RTVSPropertyOp9
 70
     0
102
RTVSPropertyOp10
 70
     0
102
RTVSPropertyOp11
 70
     0
102
RTVSPropertyOp12
 70
     0
102
RTVSPropertyOp13
 70
     0
102
RTVSPropertyOp14
 70
     2
102
RTVSPropertyOp15
 70
     0
102
RTVSPropertyOp16
 70
     0
102
RTVSPropertyOp17
 70
     0
102
RTVSPropertyOp18
 70
     0
102
RTVSPropertyOp19
 70
     0
102
RTVSPropertyOp20
 70
     0
102
RTVSPropertyOp21
 70
     0
102
RTVSPropertyOp22
 70
     0
102
RTVSPropertyOp23
 70
     0
102
RTVSPropertyOp24
 70
     0
102
RTVSPropertyOp25
 70
     0
102
RTVSPropertyOp26
 70
     0
102
RTVSPropertyOp27
 70
     0
102
RTVSPropertyOp28
 70
     0
102
RTVSPropertyOp29
 70
     0
102
RTVSPropertyOp30
 70
     0
102
RTVSPropertyOp31
 70
     0
102
RTVSPropertyOp32
 70
     0
102
RTVSPropertyOp33
 70
     0
102
RTVSPropertyOp34
 70
     0
102
RTVSPropertyOp35
 70
     0
102
RTVSPropertyOp36
 70
     0
102
RTVSPropertyOp37
 70
     0
102
RTVSPropertyOp38
 70
     0
102
RTVSPropertyOp39
 70
     0
102
RTVSPropertyOp40
 70
     0
102
RTVSPropertyOp41
 70
     0
102
RTVSPropertyOp42
 70
     0
102
RTVSPropertyOp43
 70
     0
102
RTVSPropertyOp44
 70
     0
102
RTVSPropertyOp45
 70
     0
102
RTVSPropertyOp46
 70
     0
102
RTVSPropertyOp47
 70
     0
102
RTVSPropertyOp48
 70
     0
102
RTVSPropertyOp49
 70
     0
102
RTVSPropertyOp50
 70
     0
102
RTVSPropertyOp51
 70
     0
102
RTVSPropertyOp52
 70
     0
102
RTVSPropertyOp53
 70
     0
102
RTVSPropertyOp54
 70
     0
102
RTVSPropertyOp55
 70
     0
102
RTVSPropertyOp56
 70
     0
102
RTVSPropertyOp57
 70
     0
102
RTVSPost2010Prop28
280
     0
102
RTVSPost2010PropOp28
 70
     0
102
RTVSPost2010Prop29
280
     1
102
RTVSPost2010PropOp29
 70
     0
102
RTVSPost2010Prop30
280
     1
102
RTVSPost2010PropOp30
 70
     0
102
RTVSPost2010Prop31
280
     0
102
RTVSPost2010PropOp31
 70
     0
102
RTVSPost2010Prop32
280
     0
102
RTVSPost2010PropOp32
 70
     0
102
RTVSPost2010Prop33
280
     0
102
RTVSPost2010PropOp33
 70
     0
102
RTVSPost2010Prop34
280
     0
102
RTVSPost2010PropOp34
 70
     0
102
RTVSPost2010Prop35
280
     0
102
RTVSPost2010PropOp35
 70
     0
102
RTVSPost2010Prop36
280
     0
102
RTVSPost2010PropOp36
 70
     0
102
RTVSPost2010Prop37
 90
       50
102
RTVSPost2010PropOp37
 70
     0
102
RTVSPost2010Prop38
140
0.0
102
RTVSPost2010PropOp38
 70
     0
102
RTVSPost2010Prop39
140
1.0
102
RTVSPost2010PropOp39
 70
     0
102
RTVSPost2010Prop40
 90
        0
102
RTVSPost2010PropOp40
 70
     0
102
RTVSPost2010Prop41ColorIndex
 90
       18
102
RTVSPost2010Prop41ColorRGB
 90
        0
102
RTVSPost2010PropOp41
 70
     0
102
RTVSPost2010Prop42
 90
       50
102
RTVSPost2010PropOp42
 70
     0
102
RTVSPost2010Prop43
 90
        3
102
RTVSPost2010PropOp43
 70
     0
102
RTVSPost2010Prop44ColorIndex
 90
        5
102
RTVSPost2010Prop44ColorRGB
 90
      255
102
RTVSPost2010PropOp44
 70
     0
102
RTVSPost2010Prop45
280
     0
102
RTVSPost2010PropOp45
 70
     0
102
RTVSPost2010Prop46
 90
       50
102
RTVSPost2010PropOp46
 70
     0
102
RTVSPost2010Prop47
 90
       50
102
RTVSPost2010PropOp47
 70
     0
102
RTVSPost2010Prop48
 90
       50
102
RTVSPost2010PropOp48
 70
     0
102
RTVSPost2010Prop49
280
     0
102
RTVSPost2010PropOp49
 70
     0
102
RTVSPost2010Prop50
 90
       50
102
RTVSPost2010PropOp50
 70
     0
102
RTVSPost2010Prop51ColorIndex
 90
      256
102
RTVSPost2010Prop51ColorRGB
 90
-16777216
102
RTVSPost2010PropOp51
 70
     0
102
RTVSPost2010Prop52
140
1.0
102
RTVSPost2010PropOp52
 70
     0
102
RTVSPost2010Prop53
 90
        2
102
RTVSPost2010PropOp53
 70
     0
102
RTVSPost2010Prop54
  1
strokes_ogs.tif
102
RTVSPost2010PropOp54
 70
     0
102
RTVSPost2010Prop55
280
     0
102
RTVSPost2010PropOp55
 70
     0
102
RTVSPost2010Prop56
140
1.0
102
RTVSPost2010PropOp56
 70
     0
102
RTVSPost2010Prop57
140
1.0
102
RTVSPost2010PropOp57
 70
     0
  0
XRECORD
  5
455
102
{ACAD_REACTORS
330
454
102
}
330
454
100
AcDbXrecord
280
     1
102
RTVSPropertyOp0
 70
     1
102
RTVSPropertyOp1
 70
     1
102
RTVSPropertyOp2
 70
     1
102
RTVSPropertyOp3
 70
     1
102
RTVSPropertyOp4
 70
     1
102
RTVSPropertyOp5
 70
     1
102
RTVSPropertyOp6
 70
     1
102
RTVSPropertyOp7
 70
     1
102
RTVSPropertyOp8
 70
     1
102
RTVSPropertyOp9
 70
     1
102
RTVSPropertyOp10
 70
     1
102
RTVSPropertyOp11
 70
     1
102
RTVSPropertyOp12
 70
     1
102
RTVSPropertyOp13
 70
     1
102
RTVSPropertyOp14
 70
     1
102
RTVSPropertyOp15
 70
     1
102
RTVSPropertyOp16
 70
     1
102
RTVSPropertyOp17
 70
     1
102
RTVSPropertyOp18
 70
     1
102
RTVSPropertyOp19
 70
     1
102
RTVSPropertyOp20
 70
     1
102
RTVSPropertyOp21
 70
     1
102
RTVSPropertyOp22
 70
     1
102
RTVSPropertyOp23
 70
     1
102
RTVSPropertyOp24
 70
     1
102
RTVSPropertyOp25
 70
     1
102
RTVSPropertyOp26
 70
     1
102
RTVSPropertyOp27
 70
     1
102
RTVSPropertyOp28
 70
     1
102
RTVSPropertyOp29
 70
     1
102
RTVSPropertyOp30
 70
     1
102
RTVSPropertyOp31
 70
     1
102
RTVSPropertyOp32
 70
     1
102
RTVSPropertyOp33
 70
     1
102
RTVSPropertyOp34
 70
     1
102
RTVSPropertyOp35
 70
     1
102
RTVSPropertyOp36
 70
     1
102
RTVSPropertyOp37
 70
     1
102
RTVSPropertyOp38
 70
     1
102
RTVSPropertyOp39
 70
     1
102
RTVSPropertyOp40
 70
     1
102
RTVSPropertyOp41
 70
     1
102
RTVSPropertyOp42
 70
     1
102
RTVSPropertyOp43
 70
     1
102
RTVSPropertyOp44
 70
     1
102
RTVSPropertyOp45
 70
     1
102
RTVSPropertyOp46
 70
     1
102
RTVSPropertyOp47
 70
     1
102
RTVSPropertyOp48
 70
     1
102
RTVSPropertyOp49
 70
     1
102
RTVSPropertyOp50
 70
     1
102
RTVSPropertyOp51
 70
     0
102
RTVSPropertyOp52
 70
     0
102
RTVSPropertyOp53
 70
     1
102
RTVSPropertyOp54
 70
     1
102
RTVSPropertyOp55
 70
     1
102
RTVSPropertyOp56
 70
     1
102
RTVSPropertyOp57
 70
     1
102
RTVSPost2010Prop28
280
     0
102
RTVSPost2010PropOp28
 70
     1
102
RTVSPost2010Prop29
280
     1
102
RTVSPost2010PropOp29
 70
     1
102
RTVSPost2010Prop30
280
     1
102
RTVSPost2010PropOp30
 70
     1
102
RTVSPost2010Prop31
280
     0
102
RTVSPost2010PropOp31
 70
     1
102
RTVSPost2010Prop32
280
     0
102
RTVSPost2010PropOp32
 70
     1
102
RTVSPost2010Prop33
280
     0
102
RTVSPost2010PropOp33
 70
     1
102
RTVSPost2010Prop34
280
     0
102
RTVSPost2010PropOp34
 70
     1
102
RTVSPost2010Prop35
280
     0
102
RTVSPost2010PropOp35
 70
     1
102
RTVSPost2010Prop36
280
     0
102
RTVSPost2010PropOp36
 70
     1
102
RTVSPost2010Prop37
 90
       50
102
RTVSPost2010PropOp37
 70
     1
102
RTVSPost2010Prop38
140
0.0
102
RTVSPost2010PropOp38
 70
     1
102
RTVSPost2010Prop39
140
1.0
102
RTVSPost2010PropOp39
 70
     1
102
RTVSPost2010Prop40
 90
        0
102
RTVSPost2010PropOp40
 70
     1
102
RTVSPost2010Prop41ColorIndex
 90
       18
102
RTVSPost2010Prop41ColorRGB
 90
        0
102
RTVSPost2010PropOp41
 70
     1
102
RTVSPost2010Prop42
 90
       50
102
RTVSPost2010PropOp42
 70
     1
102
RTVSPost2010Prop43
 90
        3
102
RTVSPost2010PropOp43
 70
     1
102
RTVSPost2010Prop44ColorIndex
 90
        5
102
RTVSPost2010Prop44ColorRGB
 90
      255
102
RTVSPost2010PropOp44
 70
     1
102
RTVSPost2010Prop45
280
     0
102
RTVSPost2010PropOp45
 70
     1
102
RTVSPost2010Prop46
 90
       50
102
RTVSPost2010PropOp46
 70
     1
102
RTVSPost2010Prop47
 90
       50
102
RTVSPost2010PropOp47
 70
     1
102
RTVSPost2010Prop48
 90
       50
102
RTVSPost2010PropOp48
 70
     1
102
RTVSPost2010Prop49
280
     0
102
RTVSPost2010PropOp49
 70
     1
102
RTVSPost2010Prop50
 90
       50
102
RTVSPost2010PropOp50
 70
     1
102
RTVSPost2010Prop51ColorIndex
 90
      256
102
RTVSPost2010Prop51ColorRGB
 90
-16777216
102
RTVSPost2010PropOp51
 70
     0
102
RTVSPost2010Prop52
140
1.0
102
RTVSPost2010PropOp52
 70
     0
102
RTVSPost2010Prop53
 90
        2
102
RTVSPost2010PropOp53
 70
     1
102
RTVSPost2010Prop54
  1
strokes_ogs.tif
102
RTVSPost2010PropOp54
 70
     1
102
RTVSPost2010Prop55
280
     0
102
RTVSPost2010PropOp55
 70
     1
102
RTVSPost2010Prop56
140
1.0
102
RTVSPost2010PropOp56
 70
     1
102
RTVSPost2010Prop57
140
1.0
102
RTVSPost2010PropOp57
 70
     1
  0
XRECORD
  5
439
102
{ACAD_REACTORS
330
438
102
}
330
438
100
AcDbXrecord
280
     1
102
RTVSPropertyOp0
 70
     1
102
RTVSPropertyOp1
 70
     1
102
RTVSPropertyOp2
 70
     1
102
RTVSPropertyOp3
 70
     1
102
RTVSPropertyOp4
 70
     1
102
RTVSPropertyOp5
 70
     1
102
RTVSPropertyOp6
 70
     1
102
RTVSPropertyOp7
 70
     1
102
RTVSPropertyOp8
 70
     1
102
RTVSPropertyOp9
 70
     1
102
RTVSPropertyOp10
 70
     1
102
RTVSPropertyOp11
 70
     1
102
RTVSPropertyOp12
 70
     1
102
RTVSPropertyOp13
 70
     1
102
RTVSPropertyOp14
 70
     1
102
RTVSPropertyOp15
 70
     1
102
RTVSPropertyOp16
 70
     1
102
RTVSPropertyOp17
 70
     1
102
RTVSPropertyOp18
 70
     1
102
RTVSPropertyOp19
 70
     1
102
RTVSPropertyOp20
 70
     1
102
RTVSPropertyOp21
 70
     1
102
RTVSPropertyOp22
 70
     1
102
RTVSPropertyOp23
 70
     1
102
RTVSPropertyOp24
 70
     1
102
RTVSPropertyOp25
 70
     1
102
RTVSPropertyOp26
 70
     1
102
RTVSPropertyOp27
 70
     1
102
RTVSPropertyOp28
 70
     1
102
RTVSPropertyOp29
 70
     1
102
RTVSPropertyOp30
 70
     1
102
RTVSPropertyOp31
 70
     1
102
RTVSPropertyOp32
 70
     1
102
RTVSPropertyOp33
 70
     1
102
RTVSPropertyOp34
 70
     1
102
RTVSPropertyOp35
 70
     1
102
RTVSPropertyOp36
 70
     1
102
RTVSPropertyOp37
 70
     1
102
RTVSPropertyOp38
 70
     1
102
RTVSPropertyOp39
 70
     1
102
RTVSPropertyOp40
 70
     1
102
RTVSPropertyOp41
 70
     1
102
RTVSPropertyOp42
 70
     1
102
RTVSPropertyOp43
 70
     1
102
RTVSPropertyOp44
 70
     1
102
RTVSPropertyOp45
 70
     1
102
RTVSPropertyOp46
 70
     1
102
RTVSPropertyOp47
 70
     1
102
RTVSPropertyOp48
 70
     1
102
RTVSPropertyOp49
 70
     1
102
RTVSPropertyOp50
 70
     1
102
RTVSPropertyOp51
 70
     0
102
RTVSPropertyOp52
 70
     0
102
RTVSPropertyOp53
 70
     1
102
RTVSPropertyOp54
 70
     1
102
RTVSPropertyOp55
 70
     1
102
RTVSPropertyOp56
 70
     1
102
RTVSPropertyOp57
 70
     1
102
RTVSPost2010Prop28
280
     0
102
RTVSPost2010PropOp28
 70
     1
102
RTVSPost2010Prop29
280
     1
102
RTVSPost2010PropOp29
 70
     1
102
RTVSPost2010Prop30
280
     1
102
RTVSPost2010PropOp30
 70
     1
102
RTVSPost2010Prop31
280
     0
102
RTVSPost2010PropOp31
 70
     1
102
RTVSPost2010Prop32
280
     0
102
RTVSPost2010PropOp32
 70
     1
102
RTVSPost2010Prop33
280
     0
102
RTVSPost2010PropOp33
 70
     1
102
RTVSPost2010Prop34
280
     0
102
RTVSPost2010PropOp34
 70
     1
102
RTVSPost2010Prop35
280
     0
102
RTVSPost2010PropOp35
 70
     1
102
RTVSPost2010Prop36
280
     0
102
RTVSPost2010PropOp36
 70
     1
102
RTVSPost2010Prop37
 90
       50
102
RTVSPost2010PropOp37
 70
     1
102
RTVSPost2010Prop38
140
0.0
102
RTVSPost2010PropOp38
 70
     1
102
RTVSPost2010Prop39
140
1.0
102
RTVSPost2010PropOp39
 70
     1
102
RTVSPost2010Prop40
 90
        0
102
RTVSPost2010PropOp40
 70
     1
102
RTVSPost2010Prop41ColorIndex
 90
       18
102
RTVSPost2010Prop41ColorRGB
 90
        0
102
RTVSPost2010PropOp41
 70
     1
102
RTVSPost2010Prop42
 90
       50
102
RTVSPost2010PropOp42
 70
     1
102
RTVSPost2010Prop43
 90
        3
102
RTVSPost2010PropOp43
 70
     1
102
RTVSPost2010Prop44ColorIndex
 90
        5
102
RTVSPost2010Prop44ColorRGB
 90
      255
102
RTVSPost2010PropOp44
 70
     1
102
RTVSPost2010Prop45
280
     0
102
RTVSPost2010PropOp45
 70
     1
102
RTVSPost2010Prop46
 90
       50
102
RTVSPost2010PropOp46
 70
     1
102
RTVSPost2010Prop47
 90
       50
102
RTVSPost2010PropOp47
 70
     1
102
RTVSPost2010Prop48
 90
       50
102
RTVSPost2010PropOp48
 70
     1
102
RTVSPost2010Prop49
280
     0
102
RTVSPost2010PropOp49
 70
     1
102
RTVSPost2010Prop50
 90
       50
102
RTVSPost2010PropOp50
 70
     1
102
RTVSPost2010Prop51ColorIndex
 90
      256
102
RTVSPost2010Prop51ColorRGB
 90
-16777216
102
RTVSPost2010PropOp51
 70
     0
102
RTVSPost2010Prop52
140
1.0
102
RTVSPost2010PropOp52
 70
     0
102
RTVSPost2010Prop53
 90
        2
102
RTVSPost2010PropOp53
 70
     1
102
RTVSPost2010Prop54
  1
strokes_ogs.tif
102
RTVSPost2010PropOp54
 70
     1
102
RTVSPost2010Prop55
280
     0
102
RTVSPost2010PropOp55
 70
     1
102
RTVSPost2010Prop56
140
1.0
102
RTVSPost2010PropOp56
 70
     1
102
RTVSPost2010Prop57
140
1.0
102
RTVSPost2010PropOp57
 70
     1
  0
XRECORD
  5
43B
102
{ACAD_REACTORS
330
43A
102
}
330
43A
100
AcDbXrecord
280
     1
102
RTVSPropertyOp0
 70
     1
102
RTVSPropertyOp1
 70
     1
102
RTVSPropertyOp2
 70
     1
102
RTVSPropertyOp3
 70
     1
102
RTVSPropertyOp4
 70
     1
102
RTVSPropertyOp5
 70
     1
102
RTVSPropertyOp6
 70
     1
102
RTVSPropertyOp7
 70
     1
102
RTVSPropertyOp8
 70
     1
102
RTVSPropertyOp9
 70
     1
102
RTVSPropertyOp10
 70
     1
102
RTVSPropertyOp11
 70
     1
102
RTVSPropertyOp12
 70
     1
102
RTVSPropertyOp13
 70
     1
102
RTVSPropertyOp14
 70
     1
102
RTVSPropertyOp15
 70
     1
102
RTVSPropertyOp16
 70
     1
102
RTVSPropertyOp17
 70
     1
102
RTVSPropertyOp18
 70
     1
102
RTVSPropertyOp19
 70
     1
102
RTVSPropertyOp20
 70
     1
102
RTVSPropertyOp21
 70
     1
102
RTVSPropertyOp22
 70
     1
102
RTVSPropertyOp23
 70
     1
102
RTVSPropertyOp24
 70
     1
102
RTVSPropertyOp25
 70
     1
102
RTVSPropertyOp26
 70
     1
102
RTVSPropertyOp27
 70
     1
102
RTVSPropertyOp28
 70
     1
102
RTVSPropertyOp29
 70
     1
102
RTVSPropertyOp30
 70
     1
102
RTVSPropertyOp31
 70
     1
102
RTVSPropertyOp32
 70
     1
102
RTVSPropertyOp33
 70
     1
102
RTVSPropertyOp34
 70
     1
102
RTVSPropertyOp35
 70
     1
102
RTVSPropertyOp36
 70
     1
102
RTVSPropertyOp37
 70
     1
102
RTVSPropertyOp38
 70
     1
102
RTVSPropertyOp39
 70
     1
102
RTVSPropertyOp40
 70
     1
102
RTVSPropertyOp41
 70
     1
102
RTVSPropertyOp42
 70
     1
102
RTVSPropertyOp43
 70
     1
102
RTVSPropertyOp44
 70
     1
102
RTVSPropertyOp45
 70
     1
102
RTVSPropertyOp46
 70
     1
102
RTVSPropertyOp47
 70
     1
102
RTVSPropertyOp48
 70
     1
102
RTVSPropertyOp49
 70
     1
102
RTVSPropertyOp50
 70
     1
102
RTVSPropertyOp51
 70
     0
102
RTVSPropertyOp52
 70
     0
102
RTVSPropertyOp53
 70
     1
102
RTVSPropertyOp54
 70
     1
102
RTVSPropertyOp55
 70
     1
102
RTVSPropertyOp56
 70
     1
102
RTVSPropertyOp57
 70
     1
102
RTVSPost2010Prop28
280
     0
102
RTVSPost2010PropOp28
 70
     1
102
RTVSPost2010Prop29
280
     1
102
RTVSPost2010PropOp29
 70
     1
102
RTVSPost2010Prop30
280
     1
102
RTVSPost2010PropOp30
 70
     1
102
RTVSPost2010Prop31
280
     0
102
RTVSPost2010PropOp31
 70
     1
102
RTVSPost2010Prop32
280
     0
102
RTVSPost2010PropOp32
 70
     1
102
RTVSPost2010Prop33
280
     0
102
RTVSPost2010PropOp33
 70
     1
102
RTVSPost2010Prop34
280
     0
102
RTVSPost2010PropOp34
 70
     1
102
RTVSPost2010Prop35
280
     0
102
RTVSPost2010PropOp35
 70
     1
102
RTVSPost2010Prop36
280
     0
102
RTVSPost2010PropOp36
 70
     1
102
RTVSPost2010Prop37
 90
       50
102
RTVSPost2010PropOp37
 70
     1
102
RTVSPost2010Prop38
140
0.0
102
RTVSPost2010PropOp38
 70
     1
102
RTVSPost2010Prop39
140
1.0
102
RTVSPost2010PropOp39
 70
     1
102
RTVSPost2010Prop40
 90
        0
102
RTVSPost2010PropOp40
 70
     1
102
RTVSPost2010Prop41ColorIndex
 90
       18
102
RTVSPost2010Prop41ColorRGB
 90
        0
102
RTVSPost2010PropOp41
 70
     1
102
RTVSPost2010Prop42
 90
       50
102
RTVSPost2010PropOp42
 70
     1
102
RTVSPost2010Prop43
 90
        3
102
RTVSPost2010PropOp43
 70
     1
102
RTVSPost2010Prop44ColorIndex
 90
        5
102
RTVSPost2010Prop44ColorRGB
 90
      255
102
RTVSPost2010PropOp44
 70
     1
102
RTVSPost2010Prop45
280
     0
102
RTVSPost2010PropOp45
 70
     1
102
RTVSPost2010Prop46
 90
       50
102
RTVSPost2010PropOp46
 70
     1
102
RTVSPost2010Prop47
 90
       50
102
RTVSPost2010PropOp47
 70
     1
102
RTVSPost2010Prop48
 90
       50
102
RTVSPost2010PropOp48
 70
     1
102
RTVSPost2010Prop49
280
     0
102
RTVSPost2010PropOp49
 70
     1
102
RTVSPost2010Prop50
 90
       50
102
RTVSPost2010PropOp50
 70
     1
102
RTVSPost2010Prop51ColorIndex
 90
      256
102
RTVSPost2010Prop51ColorRGB
 90
-16777216
102
RTVSPost2010PropOp51
 70
     0
102
RTVSPost2010Prop52
140
1.0
102
RTVSPost2010PropOp52
 70
     0
102
RTVSPost2010Prop53
 90
        2
102
RTVSPost2010PropOp53
 70
     1
102
RTVSPost2010Prop54
  1
strokes_ogs.tif
102
RTVSPost2010PropOp54
 70
     1
102
RTVSPost2010Prop55
280
     0
102
RTVSPost2010PropOp55
 70
     1
102
RTVSPost2010Prop56
140
1.0
102
RTVSPost2010PropOp56
 70
     1
102
RTVSPost2010Prop57
140
1.0
102
RTVSPost2010PropOp57
 70
     1
  0
XRECORD
  5
43D
102
{ACAD_REACTORS
330
43C
102
}
330
43C
100
AcDbXrecord
280
     1
102
RTVSPropertyOp0
 70
     1
102
RTVSPropertyOp1
 70
     1
102
RTVSPropertyOp2
 70
     1
102
RTVSPropertyOp3
 70
     1
102
RTVSPropertyOp4
 70
     1
102
RTVSPropertyOp5
 70
     1
102
RTVSPropertyOp6
 70
     1
102
RTVSPropertyOp7
 70
     1
102
RTVSPropertyOp8
 70
     1
102
RTVSPropertyOp9
 70
     1
102
RTVSPropertyOp10
 70
     1
102
RTVSPropertyOp11
 70
     1
102
RTVSPropertyOp12
 70
     1
102
RTVSPropertyOp13
 70
     1
102
RTVSPropertyOp14
 70
     1
102
RTVSPropertyOp15
 70
     1
102
RTVSPropertyOp16
 70
     1
102
RTVSPropertyOp17
 70
     1
102
RTVSPropertyOp18
 70
     1
102
RTVSPropertyOp19
 70
     1
102
RTVSPropertyOp20
 70
     1
102
RTVSPropertyOp21
 70
     1
102
RTVSPropertyOp22
 70
     1
102
RTVSPropertyOp23
 70
     1
102
RTVSPropertyOp24
 70
     1
102
RTVSPropertyOp25
 70
     1
102
RTVSPropertyOp26
 70
     1
102
RTVSPropertyOp27
 70
     1
102
RTVSPropertyOp28
 70
     1
102
RTVSPropertyOp29
 70
     1
102
RTVSPropertyOp30
 70
     1
102
RTVSPropertyOp31
 70
     1
102
RTVSPropertyOp32
 70
     1
102
RTVSPropertyOp33
 70
     1
102
RTVSPropertyOp34
 70
     1
102
RTVSPropertyOp35
 70
     1
102
RTVSPropertyOp36
 70
     1
102
RTVSPropertyOp37
 70
     1
102
RTVSPropertyOp38
 70
     1
102
RTVSPropertyOp39
 70
     1
102
RTVSPropertyOp40
 70
     1
102
RTVSPropertyOp41
 70
     1
102
RTVSPropertyOp42
 70
     1
102
RTVSPropertyOp43
 70
     1
102
RTVSPropertyOp44
 70
     1
102
RTVSPropertyOp45
 70
     1
102
RTVSPropertyOp46
 70
     1
102
RTVSPropertyOp47
 70
     1
102
RTVSPropertyOp48
 70
     1
102
RTVSPropertyOp49
 70
     1
102
RTVSPropertyOp50
 70
     1
102
RTVSPropertyOp51
 70
     0
102
RTVSPropertyOp52
 70
     0
102
RTVSPropertyOp53
 70
     1
102
RTVSPropertyOp54
 70
     1
102
RTVSPropertyOp55
 70
     1
102
RTVSPropertyOp56
 70
     1
102
RTVSPropertyOp57
 70
     1
102
RTVSPost2010Prop28
280
     0
102
RTVSPost2010PropOp28
 70
     1
102
RTVSPost2010Prop29
280
     1
102
RTVSPost2010PropOp29
 70
     1
102
RTVSPost2010Prop30
280
     1
102
RTVSPost2010PropOp30
 70
     1
102
RTVSPost2010Prop31
280
     0
102
RTVSPost2010PropOp31
 70
     1
102
RTVSPost2010Prop32
280
     0
102
RTVSPost2010PropOp32
 70
     1
102
RTVSPost2010Prop33
280
     0
102
RTVSPost2010PropOp33
 70
     1
102
RTVSPost2010Prop34
280
     0
102
RTVSPost2010PropOp34
 70
     1
102
RTVSPost2010Prop35
280
     0
102
RTVSPost2010PropOp35
 70
     1
102
RTVSPost2010Prop36
280
     0
102
RTVSPost2010PropOp36
 70
     1
102
RTVSPost2010Prop37
 90
       50
102
RTVSPost2010PropOp37
 70
     1
102
RTVSPost2010Prop38
140
0.0
102
RTVSPost2010PropOp38
 70
     1
102
RTVSPost2010Prop39
140
1.0
102
RTVSPost2010PropOp39
 70
     1
102
RTVSPost2010Prop40
 90
        0
102
RTVSPost2010PropOp40
 70
     1
102
RTVSPost2010Prop41ColorIndex
 90
       18
102
RTVSPost2010Prop41ColorRGB
 90
        0
102
RTVSPost2010PropOp41
 70
     1
102
RTVSPost2010Prop42
 90
       50
102
RTVSPost2010PropOp42
 70
     1
102
RTVSPost2010Prop43
 90
        3
102
RTVSPost2010PropOp43
 70
     1
102
RTVSPost2010Prop44ColorIndex
 90
        5
102
RTVSPost2010Prop44ColorRGB
 90
      255
102
RTVSPost2010PropOp44
 70
     1
102
RTVSPost2010Prop45
280
     0
102
RTVSPost2010PropOp45
 70
     1
102
RTVSPost2010Prop46
 90
       50
102
RTVSPost2010PropOp46
 70
     1
102
RTVSPost2010Prop47
 90
       50
102
RTVSPost2010PropOp47
 70
     1
102
RTVSPost2010Prop48
 90
       50
102
RTVSPost2010PropOp48
 70
     1
102
RTVSPost2010Prop49
280
     0
102
RTVSPost2010PropOp49
 70
     1
102
RTVSPost2010Prop50
 90
       50
102
RTVSPost2010PropOp50
 70
     1
102
RTVSPost2010Prop51ColorIndex
 90
      256
102
RTVSPost2010Prop51ColorRGB
 90
-16777216
102
RTVSPost2010PropOp51
 70
     0
102
RTVSPost2010Prop52
140
1.0
102
RTVSPost2010PropOp52
 70
     0
102
RTVSPost2010Prop53
 90
        2
102
RTVSPost2010PropOp53
 70
     1
102
RTVSPost2010Prop54
  1
strokes_ogs.tif
102
RTVSPost2010PropOp54
 70
     1
102
RTVSPost2010Prop55
280
     0
102
RTVSPost2010PropOp55
 70
     1
102
RTVSPost2010Prop56
140
1.0
102
RTVSPost2010PropOp56
 70
     1
102
RTVSPost2010Prop57
140
1.0
102
RTVSPost2010PropOp57
 70
     1
  0
XRECORD
  5
43F
102
{ACAD_REACTORS
330
43E
102
}
330
43E
100
AcDbXrecord
280
     1
102
RTVSPropertyOp0
 70
     1
102
RTVSPropertyOp1
 70
     1
102
RTVSPropertyOp2
 70
     1
102
RTVSPropertyOp3
 70
     1
102
RTVSPropertyOp4
 70
     1
102
RTVSPropertyOp5
 70
     1
102
RTVSPropertyOp6
 70
     1
102
RTVSPropertyOp7
 70
     1
102
RTVSPropertyOp8
 70
     1
102
RTVSPropertyOp9
 70
     1
102
RTVSPropertyOp10
 70
     1
102
RTVSPropertyOp11
 70
     1
102
RTVSPropertyOp12
 70
     1
102
RTVSPropertyOp13
 70
     1
102
RTVSPropertyOp14
 70
     1
102
RTVSPropertyOp15
 70
     1
102
RTVSPropertyOp16
 70
     1
102
RTVSPropertyOp17
 70
     1
102
RTVSPropertyOp18
 70
     1
102
RTVSPropertyOp19
 70
     1
102
RTVSPropertyOp20
 70
     1
102
RTVSPropertyOp21
 70
     1
102
RTVSPropertyOp22
 70
     1
102
RTVSPropertyOp23
 70
     1
102
RTVSPropertyOp24
 70
     1
102
RTVSPropertyOp25
 70
     1
102
RTVSPropertyOp26
 70
     1
102
RTVSPropertyOp27
 70
     1
102
RTVSPropertyOp28
 70
     1
102
RTVSPropertyOp29
 70
     1
102
RTVSPropertyOp30
 70
     1
102
RTVSPropertyOp31
 70
     1
102
RTVSPropertyOp32
 70
     1
102
RTVSPropertyOp33
 70
     1
102
RTVSPropertyOp34
 70
     1
102
RTVSPropertyOp35
 70
     1
102
RTVSPropertyOp36
 70
     1
102
RTVSPropertyOp37
 70
     1
102
RTVSPropertyOp38
 70
     1
102
RTVSPropertyOp39
 70
     1
102
RTVSPropertyOp40
 70
     1
102
RTVSPropertyOp41
 70
     1
102
RTVSPropertyOp42
 70
     1
102
RTVSPropertyOp43
 70
     1
102
RTVSPropertyOp44
 70
     1
102
RTVSPropertyOp45
 70
     1
102
RTVSPropertyOp46
 70
     1
102
RTVSPropertyOp47
 70
     1
102
RTVSPropertyOp48
 70
     1
102
RTVSPropertyOp49
 70
     1
102
RTVSPropertyOp50
 70
     1
102
RTVSPropertyOp51
 70
     0
102
RTVSPropertyOp52
 70
     0
102
RTVSPropertyOp53
 70
     1
102
RTVSPropertyOp54
 70
     1
102
RTVSPropertyOp55
 70
     1
102
RTVSPropertyOp56
 70
     1
102
RTVSPropertyOp57
 70
     1
102
RTVSPost2010Prop28
280
     0
102
RTVSPost2010PropOp28
 70
     1
102
RTVSPost2010Prop29
280
     1
102
RTVSPost2010PropOp29
 70
     1
102
RTVSPost2010Prop30
280
     1
102
RTVSPost2010PropOp30
 70
     1
102
RTVSPost2010Prop31
280
     0
102
RTVSPost2010PropOp31
 70
     1
102
RTVSPost2010Prop32
280
     0
102
RTVSPost2010PropOp32
 70
     1
102
RTVSPost2010Prop33
280
     0
102
RTVSPost2010PropOp33
 70
     1
102
RTVSPost2010Prop34
280
     0
102
RTVSPost2010PropOp34
 70
     1
102
RTVSPost2010Prop35
280
     0
102
RTVSPost2010PropOp35
 70
     1
102
RTVSPost2010Prop36
280
     0
102
RTVSPost2010PropOp36
 70
     1
102
RTVSPost2010Prop37
 90
       50
102
RTVSPost2010PropOp37
 70
     1
102
RTVSPost2010Prop38
140
0.0
102
RTVSPost2010PropOp38
 70
     1
102
RTVSPost2010Prop39
140
1.0
102
RTVSPost2010PropOp39
 70
     1
102
RTVSPost2010Prop40
 90
        0
102
RTVSPost2010PropOp40
 70
     1
102
RTVSPost2010Prop41ColorIndex
 90
       18
102
RTVSPost2010Prop41ColorRGB
 90
        0
102
RTVSPost2010PropOp41
 70
     1
102
RTVSPost2010Prop42
 90
       50
102
RTVSPost2010PropOp42
 70
     1
102
RTVSPost2010Prop43
 90
        3
102
RTVSPost2010PropOp43
 70
     1
102
RTVSPost2010Prop44ColorIndex
 90
        5
102
RTVSPost2010Prop44ColorRGB
 90
      255
102
RTVSPost2010PropOp44
 70
     1
102
RTVSPost2010Prop45
280
     0
102
RTVSPost2010PropOp45
 70
     1
102
RTVSPost2010Prop46
 90
       50
102
RTVSPost2010PropOp46
 70
     1
102
RTVSPost2010Prop47
 90
       50
102
RTVSPost2010PropOp47
 70
     1
102
RTVSPost2010Prop48
 90
       50
102
RTVSPost2010PropOp48
 70
     1
102
RTVSPost2010Prop49
280
     0
102
RTVSPost2010PropOp49
 70
     1
102
RTVSPost2010Prop50
 90
       50
102
RTVSPost2010PropOp50
 70
     1
102
RTVSPost2010Prop51ColorIndex
 90
      256
102
RTVSPost2010Prop51ColorRGB
 90
-16777216
102
RTVSPost2010PropOp51
 70
     0
102
RTVSPost2010Prop52
140
1.0
102
RTVSPost2010PropOp52
 70
     0
102
RTVSPost2010Prop53
 90
        2
102
RTVSPost2010PropOp53
 70
     1
102
RTVSPost2010Prop54
  1
strokes_ogs.tif
102
RTVSPost2010PropOp54
 70
     1
102
RTVSPost2010Prop55
280
     0
102
RTVSPost2010PropOp55
 70
     1
102
RTVSPost2010Prop56
140
1.0
102
RTVSPost2010PropOp56
 70
     1
102
RTVSPost2010Prop57
140
1.0
102
RTVSPost2010PropOp57
 70
     1
  0
XRECORD
  5
445
102
{ACAD_REACTORS
330
444
102
}
330
444
100
AcDbXrecord
280
     1
102
RTVSPropertyOp0
 70
     1
102
RTVSPropertyOp1
 70
     1
102
RTVSPropertyOp2
 70
     1
102
RTVSPropertyOp3
 70
     1
102
RTVSPropertyOp4
 70
     1
102
RTVSPropertyOp5
 70
     1
102
RTVSPropertyOp6
 70
     1
102
RTVSPropertyOp7
 70
     1
102
RTVSPropertyOp8
 70
     1
102
RTVSPropertyOp9
 70
     1
102
RTVSPropertyOp10
 70
     1
102
RTVSPropertyOp11
 70
     1
102
RTVSPropertyOp12
 70
     1
102
RTVSPropertyOp13
 70
     1
102
RTVSPropertyOp14
 70
     1
102
RTVSPropertyOp15
 70
     1
102
RTVSPropertyOp16
 70
     1
102
RTVSPropertyOp17
 70
     1
102
RTVSPropertyOp18
 70
     1
102
RTVSPropertyOp19
 70
     1
102
RTVSPropertyOp20
 70
     1
102
RTVSPropertyOp21
 70
     1
102
RTVSPropertyOp22
 70
     1
102
RTVSPropertyOp23
 70
     1
102
RTVSPropertyOp24
 70
     1
102
RTVSPropertyOp25
 70
     1
102
RTVSPropertyOp26
 70
     1
102
RTVSPropertyOp27
 70
     1
102
RTVSPropertyOp28
 70
     1
102
RTVSPropertyOp29
 70
     1
102
RTVSPropertyOp30
 70
     1
102
RTVSPropertyOp31
 70
     1
102
RTVSPropertyOp32
 70
     1
102
RTVSPropertyOp33
 70
     1
102
RTVSPropertyOp34
 70
     1
102
RTVSPropertyOp35
 70
     1
102
RTVSPropertyOp36
 70
     1
102
RTVSPropertyOp37
 70
     1
102
RTVSPropertyOp38
 70
     1
102
RTVSPropertyOp39
 70
     1
102
RTVSPropertyOp40
 70
     1
102
RTVSPropertyOp41
 70
     1
102
RTVSPropertyOp42
 70
     1
102
RTVSPropertyOp43
 70
     1
102
RTVSPropertyOp44
 70
     1
102
RTVSPropertyOp45
 70
     1
102
RTVSPropertyOp46
 70
     1
102
RTVSPropertyOp47
 70
     1
102
RTVSPropertyOp48
 70
     1
102
RTVSPropertyOp49
 70
     1
102
RTVSPropertyOp50
 70
     1
102
RTVSPropertyOp51
 70
     0
102
RTVSPropertyOp52
 70
     0
102
RTVSPropertyOp53
 70
     1
102
RTVSPropertyOp54
 70
     1
102
RTVSPropertyOp55
 70
     1
102
RTVSPropertyOp56
 70
     1
102
RTVSPropertyOp57
 70
     1
102
RTVSPost2010Prop28
280
     0
102
RTVSPost2010PropOp28
 70
     1
102
RTVSPost2010Prop29
280
     1
102
RTVSPost2010PropOp29
 70
     1
102
RTVSPost2010Prop30
280
     1
102
RTVSPost2010PropOp30
 70
     1
102
RTVSPost2010Prop31
280
     0
102
RTVSPost2010PropOp31
 70
     1
102
RTVSPost2010Prop32
280
     0
102
RTVSPost2010PropOp32
 70
     1
102
RTVSPost2010Prop33
280
     0
102
RTVSPost2010PropOp33
 70
     1
102
RTVSPost2010Prop34
280
     0
102
RTVSPost2010PropOp34
 70
     1
102
RTVSPost2010Prop35
280
     0
102
RTVSPost2010PropOp35
 70
     1
102
RTVSPost2010Prop36
280
     0
102
RTVSPost2010PropOp36
 70
     1
102
RTVSPost2010Prop37
 90
       50
102
RTVSPost2010PropOp37
 70
     1
102
RTVSPost2010Prop38
140
0.0
102
RTVSPost2010PropOp38
 70
     1
102
RTVSPost2010Prop39
140
1.0
102
RTVSPost2010PropOp39
 70
     1
102
RTVSPost2010Prop40
 90
        0
102
RTVSPost2010PropOp40
 70
     1
102
RTVSPost2010Prop41ColorIndex
 90
       18
102
RTVSPost2010Prop41ColorRGB
 90
        0
102
RTVSPost2010PropOp41
 70
     1
102
RTVSPost2010Prop42
 90
       50
102
RTVSPost2010PropOp42
 70
     1
102
RTVSPost2010Prop43
 90
        3
102
RTVSPost2010PropOp43
 70
     1
102
RTVSPost2010Prop44ColorIndex
 90
        5
102
RTVSPost2010Prop44ColorRGB
 90
      255
102
RTVSPost2010PropOp44
 70
     1
102
RTVSPost2010Prop45
280
     0
102
RTVSPost2010PropOp45
 70
     1
102
RTVSPost2010Prop46
 90
       50
102
RTVSPost2010PropOp46
 70
     1
102
RTVSPost2010Prop47
 90
       50
102
RTVSPost2010PropOp47
 70
     1
102
RTVSPost2010Prop48
 90
       50
102
RTVSPost2010PropOp48
 70
     1
102
RTVSPost2010Prop49
280
     0
102
RTVSPost2010PropOp49
 70
     1
102
RTVSPost2010Prop50
 90
       50
102
RTVSPost2010PropOp50
 70
     1
102
RTVSPost2010Prop51ColorIndex
 90
      256
102
RTVSPost2010Prop51ColorRGB
 90
-16777216
102
RTVSPost2010PropOp51
 70
     0
102
RTVSPost2010Prop52
140
1.0
102
RTVSPost2010PropOp52
 70
     0
102
RTVSPost2010Prop53
 90
        2
102
RTVSPost2010PropOp53
 70
     1
102
RTVSPost2010Prop54
  1
strokes_ogs.tif
102
RTVSPost2010PropOp54
 70
     1
102
RTVSPost2010Prop55
280
     0
102
RTVSPost2010PropOp55
 70
     1
102
RTVSPost2010Prop56
140
1.0
102
RTVSPost2010PropOp56
 70
     1
102
RTVSPost2010Prop57
140
1.0
102
RTVSPost2010PropOp57
 70
     1
  0
XRECORD
  5
459
102
{ACAD_REACTORS
330
458
102
}
330
458
100
AcDbXrecord
280
     1
102
RTVSPropertyOp0
 70
     0
102
RTVSPropertyOp1
 70
     0
102
RTVSPropertyOp2
 70
     0
102
RTVSPropertyOp3
 70
     0
102
RTVSPropertyOp4
 70
     0
102
RTVSPropertyOp5
 70
     0
102
RTVSPropertyOp6
 70
     0
102
RTVSPropertyOp7
 70
     0
102
RTVSPropertyOp8
 70
     0
102
RTVSPropertyOp9
 70
     0
102
RTVSPropertyOp10
 70
     0
102
RTVSPropertyOp11
 70
     0
102
RTVSPropertyOp12
 70
     0
102
RTVSPropertyOp13
 70
     0
102
RTVSPropertyOp14
 70
     2
102
RTVSPropertyOp15
 70
     0
102
RTVSPropertyOp16
 70
     0
102
RTVSPropertyOp17
 70
     0
102
RTVSPropertyOp18
 70
     0
102
RTVSPropertyOp19
 70
     0
102
RTVSPropertyOp20
 70
     0
102
RTVSPropertyOp21
 70
     0
102
RTVSPropertyOp22
 70
     0
102
RTVSPropertyOp23
 70
     0
102
RTVSPropertyOp24
 70
     0
102
RTVSPropertyOp25
 70
     0
102
RTVSPropertyOp26
 70
     0
102
RTVSPropertyOp27
 70
     0
102
RTVSPropertyOp28
 70
     0
102
RTVSPropertyOp29
 70
     0
102
RTVSPropertyOp30
 70
     0
102
RTVSPropertyOp31
 70
     0
102
RTVSPropertyOp32
 70
     0
102
RTVSPropertyOp33
 70
     0
102
RTVSPropertyOp34
 70
     0
102
RTVSPropertyOp35
 70
     0
102
RTVSPropertyOp36
 70
     0
102
RTVSPropertyOp37
 70
     0
102
RTVSPropertyOp38
 70
     0
102
RTVSPropertyOp39
 70
     0
102
RTVSPropertyOp40
 70
     0
102
RTVSPropertyOp41
 70
     0
102
RTVSPropertyOp42
 70
     0
102
RTVSPropertyOp43
 70
     0
102
RTVSPropertyOp44
 70
     0
102
RTVSPropertyOp45
 70
     0
102
RTVSPropertyOp46
 70
     0
102
RTVSPropertyOp47
 70
     0
102
RTVSPropertyOp48
 70
     0
102
RTVSPropertyOp49
 70
     0
102
RTVSPropertyOp50
 70
     0
102
RTVSPropertyOp51
 70
     0
102
RTVSPropertyOp52
 70
     0
102
RTVSPropertyOp53
 70
     0
102
RTVSPropertyOp54
 70
     0
102
RTVSPropertyOp55
 70
     0
102
RTVSPropertyOp56
 70
     0
102
RTVSPropertyOp57
 70
     0
102
RTVSPost2010Prop28
280
     0
102
RTVSPost2010PropOp28
 70
     0
102
RTVSPost2010Prop29
280
     1
102
RTVSPost2010PropOp29
 70
     0
102
RTVSPost2010Prop30
280
     1
102
RTVSPost2010PropOp30
 70
     0
102
RTVSPost2010Prop31
280
     0
102
RTVSPost2010PropOp31
 70
     0
102
RTVSPost2010Prop32
280
     0
102
RTVSPost2010PropOp32
 70
     0
102
RTVSPost2010Prop33
280
     0
102
RTVSPost2010PropOp33
 70
     0
102
RTVSPost2010Prop34
280
     0
102
RTVSPost2010PropOp34
 70
     0
102
RTVSPost2010Prop35
280
     0
102
RTVSPost2010PropOp35
 70
     0
102
RTVSPost2010Prop36
280
     0
102
RTVSPost2010PropOp36
 70
     0
102
RTVSPost2010Prop37
 90
       50
102
RTVSPost2010PropOp37
 70
     0
102
RTVSPost2010Prop38
140
0.0
102
RTVSPost2010PropOp38
 70
     0
102
RTVSPost2010Prop39
140
1.0
102
RTVSPost2010PropOp39
 70
     0
102
RTVSPost2010Prop40
 90
        0
102
RTVSPost2010PropOp40
 70
     0
102
RTVSPost2010Prop41ColorIndex
 90
       18
102
RTVSPost2010Prop41ColorRGB
 90
        0
102
RTVSPost2010PropOp41
 70
     0
102
RTVSPost2010Prop42
 90
       50
102
RTVSPost2010PropOp42
 70
     0
102
RTVSPost2010Prop43
 90
        3
102
RTVSPost2010PropOp43
 70
     0
102
RTVSPost2010Prop44ColorIndex
 90
        5
102
RTVSPost2010Prop44ColorRGB
 90
      255
102
RTVSPost2010PropOp44
 70
     0
102
RTVSPost2010Prop45
280
     0
102
RTVSPost2010PropOp45
 70
     0
102
RTVSPost2010Prop46
 90
       50
102
RTVSPost2010PropOp46
 70
     0
102
RTVSPost2010Prop47
 90
       50
102
RTVSPost2010PropOp47
 70
     0
102
RTVSPost2010Prop48
 90
       50
102
RTVSPost2010PropOp48
 70
     0
102
RTVSPost2010Prop49
280
     0
102
RTVSPost2010PropOp49
 70
     0
102
RTVSPost2010Prop50
 90
       50
102
RTVSPost2010PropOp50
 70
     0
102
RTVSPost2010Prop51ColorIndex
 90
      256
102
RTVSPost2010Prop51ColorRGB
 90
-16777216
102
RTVSPost2010PropOp51
 70
     0
102
RTVSPost2010Prop52
140
1.0
102
RTVSPost2010PropOp52
 70
     0
102
RTVSPost2010Prop53
 90
        2
102
RTVSPost2010PropOp53
 70
     0
102
RTVSPost2010Prop54
  1
strokes_ogs.tif
102
RTVSPost2010PropOp54
 70
     0
102
RTVSPost2010Prop55
280
     0
102
RTVSPost2010PropOp55
 70
     0
102
RTVSPost2010Prop56
140
1.0
102
RTVSPost2010PropOp56
 70
     0
102
RTVSPost2010Prop57
140
1.0
102
RTVSPost2010PropOp57
 70
     0
  0
XRECORD
  5
453
102
{ACAD_REACTORS
330
452
102
}
330
452
100
AcDbXrecord
280
     1
102
RTVSPropertyOp0
 70
     1
102
RTVSPropertyOp1
 70
     1
102
RTVSPropertyOp2
 70
     1
102
RTVSPropertyOp3
 70
     1
102
RTVSPropertyOp4
 70
     1
102
RTVSPropertyOp5
 70
     1
102
RTVSPropertyOp6
 70
     1
102
RTVSPropertyOp7
 70
     1
102
RTVSPropertyOp8
 70
     1
102
RTVSPropertyOp9
 70
     1
102
RTVSPropertyOp10
 70
     1
102
RTVSPropertyOp11
 70
     1
102
RTVSPropertyOp12
 70
     1
102
RTVSPropertyOp13
 70
     1
102
RTVSPropertyOp14
 70
     1
102
RTVSPropertyOp15
 70
     1
102
RTVSPropertyOp16
 70
     1
102
RTVSPropertyOp17
 70
     1
102
RTVSPropertyOp18
 70
     1
102
RTVSPropertyOp19
 70
     1
102
RTVSPropertyOp20
 70
     1
102
RTVSPropertyOp21
 70
     1
102
RTVSPropertyOp22
 70
     1
102
RTVSPropertyOp23
 70
     1
102
RTVSPropertyOp24
 70
     1
102
RTVSPropertyOp25
 70
     1
102
RTVSPropertyOp26
 70
     1
102
RTVSPropertyOp27
 70
     1
102
RTVSPropertyOp28
 70
     1
102
RTVSPropertyOp29
 70
     1
102
RTVSPropertyOp30
 70
     1
102
RTVSPropertyOp31
 70
     1
102
RTVSPropertyOp32
 70
     1
102
RTVSPropertyOp33
 70
     1
102
RTVSPropertyOp34
 70
     1
102
RTVSPropertyOp35
 70
     1
102
RTVSPropertyOp36
 70
     1
102
RTVSPropertyOp37
 70
     1
102
RTVSPropertyOp38
 70
     1
102
RTVSPropertyOp39
 70
     1
102
RTVSPropertyOp40
 70
     1
102
RTVSPropertyOp41
 70
     1
102
RTVSPropertyOp42
 70
     1
102
RTVSPropertyOp43
 70
     1
102
RTVSPropertyOp44
 70
     1
102
RTVSPropertyOp45
 70
     1
102
RTVSPropertyOp46
 70
     1
102
RTVSPropertyOp47
 70
     1
102
RTVSPropertyOp48
 70
     1
102
RTVSPropertyOp49
 70
     1
102
RTVSPropertyOp50
 70
     1
102
RTVSPropertyOp51
 70
     0
102
RTVSPropertyOp52
 70
     0
102
RTVSPropertyOp53
 70
     1
102
RTVSPropertyOp54
 70
     1
102
RTVSPropertyOp55
 70
     1
102
RTVSPropertyOp56
 70
     1
102
RTVSPropertyOp57
 70
     1
102
RTVSPost2010Prop28
280
     0
102
RTVSPost2010PropOp28
 70
     1
102
RTVSPost2010Prop29
280
     1
102
RTVSPost2010PropOp29
 70
     1
102
RTVSPost2010Prop30
280
     1
102
RTVSPost2010PropOp30
 70
     1
102
RTVSPost2010Prop31
280
     0
102
RTVSPost2010PropOp31
 70
     1
102
RTVSPost2010Prop32
280
     0
102
RTVSPost2010PropOp32
 70
     1
102
RTVSPost2010Prop33
280
     0
102
RTVSPost2010PropOp33
 70
     1
102
RTVSPost2010Prop34
280
     0
102
RTVSPost2010PropOp34
 70
     1
102
RTVSPost2010Prop35
280
     0
102
RTVSPost2010PropOp35
 70
     1
102
RTVSPost2010Prop36
280
     0
102
RTVSPost2010PropOp36
 70
     1
102
RTVSPost2010Prop37
 90
       50
102
RTVSPost2010PropOp37
 70
     1
102
RTVSPost2010Prop38
140
0.0
102
RTVSPost2010PropOp38
 70
     1
102
RTVSPost2010Prop39
140
1.0
102
RTVSPost2010PropOp39
 70
     1
102
RTVSPost2010Prop40
 90
        0
102
RTVSPost2010PropOp40
 70
     1
102
RTVSPost2010Prop41ColorIndex
 90
       18
102
RTVSPost2010Prop41ColorRGB
 90
        0
102
RTVSPost2010PropOp41
 70
     1
102
RTVSPost2010Prop42
 90
       50
102
RTVSPost2010PropOp42
 70
     1
102
RTVSPost2010Prop43
 90
        3
102
RTVSPost2010PropOp43
 70
     1
102
RTVSPost2010Prop44ColorIndex
 90
        5
102
RTVSPost2010Prop44ColorRGB
 90
      255
102
RTVSPost2010PropOp44
 70
     1
102
RTVSPost2010Prop45
280
     0
102
RTVSPost2010PropOp45
 70
     1
102
RTVSPost2010Prop46
 90
       50
102
RTVSPost2010PropOp46
 70
     1
102
RTVSPost2010Prop47
 90
       50
102
RTVSPost2010PropOp47
 70
     1
102
RTVSPost2010Prop48
 90
       50
102
RTVSPost2010PropOp48
 70
     1
102
RTVSPost2010Prop49
280
     0
102
RTVSPost2010PropOp49
 70
     1
102
RTVSPost2010Prop50
 90
       50
102
RTVSPost2010PropOp50
 70
     1
102
RTVSPost2010Prop51ColorIndex
 90
      256
102
RTVSPost2010Prop51ColorRGB
 90
-16777216
102
RTVSPost2010PropOp51
 70
     0
102
RTVSPost2010Prop52
140
1.0
102
RTVSPost2010PropOp52
 70
     0
102
RTVSPost2010Prop53
 90
        2
102
RTVSPost2010PropOp53
 70
     1
102
RTVSPost2010Prop54
  1
strokes_ogs.tif
102
RTVSPost2010PropOp54
 70
     1
102
RTVSPost2010Prop55
280
     0
102
RTVSPost2010PropOp55
 70
     1
102
RTVSPost2010Prop56
140
1.0
102
RTVSPost2010PropOp56
 70
     1
102
RTVSPost2010Prop57
140
1.0
102
RTVSPost2010PropOp57
 70
     1
  0
XRECORD
  5
45B
102
{ACAD_REACTORS
330
45A
102
}
330
45A
100
AcDbXrecord
280
     1
102
RTVSPropertyOp0
 70
     0
102
RTVSPropertyOp1
 70
     0
102
RTVSPropertyOp2
 70
     0
102
RTVSPropertyOp3
 70
     0
102
RTVSPropertyOp4
 70
     0
102
RTVSPropertyOp5
 70
     0
102
RTVSPropertyOp6
 70
     0
102
RTVSPropertyOp7
 70
     0
102
RTVSPropertyOp8
 70
     0
102
RTVSPropertyOp9
 70
     0
102
RTVSPropertyOp10
 70
     0
102
RTVSPropertyOp11
 70
     0
102
RTVSPropertyOp12
 70
     0
102
RTVSPropertyOp13
 70
     0
102
RTVSPropertyOp14
 70
     2
102
RTVSPropertyOp15
 70
     0
102
RTVSPropertyOp16
 70
     0
102
RTVSPropertyOp17
 70
     0
102
RTVSPropertyOp18
 70
     0
102
RTVSPropertyOp19
 70
     0
102
RTVSPropertyOp20
 70
     0
102
RTVSPropertyOp21
 70
     0
102
RTVSPropertyOp22
 70
     0
102
RTVSPropertyOp23
 70
     0
102
RTVSPropertyOp24
 70
     0
102
RTVSPropertyOp25
 70
     0
102
RTVSPropertyOp26
 70
     0
102
RTVSPropertyOp27
 70
     0
102
RTVSPropertyOp28
 70
     0
102
RTVSPropertyOp29
 70
     0
102
RTVSPropertyOp30
 70
     0
102
RTVSPropertyOp31
 70
     0
102
RTVSPropertyOp32
 70
     0
102
RTVSPropertyOp33
 70
     0
102
RTVSPropertyOp34
 70
     0
102
RTVSPropertyOp35
 70
     0
102
RTVSPropertyOp36
 70
     0
102
RTVSPropertyOp37
 70
     0
102
RTVSPropertyOp38
 70
     0
102
RTVSPropertyOp39
 70
     0
102
RTVSPropertyOp40
 70
     0
102
RTVSPropertyOp41
 70
     0
102
RTVSPropertyOp42
 70
     0
102
RTVSPropertyOp43
 70
     0
102
RTVSPropertyOp44
 70
     0
102
RTVSPropertyOp45
 70
     0
102
RTVSPropertyOp46
 70
     0
102
RTVSPropertyOp47
 70
     0
102
RTVSPropertyOp48
 70
     0
102
RTVSPropertyOp49
 70
     0
102
RTVSPropertyOp50
 70
     0
102
RTVSPropertyOp51
 70
     0
102
RTVSPropertyOp52
 70
     0
102
RTVSPropertyOp53
 70
     0
102
RTVSPropertyOp54
 70
     0
102
RTVSPropertyOp55
 70
     0
102
RTVSPropertyOp56
 70
     0
102
RTVSPropertyOp57
 70
     0
102
RTVSPost2010Prop28
280
     0
102
RTVSPost2010PropOp28
 70
     0
102
RTVSPost2010Prop29
280
     1
102
RTVSPost2010PropOp29
 70
     0
102
RTVSPost2010Prop30
280
     1
102
RTVSPost2010PropOp30
 70
     0
102
RTVSPost2010Prop31
280
     0
102
RTVSPost2010PropOp31
 70
     0
102
RTVSPost2010Prop32
280
     0
102
RTVSPost2010PropOp32
 70
     0
102
RTVSPost2010Prop33
280
     0
102
RTVSPost2010PropOp33
 70
     0
102
RTVSPost2010Prop34
280
     0
102
RTVSPost2010PropOp34
 70
     0
102
RTVSPost2010Prop35
280
     0
102
RTVSPost2010PropOp35
 70
     0
102
RTVSPost2010Prop36
280
     0
102
RTVSPost2010PropOp36
 70
     0
102
RTVSPost2010Prop37
 90
       50
102
RTVSPost2010PropOp37
 70
     0
102
RTVSPost2010Prop38
140
0.0
102
RTVSPost2010PropOp38
 70
     0
102
RTVSPost2010Prop39
140
1.0
102
RTVSPost2010PropOp39
 70
     0
102
RTVSPost2010Prop40
 90
        0
102
RTVSPost2010PropOp40
 70
     0
102
RTVSPost2010Prop41ColorIndex
 90
       18
102
RTVSPost2010Prop41ColorRGB
 90
        0
102
RTVSPost2010PropOp41
 70
     0
102
RTVSPost2010Prop42
 90
       50
102
RTVSPost2010PropOp42
 70
     0
102
RTVSPost2010Prop43
 90
        3
102
RTVSPost2010PropOp43
 70
     0
102
RTVSPost2010Prop44ColorIndex
 90
        5
102
RTVSPost2010Prop44ColorRGB
 90
      255
102
RTVSPost2010PropOp44
 70
     0
102
RTVSPost2010Prop45
280
     0
102
RTVSPost2010PropOp45
 70
     0
102
RTVSPost2010Prop46
 90
       50
102
RTVSPost2010PropOp46
 70
     0
102
RTVSPost2010Prop47
 90
       50
102
RTVSPost2010PropOp47
 70
     0
102
RTVSPost2010Prop48
 90
       50
102
RTVSPost2010PropOp48
 70
     0
102
RTVSPost2010Prop49
280
     0
102
RTVSPost2010PropOp49
 70
     0
102
RTVSPost2010Prop50
 90
       50
102
RTVSPost2010PropOp50
 70
     0
102
RTVSPost2010Prop51ColorIndex
 90
      256
102
RTVSPost2010Prop51ColorRGB
 90
-16777216
102
RTVSPost2010PropOp51
 70
     0
102
RTVSPost2010Prop52
140
1.0
102
RTVSPost2010PropOp52
 70
     0
102
RTVSPost2010Prop53
 90
        2
102
RTVSPost2010PropOp53
 70
     0
102
RTVSPost2010Prop54
  1
strokes_ogs.tif
102
RTVSPost2010PropOp54
 70
     0
102
RTVSPost2010Prop55
280
     0
102
RTVSPost2010PropOp55
 70
     0
102
RTVSPost2010Prop56
140
1.0
102
RTVSPost2010PropOp56
 70
     0
102
RTVSPost2010Prop57
140
1.0
102
RTVSPost2010PropOp57
 70
     0
  0
XRECORD
  5
449
102
{ACAD_REACTORS
330
448
102
}
330
448
100
AcDbXrecord
280
     1
102
RTVSPropertyOp0
 70
     1
102
RTVSPropertyOp1
 70
     1
102
RTVSPropertyOp2
 70
     1
102
RTVSPropertyOp3
 70
     1
102
RTVSPropertyOp4
 70
     1
102
RTVSPropertyOp5
 70
     1
102
RTVSPropertyOp6
 70
     1
102
RTVSPropertyOp7
 70
     1
102
RTVSPropertyOp8
 70
     1
102
RTVSPropertyOp9
 70
     1
102
RTVSPropertyOp10
 70
     1
102
RTVSPropertyOp11
 70
     1
102
RTVSPropertyOp12
 70
     1
102
RTVSPropertyOp13
 70
     1
102
RTVSPropertyOp14
 70
     1
102
RTVSPropertyOp15
 70
     1
102
RTVSPropertyOp16
 70
     1
102
RTVSPropertyOp17
 70
     1
102
RTVSPropertyOp18
 70
     1
102
RTVSPropertyOp19
 70
     1
102
RTVSPropertyOp20
 70
     1
102
RTVSPropertyOp21
 70
     1
102
RTVSPropertyOp22
 70
     1
102
RTVSPropertyOp23
 70
     1
102
RTVSPropertyOp24
 70
     1
102
RTVSPropertyOp25
 70
     1
102
RTVSPropertyOp26
 70
     1
102
RTVSPropertyOp27
 70
     1
102
RTVSPropertyOp28
 70
     1
102
RTVSPropertyOp29
 70
     1
102
RTVSPropertyOp30
 70
     1
102
RTVSPropertyOp31
 70
     1
102
RTVSPropertyOp32
 70
     1
102
RTVSPropertyOp33
 70
     1
102
RTVSPropertyOp34
 70
     1
102
RTVSPropertyOp35
 70
     1
102
RTVSPropertyOp36
 70
     1
102
RTVSPropertyOp37
 70
     1
102
RTVSPropertyOp38
 70
     1
102
RTVSPropertyOp39
 70
     1
102
RTVSPropertyOp40
 70
     1
102
RTVSPropertyOp41
 70
     1
102
RTVSPropertyOp42
 70
     1
102
RTVSPropertyOp43
 70
     1
102
RTVSPropertyOp44
 70
     1
102
RTVSPropertyOp45
 70
     1
102
RTVSPropertyOp46
 70
     1
102
RTVSPropertyOp47
 70
     1
102
RTVSPropertyOp48
 70
     1
102
RTVSPropertyOp49
 70
     1
102
RTVSPropertyOp50
 70
     1
102
RTVSPropertyOp51
 70
     0
102
RTVSPropertyOp52
 70
     0
102
RTVSPropertyOp53
 70
     1
102
RTVSPropertyOp54
 70
     1
102
RTVSPropertyOp55
 70
     1
102
RTVSPropertyOp56
 70
     1
102
RTVSPropertyOp57
 70
     1
102
RTVSPost2010Prop28
280
     0
102
RTVSPost2010PropOp28
 70
     1
102
RTVSPost2010Prop29
280
     1
102
RTVSPost2010PropOp29
 70
     1
102
RTVSPost2010Prop30
280
     1
102
RTVSPost2010PropOp30
 70
     1
102
RTVSPost2010Prop31
280
     0
102
RTVSPost2010PropOp31
 70
     1
102
RTVSPost2010Prop32
280
     0
102
RTVSPost2010PropOp32
 70
     1
102
RTVSPost2010Prop33
280
     0
102
RTVSPost2010PropOp33
 70
     1
102
RTVSPost2010Prop34
280
     0
102
RTVSPost2010PropOp34
 70
     1
102
RTVSPost2010Prop35
280
     0
102
RTVSPost2010PropOp35
 70
     1
102
RTVSPost2010Prop36
280
     0
102
RTVSPost2010PropOp36
 70
     1
102
RTVSPost2010Prop37
 90
       50
102
RTVSPost2010PropOp37
 70
     1
102
RTVSPost2010Prop38
140
0.0
102
RTVSPost2010PropOp38
 70
     1
102
RTVSPost2010Prop39
140
1.0
102
RTVSPost2010PropOp39
 70
     1
102
RTVSPost2010Prop40
 90
        0
102
RTVSPost2010PropOp40
 70
     1
102
RTVSPost2010Prop41ColorIndex
 90
       18
102
RTVSPost2010Prop41ColorRGB
 90
        0
102
RTVSPost2010PropOp41
 70
     1
102
RTVSPost2010Prop42
 90
       50
102
RTVSPost2010PropOp42
 70
     1
102
RTVSPost2010Prop43
 90
        3
102
RTVSPost2010PropOp43
 70
     1
102
RTVSPost2010Prop44ColorIndex
 90
        5
102
RTVSPost2010Prop44ColorRGB
 90
      255
102
RTVSPost2010PropOp44
 70
     1
102
RTVSPost2010Prop45
280
     0
102
RTVSPost2010PropOp45
 70
     1
102
RTVSPost2010Prop46
 90
       50
102
RTVSPost2010PropOp46
 70
     1
102
RTVSPost2010Prop47
 90
       50
102
RTVSPost2010PropOp47
 70
     1
102
RTVSPost2010Prop48
 90
       50
102
RTVSPost2010PropOp48
 70
     1
102
RTVSPost2010Prop49
280
     0
102
RTVSPost2010PropOp49
 70
     1
102
RTVSPost2010Prop50
 90
       50
102
RTVSPost2010PropOp50
 70
     1
102
RTVSPost2010Prop51ColorIndex
 90
      256
102
RTVSPost2010Prop51ColorRGB
 90
-16777216
102
RTVSPost2010PropOp51
 70
     0
102
RTVSPost2010Prop52
140
1.0
102
RTVSPost2010PropOp52
 70
     0
102
RTVSPost2010Prop53
 90
        2
102
RTVSPost2010PropOp53
 70
     1
102
RTVSPost2010Prop54
  1
strokes_ogs.tif
102
RTVSPost2010PropOp54
 70
     1
102
RTVSPost2010Prop55
280
     0
102
RTVSPost2010PropOp55
 70
     1
102
RTVSPost2010Prop56
140
1.0
102
RTVSPost2010PropOp56
 70
     1
102
RTVSPost2010Prop57
140
1.0
102
RTVSPost2010PropOp57
 70
     1
  0
XRECORD
  5
467
102
{ACAD_REACTORS
330
466
102
}
330
466
100
AcDbXrecord
280
     1
102
RTVSPropertyOp0
 70
     1
102
RTVSPropertyOp1
 70
     1
102
RTVSPropertyOp2
 70
     1
102
RTVSPropertyOp3
 70
     1
102
RTVSPropertyOp4
 70
     1
102
RTVSPropertyOp5
 70
     1
102
RTVSPropertyOp6
 70
     1
102
RTVSPropertyOp7
 70
     1
102
RTVSPropertyOp8
 70
     1
102
RTVSPropertyOp9
 70
     1
102
RTVSPropertyOp10
 70
     1
102
RTVSPropertyOp11
 70
     1
102
RTVSPropertyOp12
 70
     1
102
RTVSPropertyOp13
 70
     1
102
RTVSPropertyOp14
 70
     1
102
RTVSPropertyOp15
 70
     1
102
RTVSPropertyOp16
 70
     1
102
RTVSPropertyOp17
 70
     1
102
RTVSPropertyOp18
 70
     1
102
RTVSPropertyOp19
 70
     1
102
RTVSPropertyOp20
 70
     1
102
RTVSPropertyOp21
 70
     1
102
RTVSPropertyOp22
 70
     1
102
RTVSPropertyOp23
 70
     1
102
RTVSPropertyOp24
 70
     1
102
RTVSPropertyOp25
 70
     1
102
RTVSPropertyOp26
 70
     1
102
RTVSPropertyOp27
 70
     1
102
RTVSPropertyOp28
 70
     1
102
RTVSPropertyOp29
 70
     1
102
RTVSPropertyOp30
 70
     1
102
RTVSPropertyOp31
 70
     1
102
RTVSPropertyOp32
 70
     1
102
RTVSPropertyOp33
 70
     1
102
RTVSPropertyOp34
 70
     1
102
RTVSPropertyOp35
 70
     1
102
RTVSPropertyOp36
 70
     1
102
RTVSPropertyOp37
 70
     1
102
RTVSPropertyOp38
 70
     1
102
RTVSPropertyOp39
 70
     1
102
RTVSPropertyOp40
 70
     1
102
RTVSPropertyOp41
 70
     1
102
RTVSPropertyOp42
 70
     1
102
RTVSPropertyOp43
 70
     1
102
RTVSPropertyOp44
 70
     1
102
RTVSPropertyOp45
 70
     1
102
RTVSPropertyOp46
 70
     1
102
RTVSPropertyOp47
 70
     1
102
RTVSPropertyOp48
 70
     1
102
RTVSPropertyOp49
 70
     1
102
RTVSPropertyOp50
 70
     1
102
RTVSPropertyOp51
 70
     0
102
RTVSPropertyOp52
 70
     0
102
RTVSPropertyOp53
 70
     1
102
RTVSPropertyOp54
 70
     1
102
RTVSPropertyOp55
 70
     1
102
RTVSPropertyOp56
 70
     1
102
RTVSPropertyOp57
 70
     1
102
RTVSPost2010Prop28
280
     0
102
RTVSPost2010PropOp28
 70
     1
102
RTVSPost2010Prop29
280
     1
102
RTVSPost2010PropOp29
 70
     1
102
RTVSPost2010Prop30
280
     1
102
RTVSPost2010PropOp30
 70
     1
102
RTVSPost2010Prop31
280
     0
102
RTVSPost2010PropOp31
 70
     1
102
RTVSPost2010Prop32
280
     0
102
RTVSPost2010PropOp32
 70
     1
102
RTVSPost2010Prop33
280
     0
102
RTVSPost2010PropOp33
 70
     1
102
RTVSPost2010Prop34
280
     0
102
RTVSPost2010PropOp34
 70
     1
102
RTVSPost2010Prop35
280
     0
102
RTVSPost2010PropOp35
 70
     1
102
RTVSPost2010Prop36
280
     0
102
RTVSPost2010PropOp36
 70
     1
102
RTVSPost2010Prop37
 90
       50
102
RTVSPost2010PropOp37
 70
     1
102
RTVSPost2010Prop38
140
0.0
102
RTVSPost2010PropOp38
 70
     1
102
RTVSPost2010Prop39
140
1.0
102
RTVSPost2010PropOp39
 70
     1
102
RTVSPost2010Prop40
 90
        0
102
RTVSPost2010PropOp40
 70
     1
102
RTVSPost2010Prop41ColorIndex
 90
       18
102
RTVSPost2010Prop41ColorRGB
 90
        0
102
RTVSPost2010PropOp41
 70
     1
102
RTVSPost2010Prop42
 90
       50
102
RTVSPost2010PropOp42
 70
     1
102
RTVSPost2010Prop43
 90
        3
102
RTVSPost2010PropOp43
 70
     1
102
RTVSPost2010Prop44ColorIndex
 90
        5
102
RTVSPost2010Prop44ColorRGB
 90
      255
102
RTVSPost2010PropOp44
 70
     1
102
RTVSPost2010Prop45
280
     0
102
RTVSPost2010PropOp45
 70
     1
102
RTVSPost2010Prop46
 90
       50
102
RTVSPost2010PropOp46
 70
     1
102
RTVSPost2010Prop47
 90
       50
102
RTVSPost2010PropOp47
 70
     1
102
RTVSPost2010Prop48
 90
       50
102
RTVSPost2010PropOp48
 70
     1
102
RTVSPost2010Prop49
280
     0
102
RTVSPost2010PropOp49
 70
     1
102
RTVSPost2010Prop50
 90
       50
102
RTVSPost2010PropOp50
 70
     1
102
RTVSPost2010Prop51ColorIndex
 90
      256
102
RTVSPost2010Prop51ColorRGB
 90
-16777216
102
RTVSPost2010PropOp51
 70
     0
102
RTVSPost2010Prop52
140
1.0
102
RTVSPost2010PropOp52
 70
     0
102
RTVSPost2010Prop53
 90
        2
102
RTVSPost2010PropOp53
 70
     1
102
RTVSPost2010Prop54
  1
strokes_ogs.tif
102
RTVSPost2010PropOp54
 70
     1
102
RTVSPost2010Prop55
280
     0
102
RTVSPost2010PropOp55
 70
     1
102
RTVSPost2010Prop56
140
1.0
102
RTVSPost2010PropOp56
 70
     1
102
RTVSPost2010Prop57
140
1.0
102
RTVSPost2010PropOp57
 70
     1
  0
XRECORD
  5
465
102
{ACAD_REACTORS
330
464
102
}
330
464
100
AcDbXrecord
280
     1
102
RTVSPropertyOp0
 70
     1
102
RTVSPropertyOp1
 70
     1
102
RTVSPropertyOp2
 70
     1
102
RTVSPropertyOp3
 70
     1
102
RTVSPropertyOp4
 70
     1
102
RTVSPropertyOp5
 70
     1
102
RTVSPropertyOp6
 70
     1
102
RTVSPropertyOp7
 70
     1
102
RTVSPropertyOp8
 70
     1
102
RTVSPropertyOp9
 70
     1
102
RTVSPropertyOp10
 70
     1
102
RTVSPropertyOp11
 70
     1
102
RTVSPropertyOp12
 70
     1
102
RTVSPropertyOp13
 70
     1
102
RTVSPropertyOp14
 70
     1
102
RTVSPropertyOp15
 70
     1
102
RTVSPropertyOp16
 70
     1
102
RTVSPropertyOp17
 70
     1
102
RTVSPropertyOp18
 70
     1
102
RTVSPropertyOp19
 70
     1
102
RTVSPropertyOp20
 70
     1
102
RTVSPropertyOp21
 70
     1
102
RTVSPropertyOp22
 70
     1
102
RTVSPropertyOp23
 70
     1
102
RTVSPropertyOp24
 70
     1
102
RTVSPropertyOp25
 70
     1
102
RTVSPropertyOp26
 70
     1
102
RTVSPropertyOp27
 70
     1
102
RTVSPropertyOp28
 70
     1
102
RTVSPropertyOp29
 70
     1
102
RTVSPropertyOp30
 70
     1
102
RTVSPropertyOp31
 70
     1
102
RTVSPropertyOp32
 70
     1
102
RTVSPropertyOp33
 70
     1
102
RTVSPropertyOp34
 70
     1
102
RTVSPropertyOp35
 70
     1
102
RTVSPropertyOp36
 70
     1
102
RTVSPropertyOp37
 70
     1
102
RTVSPropertyOp38
 70
     1
102
RTVSPropertyOp39
 70
     1
102
RTVSPropertyOp40
 70
     1
102
RTVSPropertyOp41
 70
     1
102
RTVSPropertyOp42
 70
     1
102
RTVSPropertyOp43
 70
     1
102
RTVSPropertyOp44
 70
     1
102
RTVSPropertyOp45
 70
     1
102
RTVSPropertyOp46
 70
     1
102
RTVSPropertyOp47
 70
     1
102
RTVSPropertyOp48
 70
     1
102
RTVSPropertyOp49
 70
     1
102
RTVSPropertyOp50
 70
     1
102
RTVSPropertyOp51
 70
     0
102
RTVSPropertyOp52
 70
     0
102
RTVSPropertyOp53
 70
     1
102
RTVSPropertyOp54
 70
     1
102
RTVSPropertyOp55
 70
     1
102
RTVSPropertyOp56
 70
     1
102
RTVSPropertyOp57
 70
     1
102
RTVSPost2010Prop28
280
     0
102
RTVSPost2010PropOp28
 70
     1
102
RTVSPost2010Prop29
280
     1
102
RTVSPost2010PropOp29
 70
     1
102
RTVSPost2010Prop30
280
     1
102
RTVSPost2010PropOp30
 70
     1
102
RTVSPost2010Prop31
280
     0
102
RTVSPost2010PropOp31
 70
     1
102
RTVSPost2010Prop32
280
     0
102
RTVSPost2010PropOp32
 70
     1
102
RTVSPost2010Prop33
280
     0
102
RTVSPost2010PropOp33
 70
     1
102
RTVSPost2010Prop34
280
     0
102
RTVSPost2010PropOp34
 70
     1
102
RTVSPost2010Prop35
280
     0
102
RTVSPost2010PropOp35
 70
     1
102
RTVSPost2010Prop36
280
     0
102
RTVSPost2010PropOp36
 70
     1
102
RTVSPost2010Prop37
 90
       50
102
RTVSPost2010PropOp37
 70
     1
102
RTVSPost2010Prop38
140
0.0
102
RTVSPost2010PropOp38
 70
     1
102
RTVSPost2010Prop39
140
1.0
102
RTVSPost2010PropOp39
 70
     1
102
RTVSPost2010Prop40
 90
        0
102
RTVSPost2010PropOp40
 70
     1
102
RTVSPost2010Prop41ColorIndex
 90
       18
102
RTVSPost2010Prop41ColorRGB
 90
        0
102
RTVSPost2010PropOp41
 70
     1
102
RTVSPost2010Prop42
 90
       50
102
RTVSPost2010PropOp42
 70
     1
102
RTVSPost2010Prop43
 90
        3
102
RTVSPost2010PropOp43
 70
     1
102
RTVSPost2010Prop44ColorIndex
 90
        5
102
RTVSPost2010Prop44ColorRGB
 90
      255
102
RTVSPost2010PropOp44
 70
     1
102
RTVSPost2010Prop45
280
     0
102
RTVSPost2010PropOp45
 70
     1
102
RTVSPost2010Prop46
 90
       50
102
RTVSPost2010PropOp46
 70
     1
102
RTVSPost2010Prop47
 90
       50
102
RTVSPost2010PropOp47
 70
     1
102
RTVSPost2010Prop48
 90
       50
102
RTVSPost2010PropOp48
 70
     1
102
RTVSPost2010Prop49
280
     0
102
RTVSPost2010PropOp49
 70
     1
102
RTVSPost2010Prop50
 90
       50
102
RTVSPost2010PropOp50
 70
     1
102
RTVSPost2010Prop51ColorIndex
 90
      256
102
RTVSPost2010Prop51ColorRGB
 90
-16777216
102
RTVSPost2010PropOp51
 70
     0
102
RTVSPost2010Prop52
140
1.0
102
RTVSPost2010PropOp52
 70
     0
102
RTVSPost2010Prop53
 90
        2
102
RTVSPost2010PropOp53
 70
     1
102
RTVSPost2010Prop54
  1
strokes_ogs.tif
102
RTVSPost2010PropOp54
 70
     1
102
RTVSPost2010Prop55
280
     0
102
RTVSPost2010PropOp55
 70
     1
102
RTVSPost2010Prop56
140
1.0
102
RTVSPost2010PropOp56
 70
     1
102
RTVSPost2010Prop57
140
1.0
102
RTVSPost2010PropOp57
 70
     1
  0
XRECORD
  5
45F
102
{ACAD_REACTORS
330
45E
102
}
330
45E
100
AcDbXrecord
280
     1
102
RTVSPropertyOp0
 70
     1
102
RTVSPropertyOp1
 70
     1
102
RTVSPropertyOp2
 70
     1
102
RTVSPropertyOp3
 70
     1
102
RTVSPropertyOp4
 70
     1
102
RTVSPropertyOp5
 70
     1
102
RTVSPropertyOp6
 70
     1
102
RTVSPropertyOp7
 70
     1
102
RTVSPropertyOp8
 70
     1
102
RTVSPropertyOp9
 70
     1
102
RTVSPropertyOp10
 70
     1
102
RTVSPropertyOp11
 70
     1
102
RTVSPropertyOp12
 70
     1
102
RTVSPropertyOp13
 70
     1
102
RTVSPropertyOp14
 70
     1
102
RTVSPropertyOp15
 70
     1
102
RTVSPropertyOp16
 70
     1
102
RTVSPropertyOp17
 70
     1
102
RTVSPropertyOp18
 70
     1
102
RTVSPropertyOp19
 70
     1
102
RTVSPropertyOp20
 70
     1
102
RTVSPropertyOp21
 70
     1
102
RTVSPropertyOp22
 70
     1
102
RTVSPropertyOp23
 70
     1
102
RTVSPropertyOp24
 70
     1
102
RTVSPropertyOp25
 70
     1
102
RTVSPropertyOp26
 70
     1
102
RTVSPropertyOp27
 70
     1
102
RTVSPropertyOp28
 70
     1
102
RTVSPropertyOp29
 70
     1
102
RTVSPropertyOp30
 70
     1
102
RTVSPropertyOp31
 70
     1
102
RTVSPropertyOp32
 70
     1
102
RTVSPropertyOp33
 70
     1
102
RTVSPropertyOp34
 70
     1
102
RTVSPropertyOp35
 70
     1
102
RTVSPropertyOp36
 70
     1
102
RTVSPropertyOp37
 70
     1
102
RTVSPropertyOp38
 70
     1
102
RTVSPropertyOp39
 70
     1
102
RTVSPropertyOp40
 70
     1
102
RTVSPropertyOp41
 70
     1
102
RTVSPropertyOp42
 70
     1
102
RTVSPropertyOp43
 70
     1
102
RTVSPropertyOp44
 70
     1
102
RTVSPropertyOp45
 70
     1
102
RTVSPropertyOp46
 70
     1
102
RTVSPropertyOp47
 70
     1
102
RTVSPropertyOp48
 70
     1
102
RTVSPropertyOp49
 70
     1
102
RTVSPropertyOp50
 70
     1
102
RTVSPropertyOp51
 70
     0
102
RTVSPropertyOp52
 70
     0
102
RTVSPropertyOp53
 70
     1
102
RTVSPropertyOp54
 70
     1
102
RTVSPropertyOp55
 70
     1
102
RTVSPropertyOp56
 70
     1
102
RTVSPropertyOp57
 70
     1
102
RTVSPost2010Prop28
280
     0
102
RTVSPost2010PropOp28
 70
     1
102
RTVSPost2010Prop29
280
     1
102
RTVSPost2010PropOp29
 70
     1
102
RTVSPost2010Prop30
280
     1
102
RTVSPost2010PropOp30
 70
     1
102
RTVSPost2010Prop31
280
     0
102
RTVSPost2010PropOp31
 70
     1
102
RTVSPost2010Prop32
280
     0
102
RTVSPost2010PropOp32
 70
     1
102
RTVSPost2010Prop33
280
     0
102
RTVSPost2010PropOp33
 70
     1
102
RTVSPost2010Prop34
280
     0
102
RTVSPost2010PropOp34
 70
     1
102
RTVSPost2010Prop35
280
     0
102
RTVSPost2010PropOp35
 70
     1
102
RTVSPost2010Prop36
280
     0
102
RTVSPost2010PropOp36
 70
     1
102
RTVSPost2010Prop37
 90
       50
102
RTVSPost2010PropOp37
 70
     1
102
RTVSPost2010Prop38
140
0.0
102
RTVSPost2010PropOp38
 70
     1
102
RTVSPost2010Prop39
140
1.0
102
RTVSPost2010PropOp39
 70
     1
102
RTVSPost2010Prop40
 90
        0
102
RTVSPost2010PropOp40
 70
     1
102
RTVSPost2010Prop41ColorIndex
 90
       18
102
RTVSPost2010Prop41ColorRGB
 90
        0
102
RTVSPost2010PropOp41
 70
     1
102
RTVSPost2010Prop42
 90
       50
102
RTVSPost2010PropOp42
 70
     1
102
RTVSPost2010Prop43
 90
        3
102
RTVSPost2010PropOp43
 70
     1
102
RTVSPost2010Prop44ColorIndex
 90
        5
102
RTVSPost2010Prop44ColorRGB
 90
      255
102
RTVSPost2010PropOp44
 70
     1
102
RTVSPost2010Prop45
280
     0
102
RTVSPost2010PropOp45
 70
     1
102
RTVSPost2010Prop46
 90
       50
102
RTVSPost2010PropOp46
 70
     1
102
RTVSPost2010Prop47
 90
       50
102
RTVSPost2010PropOp47
 70
     1
102
RTVSPost2010Prop48
 90
       50
102
RTVSPost2010PropOp48
 70
     1
102
RTVSPost2010Prop49
280
     0
102
RTVSPost2010PropOp49
 70
     1
102
RTVSPost2010Prop50
 90
       50
102
RTVSPost2010PropOp50
 70
     1
102
RTVSPost2010Prop51ColorIndex
 90
      256
102
RTVSPost2010Prop51ColorRGB
 90
-16777216
102
RTVSPost2010PropOp51
 70
     0
102
RTVSPost2010Prop52
140
1.0
102
RTVSPost2010PropOp52
 70
     0
102
RTVSPost2010Prop53
 90
        2
102
RTVSPost2010PropOp53
 70
     1
102
RTVSPost2010Prop54
  1
strokes_ogs.tif
102
RTVSPost2010PropOp54
 70
     1
102
RTVSPost2010Prop55
280
     0
102
RTVSPost2010PropOp55
 70
     1
102
RTVSPost2010Prop56
140
1.0
102
RTVSPost2010PropOp56
 70
     1
102
RTVSPost2010Prop57
140
1.0
102
RTVSPost2010PropOp57
 70
     1
  0
XRECORD
  5
461
102
{ACAD_REACTORS
330
460
102
}
330
460
100
AcDbXrecord
280
     1
102
RTVSPropertyOp0
 70
     1
102
RTVSPropertyOp1
 70
     1
102
RTVSPropertyOp2
 70
     1
102
RTVSPropertyOp3
 70
     1
102
RTVSPropertyOp4
 70
     1
102
RTVSPropertyOp5
 70
     1
102
RTVSPropertyOp6
 70
     1
102
RTVSPropertyOp7
 70
     1
102
RTVSPropertyOp8
 70
     1
102
RTVSPropertyOp9
 70
     1
102
RTVSPropertyOp10
 70
     1
102
RTVSPropertyOp11
 70
     1
102
RTVSPropertyOp12
 70
     1
102
RTVSPropertyOp13
 70
     1
102
RTVSPropertyOp14
 70
     1
102
RTVSPropertyOp15
 70
     1
102
RTVSPropertyOp16
 70
     1
102
RTVSPropertyOp17
 70
     1
102
RTVSPropertyOp18
 70
     1
102
RTVSPropertyOp19
 70
     1
102
RTVSPropertyOp20
 70
     1
102
RTVSPropertyOp21
 70
     1
102
RTVSPropertyOp22
 70
     1
102
RTVSPropertyOp23
 70
     1
102
RTVSPropertyOp24
 70
     1
102
RTVSPropertyOp25
 70
     1
102
RTVSPropertyOp26
 70
     1
102
RTVSPropertyOp27
 70
     1
102
RTVSPropertyOp28
 70
     1
102
RTVSPropertyOp29
 70
     1
102
RTVSPropertyOp30
 70
     1
102
RTVSPropertyOp31
 70
     1
102
RTVSPropertyOp32
 70
     1
102
RTVSPropertyOp33
 70
     1
102
RTVSPropertyOp34
 70
     1
102
RTVSPropertyOp35
 70
     1
102
RTVSPropertyOp36
 70
     1
102
RTVSPropertyOp37
 70
     1
102
RTVSPropertyOp38
 70
     1
102
RTVSPropertyOp39
 70
     1
102
RTVSPropertyOp40
 70
     1
102
RTVSPropertyOp41
 70
     1
102
RTVSPropertyOp42
 70
     1
102
RTVSPropertyOp43
 70
     1
102
RTVSPropertyOp44
 70
     1
102
RTVSPropertyOp45
 70
     1
102
RTVSPropertyOp46
 70
     1
102
RTVSPropertyOp47
 70
     1
102
RTVSPropertyOp48
 70
     1
102
RTVSPropertyOp49
 70
     1
102
RTVSPropertyOp50
 70
     1
102
RTVSPropertyOp51
 70
     0
102
RTVSPropertyOp52
 70
     0
102
RTVSPropertyOp53
 70
     1
102
RTVSPropertyOp54
 70
     1
102
RTVSPropertyOp55
 70
     1
102
RTVSPropertyOp56
 70
     1
102
RTVSPropertyOp57
 70
     1
102
RTVSPost2010Prop28
280
     0
102
RTVSPost2010PropOp28
 70
     1
102
RTVSPost2010Prop29
280
     1
102
RTVSPost2010PropOp29
 70
     1
102
RTVSPost2010Prop30
280
     1
102
RTVSPost2010PropOp30
 70
     1
102
RTVSPost2010Prop31
280
     0
102
RTVSPost2010PropOp31
 70
     1
102
RTVSPost2010Prop32
280
     0
102
RTVSPost2010PropOp32
 70
     1
102
RTVSPost2010Prop33
280
     0
102
RTVSPost2010PropOp33
 70
     1
102
RTVSPost2010Prop34
280
     0
102
RTVSPost2010PropOp34
 70
     1
102
RTVSPost2010Prop35
280
     0
102
RTVSPost2010PropOp35
 70
     1
102
RTVSPost2010Prop36
280
     0
102
RTVSPost2010PropOp36
 70
     1
102
RTVSPost2010Prop37
 90
       50
102
RTVSPost2010PropOp37
 70
     1
102
RTVSPost2010Prop38
140
0.0
102
RTVSPost2010PropOp38
 70
     1
102
RTVSPost2010Prop39
140
1.0
102
RTVSPost2010PropOp39
 70
     1
102
RTVSPost2010Prop40
 90
        0
102
RTVSPost2010PropOp40
 70
     1
102
RTVSPost2010Prop41ColorIndex
 90
       18
102
RTVSPost2010Prop41ColorRGB
 90
        0
102
RTVSPost2010PropOp41
 70
     1
102
RTVSPost2010Prop42
 90
       50
102
RTVSPost2010PropOp42
 70
     1
102
RTVSPost2010Prop43
 90
        3
102
RTVSPost2010PropOp43
 70
     1
102
RTVSPost2010Prop44ColorIndex
 90
        5
102
RTVSPost2010Prop44ColorRGB
 90
      255
102
RTVSPost2010PropOp44
 70
     1
102
RTVSPost2010Prop45
280
     0
102
RTVSPost2010PropOp45
 70
     1
102
RTVSPost2010Prop46
 90
       50
102
RTVSPost2010PropOp46
 70
     1
102
RTVSPost2010Prop47
 90
       50
102
RTVSPost2010PropOp47
 70
     1
102
RTVSPost2010Prop48
 90
       50
102
RTVSPost2010PropOp48
 70
     1
102
RTVSPost2010Prop49
280
     0
102
RTVSPost2010PropOp49
 70
     1
102
RTVSPost2010Prop50
 90
       50
102
RTVSPost2010PropOp50
 70
     1
102
RTVSPost2010Prop51ColorIndex
 90
      256
102
RTVSPost2010Prop51ColorRGB
 90
-16777216
102
RTVSPost2010PropOp51
 70
     0
102
RTVSPost2010Prop52
140
1.0
102
RTVSPost2010PropOp52
 70
     0
102
RTVSPost2010Prop53
 90
        2
102
RTVSPost2010PropOp53
 70
     1
102
RTVSPost2010Prop54
  1
strokes_ogs.tif
102
RTVSPost2010PropOp54
 70
     1
102
RTVSPost2010Prop55
280
     0
102
RTVSPost2010PropOp55
 70
     1
102
RTVSPost2010Prop56
140
1.0
102
RTVSPost2010PropOp56
 70
     1
102
RTVSPost2010Prop57
140
1.0
102
RTVSPost2010PropOp57
 70
     1
  0
XRECORD
  5
451
102
{ACAD_REACTORS
330
450
102
}
330
450
100
AcDbXrecord
280
     1
102
RTVSPropertyOp0
 70
     1
102
RTVSPropertyOp1
 70
     1
102
RTVSPropertyOp2
 70
     1
102
RTVSPropertyOp3
 70
     1
102
RTVSPropertyOp4
 70
     1
102
RTVSPropertyOp5
 70
     1
102
RTVSPropertyOp6
 70
     1
102
RTVSPropertyOp7
 70
     1
102
RTVSPropertyOp8
 70
     1
102
RTVSPropertyOp9
 70
     1
102
RTVSPropertyOp10
 70
     1
102
RTVSPropertyOp11
 70
     1
102
RTVSPropertyOp12
 70
     1
102
RTVSPropertyOp13
 70
     1
102
RTVSPropertyOp14
 70
     1
102
RTVSPropertyOp15
 70
     1
102
RTVSPropertyOp16
 70
     1
102
RTVSPropertyOp17
 70
     1
102
RTVSPropertyOp18
 70
     1
102
RTVSPropertyOp19
 70
     1
102
RTVSPropertyOp20
 70
     1
102
RTVSPropertyOp21
 70
     1
102
RTVSPropertyOp22
 70
     1
102
RTVSPropertyOp23
 70
     1
102
RTVSPropertyOp24
 70
     1
102
RTVSPropertyOp25
 70
     1
102
RTVSPropertyOp26
 70
     1
102
RTVSPropertyOp27
 70
     1
102
RTVSPropertyOp28
 70
     1
102
RTVSPropertyOp29
 70
     1
102
RTVSPropertyOp30
 70
     1
102
RTVSPropertyOp31
 70
     1
102
RTVSPropertyOp32
 70
     1
102
RTVSPropertyOp33
 70
     1
102
RTVSPropertyOp34
 70
     1
102
RTVSPropertyOp35
 70
     1
102
RTVSPropertyOp36
 70
     1
102
RTVSPropertyOp37
 70
     1
102
RTVSPropertyOp38
 70
     1
102
RTVSPropertyOp39
 70
     1
102
RTVSPropertyOp40
 70
     1
102
RTVSPropertyOp41
 70
     1
102
RTVSPropertyOp42
 70
     1
102
RTVSPropertyOp43
 70
     1
102
RTVSPropertyOp44
 70
     1
102
RTVSPropertyOp45
 70
     1
102
RTVSPropertyOp46
 70
     1
102
RTVSPropertyOp47
 70
     1
102
RTVSPropertyOp48
 70
     1
102
RTVSPropertyOp49
 70
     1
102
RTVSPropertyOp50
 70
     1
102
RTVSPropertyOp51
 70
     0
102
RTVSPropertyOp52
 70
     0
102
RTVSPropertyOp53
 70
     1
102
RTVSPropertyOp54
 70
     1
102
RTVSPropertyOp55
 70
     1
102
RTVSPropertyOp56
 70
     1
102
RTVSPropertyOp57
 70
     1
102
RTVSPost2010Prop28
280
     0
102
RTVSPost2010PropOp28
 70
     1
102
RTVSPost2010Prop29
280
     1
102
RTVSPost2010PropOp29
 70
     1
102
RTVSPost2010Prop30
280
     1
102
RTVSPost2010PropOp30
 70
     1
102
RTVSPost2010Prop31
280
     0
102
RTVSPost2010PropOp31
 70
     1
102
RTVSPost2010Prop32
280
     0
102
RTVSPost2010PropOp32
 70
     1
102
RTVSPost2010Prop33
280
     0
102
RTVSPost2010PropOp33
 70
     1
102
RTVSPost2010Prop34
280
     0
102
RTVSPost2010PropOp34
 70
     1
102
RTVSPost2010Prop35
280
     0
102
RTVSPost2010PropOp35
 70
     1
102
RTVSPost2010Prop36
280
     0
102
RTVSPost2010PropOp36
 70
     1
102
RTVSPost2010Prop37
 90
       50
102
RTVSPost2010PropOp37
 70
     1
102
RTVSPost2010Prop38
140
0.0
102
RTVSPost2010PropOp38
 70
     1
102
RTVSPost2010Prop39
140
1.0
102
RTVSPost2010PropOp39
 70
     1
102
RTVSPost2010Prop40
 90
        0
102
RTVSPost2010PropOp40
 70
     1
102
RTVSPost2010Prop41ColorIndex
 90
       18
102
RTVSPost2010Prop41ColorRGB
 90
        0
102
RTVSPost2010PropOp41
 70
     1
102
RTVSPost2010Prop42
 90
       50
102
RTVSPost2010PropOp42
 70
     1
102
RTVSPost2010Prop43
 90
        3
102
RTVSPost2010PropOp43
 70
     1
102
RTVSPost2010Prop44ColorIndex
 90
        5
102
RTVSPost2010Prop44ColorRGB
 90
      255
102
RTVSPost2010PropOp44
 70
     1
102
RTVSPost2010Prop45
280
     0
102
RTVSPost2010PropOp45
 70
     1
102
RTVSPost2010Prop46
 90
       50
102
RTVSPost2010PropOp46
 70
     1
102
RTVSPost2010Prop47
 90
       50
102
RTVSPost2010PropOp47
 70
     1
102
RTVSPost2010Prop48
 90
       50
102
RTVSPost2010PropOp48
 70
     1
102
RTVSPost2010Prop49
280
     0
102
RTVSPost2010PropOp49
 70
     1
102
RTVSPost2010Prop50
 90
       50
102
RTVSPost2010PropOp50
 70
     1
102
RTVSPost2010Prop51ColorIndex
 90
      256
102
RTVSPost2010Prop51ColorRGB
 90
-16777216
102
RTVSPost2010PropOp51
 70
     0
102
RTVSPost2010Prop52
140
1.0
102
RTVSPost2010PropOp52
 70
     0
102
RTVSPost2010Prop53
 90
        2
102
RTVSPost2010PropOp53
 70
     1
102
RTVSPost2010Prop54
  1
strokes_ogs.tif
102
RTVSPost2010PropOp54
 70
     1
102
RTVSPost2010Prop55
280
     0
102
RTVSPost2010PropOp55
 70
     1
102
RTVSPost2010Prop56
140
1.0
102
RTVSPost2010PropOp56
 70
     1
102
RTVSPost2010Prop57
140
1.0
102
RTVSPost2010PropOp57
 70
     1
  0
XRECORD
  5
443
102
{ACAD_REACTORS
330
442
102
}
330
442
100
AcDbXrecord
280
     1
102
RTVSPropertyOp0
 70
     1
102
RTVSPropertyOp1
 70
     1
102
RTVSPropertyOp2
 70
     1
102
RTVSPropertyOp3
 70
     1
102
RTVSPropertyOp4
 70
     1
102
RTVSPropertyOp5
 70
     1
102
RTVSPropertyOp6
 70
     1
102
RTVSPropertyOp7
 70
     1
102
RTVSPropertyOp8
 70
     1
102
RTVSPropertyOp9
 70
     1
102
RTVSPropertyOp10
 70
     1
102
RTVSPropertyOp11
 70
     1
102
RTVSPropertyOp12
 70
     1
102
RTVSPropertyOp13
 70
     1
102
RTVSPropertyOp14
 70
     1
102
RTVSPropertyOp15
 70
     1
102
RTVSPropertyOp16
 70
     1
102
RTVSPropertyOp17
 70
     1
102
RTVSPropertyOp18
 70
     1
102
RTVSPropertyOp19
 70
     1
102
RTVSPropertyOp20
 70
     1
102
RTVSPropertyOp21
 70
     1
102
RTVSPropertyOp22
 70
     1
102
RTVSPropertyOp23
 70
     1
102
RTVSPropertyOp24
 70
     1
102
RTVSPropertyOp25
 70
     1
102
RTVSPropertyOp26
 70
     1
102
RTVSPropertyOp27
 70
     1
102
RTVSPropertyOp28
 70
     1
102
RTVSPropertyOp29
 70
     1
102
RTVSPropertyOp30
 70
     1
102
RTVSPropertyOp31
 70
     1
102
RTVSPropertyOp32
 70
     1
102
RTVSPropertyOp33
 70
     1
102
RTVSPropertyOp34
 70
     1
102
RTVSPropertyOp35
 70
     1
102
RTVSPropertyOp36
 70
     1
102
RTVSPropertyOp37
 70
     1
102
RTVSPropertyOp38
 70
     1
102
RTVSPropertyOp39
 70
     1
102
RTVSPropertyOp40
 70
     1
102
RTVSPropertyOp41
 70
     1
102
RTVSPropertyOp42
 70
     1
102
RTVSPropertyOp43
 70
     1
102
RTVSPropertyOp44
 70
     1
102
RTVSPropertyOp45
 70
     1
102
RTVSPropertyOp46
 70
     1
102
RTVSPropertyOp47
 70
     1
102
RTVSPropertyOp48
 70
     1
102
RTVSPropertyOp49
 70
     1
102
RTVSPropertyOp50
 70
     1
102
RTVSPropertyOp51
 70
     0
102
RTVSPropertyOp52
 70
     0
102
RTVSPropertyOp53
 70
     1
102
RTVSPropertyOp54
 70
     1
102
RTVSPropertyOp55
 70
     1
102
RTVSPropertyOp56
 70
     1
102
RTVSPropertyOp57
 70
     1
102
RTVSPost2010Prop28
280
     0
102
RTVSPost2010PropOp28
 70
     1
102
RTVSPost2010Prop29
280
     1
102
RTVSPost2010PropOp29
 70
     1
102
RTVSPost2010Prop30
280
     1
102
RTVSPost2010PropOp30
 70
     1
102
RTVSPost2010Prop31
280
     0
102
RTVSPost2010PropOp31
 70
     1
102
RTVSPost2010Prop32
280
     0
102
RTVSPost2010PropOp32
 70
     1
102
RTVSPost2010Prop33
280
     0
102
RTVSPost2010PropOp33
 70
     1
102
RTVSPost2010Prop34
280
     0
102
RTVSPost2010PropOp34
 70
     1
102
RTVSPost2010Prop35
280
     0
102
RTVSPost2010PropOp35
 70
     1
102
RTVSPost2010Prop36
280
     0
102
RTVSPost2010PropOp36
 70
     1
102
RTVSPost2010Prop37
 90
       50
102
RTVSPost2010PropOp37
 70
     1
102
RTVSPost2010Prop38
140
0.0
102
RTVSPost2010PropOp38
 70
     1
102
RTVSPost2010Prop39
140
1.0
102
RTVSPost2010PropOp39
 70
     1
102
RTVSPost2010Prop40
 90
        0
102
RTVSPost2010PropOp40
 70
     1
102
RTVSPost2010Prop41ColorIndex
 90
       18
102
RTVSPost2010Prop41ColorRGB
 90
        0
102
RTVSPost2010PropOp41
 70
     1
102
RTVSPost2010Prop42
 90
       50
102
RTVSPost2010PropOp42
 70
     1
102
RTVSPost2010Prop43
 90
        3
102
RTVSPost2010PropOp43
 70
     1
102
RTVSPost2010Prop44ColorIndex
 90
        5
102
RTVSPost2010Prop44ColorRGB
 90
      255
102
RTVSPost2010PropOp44
 70
     1
102
RTVSPost2010Prop45
280
     0
102
RTVSPost2010PropOp45
 70
     1
102
RTVSPost2010Prop46
 90
       50
102
RTVSPost2010PropOp46
 70
     1
102
RTVSPost2010Prop47
 90
       50
102
RTVSPost2010PropOp47
 70
     1
102
RTVSPost2010Prop48
 90
       50
102
RTVSPost2010PropOp48
 70
     1
102
RTVSPost2010Prop49
280
     0
102
RTVSPost2010PropOp49
 70
     1
102
RTVSPost2010Prop50
 90
       50
102
RTVSPost2010PropOp50
 70
     1
102
RTVSPost2010Prop51ColorIndex
 90
      256
102
RTVSPost2010Prop51ColorRGB
 90
-16777216
102
RTVSPost2010PropOp51
 70
     0
102
RTVSPost2010Prop52
140
1.0
102
RTVSPost2010PropOp52
 70
     0
102
RTVSPost2010Prop53
 90
        2
102
RTVSPost2010PropOp53
 70
     1
102
RTVSPost2010Prop54
  1
strokes_ogs.tif
102
RTVSPost2010PropOp54
 70
     1
102
RTVSPost2010Prop55
280
     0
102
RTVSPost2010PropOp55
 70
     1
102
RTVSPost2010Prop56
140
1.0
102
RTVSPost2010PropOp56
 70
     1
102
RTVSPost2010Prop57
140
1.0
102
RTVSPost2010PropOp57
 70
     1
  0
XRECORD
  5
463
102
{ACAD_REACTORS
330
462
102
}
330
462
100
AcDbXrecord
280
     1
102
RTVSPropertyOp0
 70
     1
102
RTVSPropertyOp1
 70
     1
102
RTVSPropertyOp2
 70
     1
102
RTVSPropertyOp3
 70
     1
102
RTVSPropertyOp4
 70
     1
102
RTVSPropertyOp5
 70
     1
102
RTVSPropertyOp6
 70
     1
102
RTVSPropertyOp7
 70
     1
102
RTVSPropertyOp8
 70
     1
102
RTVSPropertyOp9
 70
     1
102
RTVSPropertyOp10
 70
     1
102
RTVSPropertyOp11
 70
     1
102
RTVSPropertyOp12
 70
     1
102
RTVSPropertyOp13
 70
     1
102
RTVSPropertyOp14
 70
     1
102
RTVSPropertyOp15
 70
     1
102
RTVSPropertyOp16
 70
     1
102
RTVSPropertyOp17
 70
     1
102
RTVSPropertyOp18
 70
     1
102
RTVSPropertyOp19
 70
     1
102
RTVSPropertyOp20
 70
     1
102
RTVSPropertyOp21
 70
     1
102
RTVSPropertyOp22
 70
     1
102
RTVSPropertyOp23
 70
     1
102
RTVSPropertyOp24
 70
     1
102
RTVSPropertyOp25
 70
     1
102
RTVSPropertyOp26
 70
     1
102
RTVSPropertyOp27
 70
     1
102
RTVSPropertyOp28
 70
     1
102
RTVSPropertyOp29
 70
     1
102
RTVSPropertyOp30
 70
     1
102
RTVSPropertyOp31
 70
     1
102
RTVSPropertyOp32
 70
     1
102
RTVSPropertyOp33
 70
     1
102
RTVSPropertyOp34
 70
     1
102
RTVSPropertyOp35
 70
     1
102
RTVSPropertyOp36
 70
     1
102
RTVSPropertyOp37
 70
     1
102
RTVSPropertyOp38
 70
     1
102
RTVSPropertyOp39
 70
     1
102
RTVSPropertyOp40
 70
     1
102
RTVSPropertyOp41
 70
     1
102
RTVSPropertyOp42
 70
     1
102
RTVSPropertyOp43
 70
     1
102
RTVSPropertyOp44
 70
     1
102
RTVSPropertyOp45
 70
     1
102
RTVSPropertyOp46
 70
     1
102
RTVSPropertyOp47
 70
     1
102
RTVSPropertyOp48
 70
     1
102
RTVSPropertyOp49
 70
     1
102
RTVSPropertyOp50
 70
     1
102
RTVSPropertyOp51
 70
     0
102
RTVSPropertyOp52
 70
     0
102
RTVSPropertyOp53
 70
     1
102
RTVSPropertyOp54
 70
     1
102
RTVSPropertyOp55
 70
     1
102
RTVSPropertyOp56
 70
     1
102
RTVSPropertyOp57
 70
     1
102
RTVSPost2010Prop28
280
     0
102
RTVSPost2010PropOp28
 70
     1
102
RTVSPost2010Prop29
280
     1
102
RTVSPost2010PropOp29
 70
     1
102
RTVSPost2010Prop30
280
     1
102
RTVSPost2010PropOp30
 70
     1
102
RTVSPost2010Prop31
280
     0
102
RTVSPost2010PropOp31
 70
     1
102
RTVSPost2010Prop32
280
     0
102
RTVSPost2010PropOp32
 70
     1
102
RTVSPost2010Prop33
280
     0
102
RTVSPost2010PropOp33
 70
     1
102
RTVSPost2010Prop34
280
     0
102
RTVSPost2010PropOp34
 70
     1
102
RTVSPost2010Prop35
280
     0
102
RTVSPost2010PropOp35
 70
     1
102
RTVSPost2010Prop36
280
     0
102
RTVSPost2010PropOp36
 70
     1
102
RTVSPost2010Prop37
 90
       50
102
RTVSPost2010PropOp37
 70
     1
102
RTVSPost2010Prop38
140
0.0
102
RTVSPost2010PropOp38
 70
     1
102
RTVSPost2010Prop39
140
1.0
102
RTVSPost2010PropOp39
 70
     1
102
RTVSPost2010Prop40
 90
        0
102
RTVSPost2010PropOp40
 70
     1
102
RTVSPost2010Prop41ColorIndex
 90
       18
102
RTVSPost2010Prop41ColorRGB
 90
        0
102
RTVSPost2010PropOp41
 70
     1
102
RTVSPost2010Prop42
 90
       50
102
RTVSPost2010PropOp42
 70
     1
102
RTVSPost2010Prop43
 90
        3
102
RTVSPost2010PropOp43
 70
     1
102
RTVSPost2010Prop44ColorIndex
 90
        5
102
RTVSPost2010Prop44ColorRGB
 90
      255
102
RTVSPost2010PropOp44
 70
     1
102
RTVSPost2010Prop45
280
     0
102
RTVSPost2010PropOp45
 70
     1
102
RTVSPost2010Prop46
 90
       50
102
RTVSPost2010PropOp46
 70
     1
102
RTVSPost2010Prop47
 90
       50
102
RTVSPost2010PropOp47
 70
     1
102
RTVSPost2010Prop48
 90
       50
102
RTVSPost2010PropOp48
 70
     1
102
RTVSPost2010Prop49
280
     0
102
RTVSPost2010PropOp49
 70
     1
102
RTVSPost2010Prop50
 90
       50
102
RTVSPost2010PropOp50
 70
     1
102
RTVSPost2010Prop51ColorIndex
 90
      256
102
RTVSPost2010Prop51ColorRGB
 90
-16777216
102
RTVSPost2010PropOp51
 70
     0
102
RTVSPost2010Prop52
140
1.0
102
RTVSPost2010PropOp52
 70
     0
102
RTVSPost2010Prop53
 90
        2
102
RTVSPost2010PropOp53
 70
     1
102
RTVSPost2010Prop54
  1
strokes_ogs.tif
102
RTVSPost2010PropOp54
 70
     1
102
RTVSPost2010Prop55
280
     0
102
RTVSPost2010PropOp55
 70
     1
102
RTVSPost2010Prop56
140
1.0
102
RTVSPost2010PropOp56
 70
     1
102
RTVSPost2010Prop57
140
1.0
102
RTVSPost2010PropOp57
 70
     1
  0
ENDSEC
  0
EOF
