  0
SECTION
  2
HEADER
  9
$ACADVER
  1
AC1021
  9
$ACADMAINTVER
 70
    25
  9
$DWGCODEPAGE
  3
ANSI_1252
  9
$INSBASE
 10
0.0
 20
0.0
 30
0.0
  9
$EXTMIN
 10
0.0
 20
0.0
 30
0.0
  9
$EXTMAX
 10
215.9
 20
279.4
 30
0.0
  9
$LIMMIN
 10
0.0
 20
0.0
  9
$LIMMAX
 10
215.9
 20
279.4
  9
$ORTHOMODE
 70
     0
  9
$REGENMODE
 70
     1
  9
$FILLMODE
 70
     1
  9
$QTEXTMODE
 70
     0
  9
$MIRRTEXT
 70
     1
  9
$LTSCALE
 40
1.0
  9
$ATTMODE
 70
     1
  9
$TEXTSIZE
 40
2.5
  9
$TRACEWID
 40
1.0
  9
$TEXTSTYLE
  7
Standard
  9
$CLAYER
  8
0
  9
$CELTYPE
  6
ByLayer
  9
$CECOLOR
 62
   256
  9
$CELTSCALE
 40
1.0
  9
$DISPSILH
 70
     0
  9
$DIMSCALE
 40
1.0
  9
$DIMASZ
 40
2.5
  9
$DIMEXO
 40
0.625
  9
$DIMDLI
 40
3.75
  9
$DIMRND
 40
0.0
  9
$DIMDLE
 40
0.0
  9
$DIMEXE
 40
1.25
  9
$DIMTP
 40
0.0
  9
$DIMTM
 40
0.0
  9
$DIMTXT
 40
2.5
  9
$DIMCEN
 40
2.5
  9
$DIMTSZ
 40
0.0
  9
$DIMTOL
 70
     0
  9
$DIMLIM
 70
     0
  9
$DIMTIH
 70
     0
  9
$DIMTOH
 70
     0
  9
$DIMSE1
 70
     0
  9
$DIMSE2
 70
     0
  9
$DIMTAD
 70
     1
  9
$DIMZIN
 70
     8
  9
$DIMBLK
  1

  9
$DIMASO
 70
     1
  9
$DIMSHO
 70
     1
  9
$DIMPOST
  1

  9
$DIMAPOST
  1

  9
$DIMALT
 70
     0
  9
$DIMALTD
 70
     3
  9
$DIMALTF
 40
0.0393700787
  9
$DIMLFAC
 40
1.0
  9
$DIMTOFL
 70
     1
  9
$DIMTVP
 40
0.0
  9
$DIMTIX
 70
     0
  9
$DIMSOXD
 70
     0
  9
$DIMSAH
 70
     0
  9
$DIMBLK1
  1

  9
$DIMBLK2
  1

  9
$DIMSTYLE
  2
ISO-25
  9
$DIMCLRD
 70
     0
  9
$DIMCLRE
 70
     0
  9
$DIMCLRT
 70
     0
  9
$DIMTFAC
 40
1.0
  9
$DIMGAP
 40
0.625
  9
$DIMJUST
 70
     0
  9
$DIMSD1
 70
     0
  9
$DIMSD2
 70
     0
  9
$DIMTOLJ
 70
     0
  9
$DIMTZIN
 70
     8
  9
$DIMALTZ
 70
     0
  9
$DIMALTTZ
 70
     0
  9
$DIMUPT
 70
     0
  9
$DIMDEC
 70
     2
  9
$DIMTDEC
 70
     2
  9
$DIMALTU
 70
     2
  9
$DIMALTTD
 70
     3
  9
$DIMTXSTY
  7
Standard
  9
$DIMAUNIT
 70
     0
  9
$DIMADEC
 70
     0
  9
$DIMALTRND
 40
0.0
  9
$DIMAZIN
 70
     0
  9
$DIMDSEP
 70
    44
  9
$DIMATFIT
 70
     3
  9
$DIMFRAC
 70
     0
  9
$DIMLDRBLK
  1

  9
$DIMLUNIT
 70
     2
  9
$DIMLWD
 70
    -2
  9
$DIMLWE
 70
    -2
  9
$DIMTMOVE
 70
     0
  9
$DIMFXL
 40
1.0
  9
$DIMFXLON
 70
     0
  9
$DIMJOGANG
 40
0.7853981634
  9
$DIMTFILL
 70
     0
  9
$DIMTFILLCLR
 70
     0
  9
$DIMARCSYM
 70
     0
  9
$DIMLTYPE
  6

  9
$DIMLTEX1
  6

  9
$DIMLTEX2
  6

  9
$LUNITS
 70
     2
  9
$LUPREC
 70
     4
  9
$SKETCHINC
 40
1.0
  9
$FILLETRAD
 40
10.0
  9
$AUNITS
 70
     0
  9
$AUPREC
 70
     0
  9
$MENU
  1
.
  9
$ELEVATION
 40
0.0
  9
$PELEVATION
 40
0.0
  9
$THICKNESS
 40
0.0
  9
$LIMCHECK
 70
     0
  9
$CHAMFERA
 40
0.0
  9
$CHAMFERB
 40
0.0
  9
$CHAMFERC
 40
0.0
  9
$CHAMFERD
 40
0.0
  9
$SKPOLY
 70
     0
  9
$TDCREATE
 40
2457246.463087188
  9
$TDUCREATE
 40
2457246.379753854
  9
$TDUPDATE
 40
2457246.463088449
  9
$TDUUPDATE
 40
2457246.379755116
  9
$TDINDWG
 40
0.0000000116
  9
$TDUSRTIMER
 40
0.0000000116
  9
$USRTIMER
 70
     1
  9
$ANGBASE
 50
0.0
  9
$ANGDIR
 70
     0
  9
$PDMODE
 70
     0
  9
$PDSIZE
 40
0.0
  9
$PLINEWID
 40
0.0
  9
$SPLFRAME
 70
     0
  9
$SPLINETYPE
 70
     6
  9
$SPLINESEGS
 70
     8
  9
$HANDSEED
  5
261
  9
$SURFTAB1
 70
     6
  9
$SURFTAB2
 70
     6
  9
$SURFTYPE
 70
     6
  9
$SURFU
 70
     6
  9
$SURFV
 70
     6
  9
$UCSBASE
  2

  9
$UCSNAME
  2

  9
$UCSORG
 10
0.0
 20
0.0
 30
0.0
  9
$UCSXDIR
 10
1.0
 20
0.0
 30
0.0
  9
$UCSYDIR
 10
0.0
 20
1.0
 30
0.0
  9
$UCSORTHOREF
  2

  9
$UCSORTHOVIEW
 70
     0
  9
$UCSORGTOP
 10
0.0
 20
0.0
 30
0.0
  9
$UCSORGBOTTOM
 10
0.0
 20
0.0
 30
0.0
  9
$UCSORGLEFT
 10
0.0
 20
0.0
 30
0.0
  9
$UCSORGRIGHT
 10
0.0
 20
0.0
 30
0.0
  9
$UCSORGFRONT
 10
0.0
 20
0.0
 30
0.0
  9
$UCSORGBACK
 10
0.0
 20
0.0
 30
0.0
  9
$PUCSBASE
  2

  9
$PUCSNAME
  2

  9
$PUCSORG
 10
0.0
 20
0.0
 30
0.0
  9
$PUCSXDIR
 10
1.0
 20
0.0
 30
0.0
  9
$PUCSYDIR
 10
0.0
 20
1.0
 30
0.0
  9
$PUCSORTHOREF
  2

  9
$PUCSORTHOVIEW
 70
     0
  9
$PUCSORGTOP
 10
0.0
 20
0.0
 30
0.0
  9
$PUCSORGBOTTOM
 10
0.0
 20
0.0
 30
0.0
  9
$PUCSORGLEFT
 10
0.0
 20
0.0
 30
0.0
  9
$PUCSORGRIGHT
 10
0.0
 20
0.0
 30
0.0
  9
$PUCSORGFRONT
 10
0.0
 20
0.0
 30
0.0
  9
$PUCSORGBACK
 10
0.0
 20
0.0
 30
0.0
  9
$USERI1
 70
     0
  9
$USERI2
 70
     0
  9
$USERI3
 70
     0
  9
$USERI4
 70
     0
  9
$USERI5
 70
     0
  9
$USERR1
 40
0.0
  9
$USERR2
 40
0.0
  9
$USERR3
 40
0.0
  9
$USERR4
 40
0.0
  9
$USERR5
 40
0.0
  9
$WORLDVIEW
 70
     1
  9
$SHADEDGE
 70
     3
  9
$SHADEDIF
 70
    70
  9
$TILEMODE
 70
     1
  9
$MAXACTVP
 70
    64
  9
$PINSBASE
 10
0.0
 20
0.0
 30
0.0
  9
$PLIMCHECK
 70
     0
  9
$PEXTMIN
 10
0.0
 20
0.0
 30
0.0
  9
$PEXTMAX
 10
215.9
 20
279.4
 30
0.0
  9
$PLIMMIN
 10
0.0
 20
0.0
  9
$PLIMMAX
 10
215.9
 20
279.4
  9
$UNITMODE
 70
     0
  9
$VISRETAIN
 70
     1
  9
$PLINEGEN
 70
     0
  9
$PSLTSCALE
 70
     1
  9
$TREEDEPTH
 70
  3020
  9
$CMLSTYLE
  2
Standard
  9
$CMLJUST
 70
     0
  9
$CMLSCALE
 40
20.0
  9
$PROXYGRAPHICS
 70
     1
  9
$MEASUREMENT
 70
     1
  9
$CELWEIGHT
370
    -1
  9
$ENDCAPS
280
     0
  9
$JOINSTYLE
280
     0
  9
$LWDISPLAY
290
     0
  9
$INSUNITS
 70
     4
  9
$HYPERLINKBASE
  1

  9
$STYLESHEET
  1

  9
$XEDIT
290
     1
  9
$CEPSNTYPE
380
     0
  9
$PSTYLEMODE
290
     1
  9
$FINGERPRINTGUID
  2
{C68577ED-C7E2-413E-B22F-19FCFB6556CF}
  9
$VERSIONGUID
  2
{FAEB1C32-E019-11D5-929B-00C0DF256EC4}
  9
$EXTNAMES
290
     1
  9
$PSVPSCALE
 40
0.0
  9
$OLESTARTUP
290
     0
  9
$SORTENTS
280
   127
  9
$INDEXCTL
280
     0
  9
$HIDETEXT
280
     1
  9
$XCLIPFRAME
290
     0
  9
$HALOGAP
280
     0
  9
$OBSCOLOR
 70
   257
  9
$OBSLTYPE
280
     0
  9
$INTERSECTIONDISPLAY
280
     0
  9
$INTERSECTIONCOLOR
 70
   257
  9
$DIMASSOC
280
     2
  9
$PROJECTNAME
  1

  9
$CAMERADISPLAY
290
     0
  9
$LENSLENGTH
 40
50.0
  9
$CAMERAHEIGHT
 40
0.0
  9
$STEPSPERSEC
 40
2.0
  9
$STEPSIZE
 40
6.0
  9
$3DDWFPREC
 40
2.0
  9
$PSOLWIDTH
 40
5.0
  9
$PSOLHEIGHT
 40
80.0
  9
$LOFTANG1
 40
1.5707963268
  9
$LOFTANG2
 40
1.5707963268
  9
$LOFTMAG1
 40
0.0
  9
$LOFTMAG2
 40
0.0
  9
$LOFTPARAM
 70
     7
  9
$LOFTNORMALS
280
     1
  9
$LATITUDE
 40
37.795
  9
$LONGITUDE
 40
-122.394
  9
$NORTHDIRECTION
 40
0.0
  9
$TIMEZONE
 70
 -8000
  9
$LIGHTGLYPHDISPLAY
280
     1
  9
$TILEMODELIGHTSYNCH
280
     1
  9
$CMATERIAL
347
44
  9
$SOLIDHIST
280
     0
  9
$SHOWHIST
280
     1
  9
$DWFFRAME
280
     2
  9
$DGNFRAME
280
     2
  9
$REALWORLDSCALE
290
     1
  9
$INTERFERECOLOR
 62
   256
  9
$CSHADOW
280
     0
  9
$SHADOWPLANELOCATION
 40
0.0
  0
ENDSEC
  0
SECTION
  2
CLASSES
  0
CLASS
  1
ACDBDICTIONARYWDFLT
  2
AcDbDictionaryWithDefault
  3
ObjectDBX Classes
 90
        0
 91
        4
280
     0
281
     0
  0
CLASS
  1
VISUALSTYLE
  2
AcDbVisualStyle
  3
ObjectDBX Classes
 90
     4095
 91
        4
280
     0
281
     0
  0
CLASS
  1
MATERIAL
  2
AcDbMaterial
  3
ObjectDBX Classes
 90
     1153
 91
        4
280
     0
281
     0
  0
CLASS
  1
SCALE
  2
AcDbScale
  3
ObjectDBX Classes
 90
     1153
 91
        4
280
     0
281
     0
  0
CLASS
  1
TABLESTYLE
  2
AcDbTableStyle
  3
ObjectDBX Classes
 90
     4095
 91
        4
280
     0
281
     0
  0
CLASS
  1
MLEADERSTYLE
  2
AcDbMLeaderStyle
  3
ACDB_MLEADERSTYLE_CLASS
 90
     4095
 91
        4
280
     0
281
     0
  0
CLASS
  1
SUN
  2
AcDbSun
  3
SCENEOE
 90
     1153
 91
        4
280
     0
281
     0
  0
CLASS
  1
DICTIONARYVAR
  2
AcDbDictionaryVar
  3
ObjectDBX Classes
 90
        0
 91
        4
280
     0
281
     0
  0
CLASS
  1
CELLSTYLEMAP
  2
AcDbCellStyleMap
  3
ObjectDBX Classes
 90
     1152
 91
        4
280
     0
281
     0
  0
ENDSEC
  0
SECTION
  2
TABLES
  0
TABLE
  2
VPORT
  5
8
330
0
100
AcDbSymbolTable
 70
     1
  0
VPORT
  5
29
330
8
100
AcDbSymbolTableRecord
100
AcDbViewportTableRecord
  2
*Active
 70
     0
 10
0.0
 20
0.0
 11
1.0
 21
1.0
 12
344.1869158879
 22
148.5
 13
0.0
 23
0.0
 14
10.0
 24
10.0
 15
10.0
 25
10.0
 16
0.0
 26
0.0
 36
1.0
 17
0.0
 27
0.0
 37
0.0
 40
297.0
 41
1.9729729729
 42
50.0
 43
0.0
 44
0.0
 50
0.0
 51
0.0
 71
     0
 72
   100
 73
     1
 74
     3
 75
     0
 76
     0
 77
     0
 78
     0
281
     0
 65
     1
110
0.0
120
0.0
130
0.0
111
1.0
121
0.0
131
0.0
112
0.0
122
1.0
132
0.0
 79
     0
146
0.0
 60
     3
 61
     5
292
     1
282
     1
141
0.0
142
0.0
 63
   250
361
6D
  0
ENDTAB
  0
TABLE
  2
LTYPE
  5
5
330
0
100
AcDbSymbolTable
 70
     1
  0
LTYPE
  5
14
330
5
100
AcDbSymbolTableRecord
100
AcDbLinetypeTableRecord
  2
ByBlock
 70
     0
  3

 72
    65
 73
     0
 40
0.0
  0
LTYPE
  5
15
330
5
100
AcDbSymbolTableRecord
100
AcDbLinetypeTableRecord
  2
ByLayer
 70
     0
  3

 72
    65
 73
     0
 40
0.0
  0
LTYPE
  5
16
330
5
100
AcDbSymbolTableRecord
100
AcDbLinetypeTableRecord
  2
Continuous
 70
     0
  3
Solid line
 72
    65
 73
     0
 40
0.0
  0
ENDTAB
  0
TABLE
  2
LAYER
  5
2
330
0
100
AcDbSymbolTable
 70
     6
  0
LAYER
  5
10
330
2
100
AcDbSymbolTableRecord
100
AcDbLayerTableRecord
  2
0
 70
     0
 62
     7
  6
Continuous
370
    -3
390
F
347
46
  0
LAYER
  5
6E
330
2
100
AcDbSymbolTableRecord
100
AcDbLayerTableRecord
  2
Standard
 70
     0
 62
     7
  6
Continuous
370
    -3
390
F
347
46
  0
LAYER
  5
71
330
2
100
AcDbSymbolTableRecord
100
AcDbLayerTableRecord
  2
AJ_221
 70
     0
 62
     7
  6
Continuous
370
    -3
390
F
347
46
  0
LAYER
  5
7E
330
2
100
AcDbSymbolTableRecord
100
AcDbLayerTableRecord
  2
AP_447__230
 70
     0
 62
     7
  6
Continuous
370
    -3
390
F
347
46
  0
LAYER
  5
B3
330
2
100
AcDbSymbolTableRecord
100
AcDbLayerTableRecord
  2
AP_448_0200
 70
     0
 62
     7
  6
Continuous
370
    -3
390
F
347
46
  0
LAYER
  5
FA
330
2
100
AcDbSymbolTableRecord
100
AcDbLayerTableRecord
  2
AP_450_0200
 70
     0
 62
     7
  6
Continuous
370
    -3
390
F
347
46
  0
ENDTAB
  0
TABLE
  2
STYLE
  5
3
330
0
100
AcDbSymbolTable
 70
     2
  0
STYLE
  5
11
330
3
100
AcDbSymbolTableRecord
100
AcDbTextStyleTableRecord
  2
Standard
 70
     0
 40
0.0
 41
1.0
 50
0.0
 71
     0
 42
2.5
  3
txt
  4

  0
STYLE
  5
144
330
3
100
AcDbSymbolTableRecord
100
AcDbTextStyleTableRecord
  2
SEACAD_Arial
 70
     0
 40
0.0
 41
1.0
 50
0.0
 71
     0
 42
2.5
  3
arial.ttf
  4

1001
ACAD
1000
Arial
1071
        0
  0
ENDTAB
  0
TABLE
  2
VIEW
  5
6
330
0
100
AcDbSymbolTable
 70
     0
  0
ENDTAB
  0
TABLE
  2
UCS
  5
7
330
0
100
AcDbSymbolTable
 70
     0
  0
ENDTAB
  0
TABLE
  2
APPID
  5
9
330
0
100
AcDbSymbolTable
 70
     2
  0
APPID
  5
12
330
9
100
AcDbSymbolTableRecord
100
AcDbRegAppTableRecord
  2
ACAD
 70
     0
  0
APPID
  5
259
330
9
100
AcDbSymbolTableRecord
100
AcDbRegAppTableRecord
  2
ACAD_MLEADERVER
 70
     0
  0
ENDTAB
  0
TABLE
  2
DIMSTYLE
  5
A
330
0
100
AcDbSymbolTable
 70
     3
100
AcDbDimStyleTable
  0
DIMSTYLE
105
27
330
A
100
AcDbSymbolTableRecord
100
AcDbDimStyleTableRecord
  2
ISO-25
 70
     0
 41
2.5
 42
0.625
 43
3.75
 44
1.25
 73
     0
 74
     0
 77
     1
 78
     8
140
2.5
141
2.5
143
0.0393700787
147
0.625
171
     3
172
     1
178
     0
271
     2
272
     2
274
     3
278
    44
283
     0
284
     8
340
11
  0
DIMSTYLE
105
131
330
A
100
AcDbSymbolTableRecord
100
AcDbDimStyleTableRecord
  2
Standard
 70
     0
178
     0
340
11
  0
DIMSTYLE
105
145
102
{ACAD_REACTORS
330
146
330
150
330
15A
102
}
330
A
100
AcDbSymbolTableRecord
100
AcDbDimStyleTableRecord
  2
E-Katalog
 70
     0
 41
3.75
 42
0.75
 44
1.25
 73
     0
 74
     0
 77
     1
 78
     8
140
2.5
141
1.25
147
1.25
172
     1
173
     1
178
     0
271
     2
272
     2
278
    44
284
     8
340
144
343
13E
344
13E
  0
ENDTAB
  0
TABLE
  2
BLOCK_RECORD
  5
1
330
0
100
AcDbSymbolTable
 70
     9
  0
BLOCK_RECORD
  5
1F
330
1
100
AcDbSymbolTableRecord
100
AcDbBlockTableRecord
  2
*Model_Space
340
22
 70
     0
280
     1
281
     0
  0
BLOCK_RECORD
  5
1B
330
1
100
AcDbSymbolTableRecord
100
AcDbBlockTableRecord
  2
*Paper_Space
340
1E
 70
     0
280
     1
281
     0
  0
BLOCK_RECORD
  5
6F
330
1
100
AcDbSymbolTableRecord
100
AcDbBlockTableRecord
  2
SE
340
0
102
{BLKREFS
331
70
102
}
 70
     0
280
     1
281
     0
  0
BLOCK_RECORD
  5
132
330
1
100
AcDbSymbolTableRecord
100
AcDbBlockTableRecord
  2
_OBLIQUE
340
0
 70
     0
280
     1
281
     0
  0
BLOCK_RECORD
  5
136
330
1
100
AcDbSymbolTableRecord
100
AcDbBlockTableRecord
  2
_DOT
340
0
 70
     0
280
     1
281
     0
  0
BLOCK_RECORD
  5
13E
330
1
100
AcDbSymbolTableRecord
100
AcDbBlockTableRecord
  2
_SE_OPEN
340
0
 70
     0
280
     1
281
     0
  0
BLOCK_RECORD
  5
147
330
1
100
AcDbSymbolTableRecord
100
AcDbBlockTableRecord
  2
DMBLK42
340
0
 70
     0
280
     1
281
     0
  0
BLOCK_RECORD
  5
151
330
1
100
AcDbSymbolTableRecord
100
AcDbBlockTableRecord
  2
DMBLK43
340
0
 70
     0
280
     1
281
     0
  0
BLOCK_RECORD
  5
15B
330
1
100
AcDbSymbolTableRecord
100
AcDbBlockTableRecord
  2
DMBLK44
340
0
 70
     0
280
     1
281
     0
  0
BLOCK_RECORD
  5
164
330
1
100
AcDbSymbolTableRecord
100
AcDbBlockTableRecord
  2
SE1
340
0
102
{BLKREFS
331
165
102
}
 70
     0
280
     1
281
     0
  0
ENDTAB
  0
ENDSEC
  0
SECTION
  2
BLOCKS
  0
BLOCK
  5
20
330
1F
100
AcDbEntity
  8
0
100
AcDbBlockBegin
  2
*Model_Space
 70
     0
 10
0.0
 20
0.0
 30
0.0
  3
*Model_Space
  1
*Model_Space
  0
ENDBLK
  5
21
330
1F
100
AcDbEntity
  8
0
100
AcDbBlockEnd
  0
BLOCK
  5
1C
330
1B
100
AcDbEntity
 67
     1
  8
0
100
AcDbBlockBegin
  2
*Paper_Space
 70
     0
 10
0.0
 20
0.0
 30
0.0
  3
*Paper_Space
  1
*Paper_Space
  0
ENDBLK
  5
1D
330
1B
100
AcDbEntity
 67
     1
  8
0
100
AcDbBlockEnd
  0
BLOCK
  5
12F
330
6F
100
AcDbEntity
  8
0
100
AcDbBlockBegin
  2
SE
 70
     0
 10
0.0
 20
0.0
 30
0.0
  3
SE
  1
SE
  0
LINE
  5
72
330
6F
100
AcDbEntity
  8
AJ_221
  6
Continuous
 62
     7
100
AcDbLine
 10
65.0801476459
 20
220.8026642523
 30
0.0
 11
54.0801476459
 21
220.8026643444
 31
0.0
  0
LINE
  5
73
330
6F
100
AcDbEntity
  8
AJ_221
  6
Continuous
 62
     7
100
AcDbLine
 10
65.0801475907
 20
214.2026642523
 30
0.0
 11
54.0801475907
 21
214.2026643444
 31
0.0
  0
LINE
  5
74
330
6F
100
AcDbEntity
  8
AJ_221
  6
Continuous
 62
     7
100
AcDbLine
 10
65.0801476459
 20
220.8026642523
 30
0.0
 11
65.1151880138
 21
220.802664252
 31
0.0
  0
ARC
  5
75
330
6F
100
AcDbEntity
  8
AJ_221
  6
Continuous
 62
     7
100
AcDbCircle
 10
57.0179971448
 20
218.9917854035
 30
0.0
 40
8.297215326481737
100
AcDbArc
 50
0.1391586026
 51
12.6063499491
  0
LINE
  5
76
330
6F
100
AcDbEntity
  8
AJ_221
  6
Continuous
 62
     7
100
AcDbLine
 10
65.3151879988
 20
219.0119374594
 30
0.0
 11
65.3151879736
 21
215.9933910413
 31
0.0
  0
ARC
  5
77
330
6F
100
AcDbEntity
  8
AJ_221
  6
Continuous
 62
     7
100
AcDbCircle
 10
57.0179971198
 20
216.0135432362
 30
0.0
 40
8.2972153264814
100
AcDbArc
 50
347.3936490917
 51
359.8608404381
  0
LINE
  5
78
330
6F
100
AcDbEntity
  8
AJ_221
  6
Continuous
 62
     7
100
AcDbLine
 10
65.1151879586
 20
214.202664252
 30
0.0
 11
65.0801475907
 21
214.2026642523
 31
0.0
  0
LINE
  5
79
330
6F
100
AcDbEntity
  8
AJ_221
  6
Continuous
 62
     7
100
AcDbLine
 10
53.3151879736
 20
215.9933911418
 30
0.0
 11
53.3151879988
 21
219.0119375599
 31
0.0
  0
ARC
  5
7A
330
6F
100
AcDbEntity
  8
AJ_221
  6
Continuous
 62
     7
100
AcDbCircle
 10
61.6123788525
 20
218.991785365
 30
0.0
 40
8.297215326481052
100
AcDbArc
 50
167.3936490917
 51
179.8608404381
  0
LINE
  5
7B
330
6F
100
AcDbEntity
  8
AJ_221
  6
Continuous
 62
     7
100
AcDbLine
 10
53.5151880138
 20
220.8026643491
 30
0.0
 11
54.0801476459
 21
220.8026643444
 31
0.0
  0
LINE
  5
7C
330
6F
100
AcDbEntity
  8
AJ_221
  6
Continuous
 62
     7
100
AcDbLine
 10
54.0801475907
 20
214.2026643444
 30
0.0
 11
53.5151879586
 21
214.2026643491
 31
0.0
  0
ARC
  5
7D
330
6F
100
AcDbEntity
  8
AJ_221
  6
Continuous
 62
     7
100
AcDbCircle
 10
61.6123788276
 20
216.0135431977
 30
0.0
 40
8.297215326481876
100
AcDbArc
 50
180.1391586026
 51
192.6063499491
  0
ARC
  5
7F
330
6F
100
AcDbEntity
  8
AP_447__230
  6
Continuous
 62
     7
100
AcDbCircle
 10
50.0191878711
 20
204.0585864015
 30
0.0
 40
0.4999999999996891
100
AcDbArc
 50
119.4909796887
 51
319.2852090133
  0
ARC
  5
80
330
6F
100
AcDbEntity
  8
AP_447__230
  6
Continuous
 62
     7
100
AcDbCircle
 10
49.6745872999
 20
204.6678896481
 30
0.0
 40
0.2000000000036122
100
AcDbArc
 50
299.4909796887
 51
359.9999995203
  0
LINE
  5
81
330
6F
100
AcDbEntity
  8
AP_447__230
  6
Continuous
 62
     7
100
AcDbLine
 10
49.8745873675
 20
212.7432329609
 30
0.0
 11
49.8745872999
 21
204.6678896465
 31
0.0
  0
ARC
  5
82
330
6F
100
AcDbEntity
  8
AP_447__230
  6
Continuous
 62
     7
100
AcDbCircle
 10
48.0745873675
 20
212.743232976
 30
0.0
 40
1.799999999999998
100
AcDbArc
 50
0.0
 51
54.5606868878
  0
ARC
  5
83
330
6F
100
AcDbEntity
  8
AP_447__230
  6
Continuous
 62
     7
100
AcDbCircle
 10
49.4485410702
 20
214.6737669966
 30
0.0
 40
0.5695380102607233
100
AcDbArc
 50
107.9929146345
 51
234.5606868878
  0
LINE
  5
84
330
6F
100
AcDbEntity
  8
AP_447__230
  6
Continuous
 62
     7
100
AcDbLine
 10
49.2726111512
 20
217.6161343452
 30
0.0
 11
49.2726111311
 21
215.2154515927
 31
0.0
  0
LINE
  5
85
330
6F
100
AcDbEntity
  8
AP_447__230
  6
Continuous
 62
     7
100
AcDbLine
 10
49.6311750062
 20
217.6161343422
 30
0.0
 11
49.2726111512
 21
217.6161343452
 31
0.0
  0
LINE
  5
86
330
6F
100
AcDbEntity
  8
AP_447__230
  6
Continuous
 62
     7
100
AcDbLine
 10
49.7965191478
 20
217.3610873418
 30
0.0
 11
49.6311750062
 21
217.6161343422
 31
0.0
  0
ARC
  5
87
330
6F
100
AcDbEntity
  8
AP_447__230
  6
Continuous
 62
     7
100
AcDbCircle
 10
49.9121868
 20
217.4360733979
 30
0.0
 40
0.1378474315304175
100
AcDbArc
 50
212.9548939444
 51
281.7960351408
  0
ARC
  5
88
330
6F
100
AcDbEntity
  8
AP_447__230
  6
Continuous
 62
     7
100
AcDbCircle
 10
49.8517687239
 20
217.725378427
 30
0.0
 40
0.4333939486490141
100
AcDbArc
 50
281.7960351408
 51
301.78460096
  0
ARC
  5
89
330
6F
100
AcDbEntity
  8
AP_447__230
  6
Continuous
 62
     7
100
AcDbCircle
 10
49.0570204335
 20
218.6822277769
 30
0.0
 40
1.67417827315704
100
AcDbArc
 50
307.6664192742
 51
0.3048125104
  0
ARC
  5
8A
330
6F
100
AcDbEntity
  8
AP_447__230
  6
Continuous
 62
     7
100
AcDbCircle
 10
48.6698814687
 20
218.5053542686
 30
0.0
 40
2.069648597527393
100
AcDbArc
 50
5.1500338836
 51
46.9863212402
  0
ARC
  5
8B
330
6F
100
AcDbEntity
  8
AP_447__230
  6
Continuous
 62
     7
100
AcDbCircle
 10
49.8533391839
 20
219.6594236626
 30
0.0
 40
0.4256985936373838
100
AcDbArc
 50
57.5521893105
 51
78.2035900705
  0
ARC
  5
8C
330
6F
100
AcDbEntity
  8
AP_447__230
  6
Continuous
 62
     7
100
AcDbCircle
 10
49.9123262883
 20
219.9418674148
 30
0.0
 40
0.1371609849226393
100
AcDbArc
 50
78.2035900705
 51
146.4442800438
  0
LINE
  5
8D
330
6F
100
AcDbEntity
  8
AP_447__230
  6
Continuous
 62
     7
100
AcDbLine
 10
49.6311750242
 20
219.7661343422
 30
0.0
 11
49.7980233638
 21
220.0176828303
 31
0.0
  0
LINE
  5
8E
330
6F
100
AcDbEntity
  8
AP_447__230
  6
Continuous
 62
     7
100
AcDbLine
 10
49.2736628608
 20
219.7661343452
 30
0.0
 11
49.6311750242
 21
219.7661343422
 31
0.0
  0
LINE
  5
8F
330
6F
100
AcDbEntity
  8
AP_447__230
  6
Continuous
 62
     7
100
AcDbLine
 10
49.472826961
 20
221.2589321824
 30
0.0
 11
49.2736628608
 21
219.7661343452
 31
0.0
  0
ARC
  5
90
330
6F
100
AcDbEntity
  8
AP_447__230
  6
Continuous
 62
     7
100
AcDbCircle
 10
49.2397007304
 20
221.2810535851
 30
0.0
 40
0.2341734310521854
100
AcDbArc
 50
354.5794204202
 51
93.5048650377
  0
ARC
  5
91
330
6F
100
AcDbEntity
  8
AP_447__230
  6
Continuous
 62
     7
100
AcDbCircle
 10
49.2423039386
 20
221.2385507349
 30
0.0
 40
0.2767559271290324
100
AcDbArc
 50
93.5048650377
 51
163.986785997
  0
ARC
  5
92
330
6F
100
AcDbEntity
  8
AP_447__230
  6
Continuous
 62
     7
100
AcDbCircle
 10
58.9744576118
 20
218.4454713593
 30
0.0
 40
10.401779755085
100
AcDbArc
 50
163.986785997
 51
188.1930038059
  0
ARC
  5
93
330
6F
100
AcDbEntity
  8
AP_447__230
  6
Continuous
 62
     7
100
AcDbCircle
 10
48.3211908964
 20
216.5198966739
 30
0.0
 40
0.5695380102607241
100
AcDbArc
 50
295.1036805748
 51
51.0996840393
  0
LINE
  5
94
330
6F
100
AcDbEntity
  8
AP_447__230
  6
Continuous
 62
     7
100
AcDbLine
 10
48.5628216282
 20
204.77387723
 30
0.0
 11
48.5628217223
 21
216.0041563428
 31
0.0
  0
ARC
  5
95
330
6F
100
AcDbEntity
  8
AP_447__230
  6
Continuous
 62
     7
100
AcDbCircle
 10
51.0628212792
 20
204.7751449822
 30
0.0
 40
2.499999972401835
100
AcDbArc
 50
180.0290547416
 51
248.1920793072
  0
ARC
  5
96
330
6F
100
AcDbEntity
  8
AP_447__230
  6
Continuous
 62
     7
100
AcDbCircle
 10
59.4214856652
 20
225.6649211623
 30
0.0
 40
25.00000039846504
100
AcDbArc
 50
248.1920793071
 51
269.7563826106
  0
ARC
  5
97
330
6F
100
AcDbEntity
  8
AP_447__230
  6
Continuous
 62
     7
100
AcDbCircle
 10
59.2088904434
 20
225.6649211641
 30
0.0
 40
25.00000039846503
100
AcDbArc
 50
270.243616429
 51
291.8079197326
  0
ARC
  5
98
330
6F
100
AcDbEntity
  8
AP_447__230
  6
Continuous
 62
     7
100
AcDbCircle
 10
67.5675544792
 20
204.7751448439
 30
0.0
 40
2.499999972401818
100
AcDbArc
 50
291.8079197326
 51
359.970944298
  0
LINE
  5
99
330
6F
100
AcDbEntity
  8
AP_447__230
  6
Continuous
 62
     7
100
AcDbLine
 10
70.0675542243
 20
216.0041561626
 30
0.0
 11
70.0675541302
 21
204.7738770498
 31
0.0
  0
ARC
  5
9A
330
6F
100
AcDbEntity
  8
AP_447__230
  6
Continuous
 62
     7
100
AcDbCircle
 10
70.3091850588
 20
216.5198964896
 30
0.0
 40
0.5695380102607288
100
AcDbArc
 50
128.9003150004
 51
244.8963184648
  0
ARC
  5
9B
330
6F
100
AcDbEntity
  8
AP_447__230
  6
Continuous
 62
     7
100
AcDbCircle
 10
59.6559183758
 20
218.4454713536
 30
0.0
 40
10.40177975508503
100
AcDbArc
 50
351.8069952337
 51
16.0132130427
  0
ARC
  5
9C
330
6F
100
AcDbEntity
  8
AP_447__230
  6
Continuous
 62
     7
100
AcDbCircle
 10
69.3880720958
 20
221.238550566
 30
0.0
 40
0.2767559271290613
100
AcDbArc
 50
16.0132130427
 51
86.4951340019
  0
ARC
  5
9D
330
6F
100
AcDbEntity
  8
AP_447__230
  6
Continuous
 62
     7
100
AcDbCircle
 10
69.3906753046
 20
221.2810534162
 30
0.0
 40
0.2341734310521857
100
AcDbArc
 50
86.4951340019
 51
185.4205786195
  0
LINE
  5
9E
330
6F
100
AcDbEntity
  8
AP_447__230
  6
Continuous
 62
     7
100
AcDbLine
 10
69.3577648404
 20
219.7661341769
 30
0.0
 11
69.1575490737
 21
221.2589320175
 31
0.0
  0
LINE
  5
9F
330
6F
100
AcDbEntity
  8
AP_447__230
  6
Continuous
 62
     7
100
AcDbLine
 10
68.9992009855
 20
219.7661341799
 30
0.0
 11
69.3577648404
 21
219.7661341769
 31
0.0
  0
LINE
  5
A0
330
6F
100
AcDbEntity
  8
AP_447__230
  6
Continuous
 62
     7
100
AcDbLine
 10
68.8323526501
 20
220.0176826708
 30
0.0
 11
68.9992009855
 21
219.7661341799
 31
0.0
  0
ARC
  5
A1
330
6F
100
AcDbEntity
  8
AP_447__230
  6
Continuous
 62
     7
100
AcDbCircle
 10
68.7180497243
 20
219.9418672572
 30
0.0
 40
0.1371609849226428
100
AcDbArc
 50
33.5557189958
 51
101.7964089692
  0
ARC
  5
A2
330
6F
100
AcDbEntity
  8
AP_447__230
  6
Continuous
 62
     7
100
AcDbCircle
 10
68.777036824
 20
219.659423504
 30
0.0
 40
0.4256985936373808
100
AcDbArc
 50
101.7964089692
 51
122.4478097291
  0
ARC
  5
A3
330
6F
100
AcDbEntity
  8
AP_447__230
  6
Continuous
 62
     7
100
AcDbCircle
 10
69.9604945198
 20
218.5053540901
 30
0.0
 40
2.069648597527391
100
AcDbArc
 50
133.0136777995
 51
174.849965156
  0
ARC
  5
A4
330
6F
100
AcDbEntity
  8
AP_447__230
  6
Continuous
 62
     7
100
AcDbCircle
 10
69.573355558
 20
218.6822276049
 30
0.0
 40
1.674178273157056
100
AcDbArc
 50
179.6951865293
 51
232.3335797654
  0
ARC
  5
A5
330
6F
100
AcDbEntity
  8
AP_447__230
  6
Continuous
 62
     7
100
AcDbCircle
 10
68.7786072516
 20
217.7253782683
 30
0.0
 40
0.4333939486490219
100
AcDbArc
 50
238.2153980796
 51
258.2039638989
  0
ARC
  5
A6
330
6F
100
AcDbEntity
  8
AP_447__230
  6
Continuous
 62
     7
100
AcDbCircle
 10
68.7181891706
 20
217.4360732403
 30
0.0
 40
0.1378474315304166
100
AcDbArc
 50
258.2039638989
 51
327.0451050952
  0
LINE
  5
A7
330
6F
100
AcDbEntity
  8
AP_447__230
  6
Continuous
 62
     7
100
AcDbLine
 10
68.9992009674
 20
217.6161341799
 30
0.0
 11
68.8338568216
 21
217.3610871823
 31
0.0
  0
LINE
  5
A8
330
6F
100
AcDbEntity
  8
AP_447__230
  6
Continuous
 62
     7
100
AcDbLine
 10
69.3577648224
 20
217.6161341769
 30
0.0
 11
68.9992009674
 21
217.6161341799
 31
0.0
  0
LINE
  5
A9
330
6F
100
AcDbEntity
  8
AP_447__230
  6
Continuous
 62
     7
100
AcDbLine
 10
69.3577648023
 20
215.2154514244
 30
0.0
 11
69.3577648224
 21
217.6161341769
 31
0.0
  0
ARC
  5
AA
330
6F
100
AcDbEntity
  8
AP_447__230
  6
Continuous
 62
     7
100
AcDbCircle
 10
69.1818348541
 20
214.6737668313
 30
0.0
 40
0.5695380102607226
100
AcDbArc
 50
305.4393121519
 51
72.0070844051
  0
ARC
  5
AB
330
6F
100
AcDbEntity
  8
AP_447__230
  6
Continuous
 62
     7
100
AcDbCircle
 10
70.5557885244
 20
212.7432327876
 30
0.0
 40
1.8
100
AcDbArc
 50
125.4393121519
 51
179.9999995193
  0
LINE
  5
AC
330
6F
100
AcDbEntity
  8
AP_447__230
  6
Continuous
 62
     7
100
AcDbLine
 10
68.7557884567
 20
204.6678894882
 30
0.0
 11
68.7557885244
 21
212.7432328027
 31
0.0
  0
ARC
  5
AD
330
6F
100
AcDbEntity
  8
AP_447__230
  6
Continuous
 62
     7
100
AcDbCircle
 10
68.9557884567
 20
204.6678894865
 30
0.0
 40
0.2000000000035534
100
AcDbArc
 50
179.9999995193
 51
240.5090193509
  0
ARC
  5
AE
330
6F
100
AcDbEntity
  8
AP_447__230
  6
Continuous
 62
     7
100
AcDbCircle
 10
68.6111878753
 20
204.0585862457
 30
0.0
 40
0.4999999999996919
100
AcDbArc
 50
220.7147900264
 51
60.5090193509
  0
ARC
  5
AF
330
6F
100
AcDbEntity
  8
AP_447__230
  6
Continuous
 62
     7
100
AcDbCircle
 10
68.080611688
 20
203.6019803877
 30
0.0
 40
0.1999999999910123
100
AcDbArc
 50
40.7147900264
 51
121.6603536473
  0
ARC
  5
B0
330
6F
100
AcDbEntity
  8
AP_447__230
  6
Continuous
 62
     7
100
AcDbCircle
 10
59.0874089787
 20
218.185778784
 30
0.0
 40
16.93373487119723
100
AcDbArc
 50
270.7707196114
 51
301.6603536473
  0
ARC
  5
B1
330
6F
100
AcDbEntity
  8
AP_447__230
  6
Continuous
 62
     7
100
AcDbCircle
 10
59.5429670045
 20
218.1857787802
 30
0.0
 40
16.93373487119719
100
AcDbArc
 50
238.3396453923
 51
269.2292794283
  0
ARC
  5
B2
330
6F
100
AcDbEntity
  8
AP_447__230
  6
Continuous
 62
     7
100
AcDbCircle
 10
50.5497640507
 20
203.6019805346
 30
0.0
 40
0.1999999999909926
100
AcDbArc
 50
58.3396453923
 51
139.2852090133
  0
LINE
  5
B4
330
6F
100
AcDbEntity
  8
AP_448_0200
  6
Continuous
 62
     7
100
AcDbLine
 10
51.2736953907
 20
216.2965860752
 30
0.0
 11
51.273695332
 21
209.2981857688
 31
0.0
  0
ARC
  5
B5
330
6F
100
AcDbEntity
  8
AP_448_0200
  6
Continuous
 62
     7
100
AcDbCircle
 10
51.8736953904
 20
216.2965860702
 30
0.0
 40
0.5999999997806151
100
AcDbArc
 50
144.0494317239
 51
179.9999995197
  0
ARC
  5
B6
330
6F
100
AcDbEntity
  8
AP_448_0200
  6
Continuous
 62
     7
100
AcDbCircle
 10
50.1736954047
 20
217.5294688901
 30
0.0
 40
1.499999999999106
100
AcDbArc
 50
324.0494317239
 51
359.9999995197
  0
LINE
  5
B7
330
6F
100
AcDbEntity
  8
AP_448_0200
  6
Continuous
 62
     7
100
AcDbLine
 10
51.6736954238
 20
219.802654378
 30
0.0
 11
51.6736954047
 21
217.5294688775
 31
0.0
  0
ARC
  5
B8
330
6F
100
AcDbEntity
  8
AP_448_0200
  6
Continuous
 62
     7
100
AcDbCircle
 10
50.1736954238
 20
219.8026543906
 30
0.0
 40
1.500000000002819
100
AcDbArc
 50
0.0
 51
89.9999995197
  0
LINE
  5
B9
330
6F
100
AcDbEntity
  8
AP_448_0200
  6
Continuous
 62
     7
100
AcDbLine
 10
49.5232692178
 20
221.302654396
 30
0.0
 11
50.1736954364
 21
221.3026543906
 31
0.0
  0
ARC
  5
BA
330
6F
100
AcDbEntity
  8
AP_448_0200
  6
Continuous
 62
     7
100
AcDbCircle
 10
49.5232692161
 20
221.102654396
 30
0.0
 40
0.1999999999999988
100
AcDbArc
 50
89.9999995197
 51
104.4461304661
  0
LINE
  5
BB
330
6F
100
AcDbEntity
  8
AP_448_0200
  6
Continuous
 62
     7
100
AcDbLine
 10
49.3232692063
 20
219.9413310866
 30
0.0
 11
49.323269208
 21
220.1379495859
 31
0.0
  0
ARC
  5
BC
330
6F
100
AcDbEntity
  8
AP_448_0200
  6
Continuous
 62
     7
100
AcDbCircle
 10
49.4732692063
 20
219.9413310853
 30
0.0
 40
0.1500000000004692
100
AcDbArc
 50
179.9999995197
 51
269.9999995197
  0
LINE
  5
BD
330
6F
100
AcDbEntity
  8
AP_448_0200
  6
Continuous
 62
     7
100
AcDbLine
 10
49.5115261937
 20
219.791331085
 30
0.0
 11
49.4732692051
 21
219.7913310853
 31
0.0
  0
ARC
  5
BE
330
6F
100
AcDbEntity
  8
AP_448_0200
  6
Continuous
 62
     7
100
AcDbCircle
 10
49.5115261949
 20
219.9413311598
 30
0.0
 40
0.1500000748122821
100
AcDbArc
 50
269.9999995197
 51
340.1761157299
  0
LINE
  5
BF
330
6F
100
AcDbEntity
  8
AP_448_0200
  6
Continuous
 62
     7
100
AcDbLine
 10
49.7963729463
 20
220.2891814637
 30
0.0
 11
49.6526371875
 21
219.8904616186
 31
0.0
  0
ARC
  5
C0
330
6F
100
AcDbEntity
  8
AP_448_0200
  6
Continuous
 62
     7
100
AcDbCircle
 10
49.9845208425
 20
220.2213554426
 30
0.0
 40
0.2000000000007135
100
AcDbArc
 50
89.9999995197
 51
160.1761157299
  0
LINE
  5
C1
330
6F
100
AcDbEntity
  8
AP_448_0200
  6
Continuous
 62
     7
100
AcDbLine
 10
50.2471839111
 20
220.4213554404
 30
0.0
 11
49.9845208442
 21
220.4213554426
 31
0.0
  0
ARC
  5
C2
330
6F
100
AcDbEntity
  8
AP_448_0200
  6
Continuous
 62
     7
100
AcDbCircle
 10
50.2471839095
 20
220.2213554404
 30
0.0
 40
0.2000000000060451
100
AcDbArc
 50
44.9999995195
 51
89.9999995197
  0
LINE
  5
C3
330
6F
100
AcDbEntity
  8
AP_448_0200
  6
Continuous
 62
     7
100
AcDbLine
 10
50.8580424469
 20
219.8933396076
 30
0.0
 11
50.3886052669
 21
220.3627767954
 31
0.0
  0
ARC
  5
C4
330
6F
100
AcDbEntity
  8
AP_448_0200
  6
Continuous
 62
     7
100
AcDbCircle
 10
50.5044890533
 20
219.5397862199
 30
0.0
 40
0.499999999998061
100
AcDbArc
 50
0.0
 51
44.9999995195
  0
LINE
  5
C5
330
6F
100
AcDbEntity
  8
AP_448_0200
  6
Continuous
 62
     7
100
AcDbLine
 10
51.0044890391
 20
217.8424824454
 30
0.0
 11
51.0044890533
 21
219.5397862157
 31
0.0
  0
ARC
  5
C6
330
6F
100
AcDbEntity
  8
AP_448_0200
  6
Continuous
 62
     7
100
AcDbCircle
 10
50.5044890391
 20
217.8424824495
 30
0.0
 40
0.4999999999999958
100
AcDbArc
 50
314.9999995201
 51
359.9999995197
  0
LINE
  5
C7
330
6F
100
AcDbEntity
  8
AP_448_0200
  6
Continuous
 62
     7
100
AcDbLine
 10
50.3464376473
 20
216.9773242851
 30
0.0
 11
50.8580424267
 21
217.488929056
 31
0.0
  0
ARC
  5
C8
330
6F
100
AcDbEntity
  8
AP_448_0200
  6
Continuous
 62
     7
100
AcDbCircle
 10
50.2050162922
 20
217.1187456425
 30
0.0
 40
0.2000000000012686
100
AcDbArc
 50
269.9999995198
 51
314.99999952
  0
LINE
  5
C9
330
6F
100
AcDbEntity
  8
AP_448_0200
  6
Continuous
 62
     7
100
AcDbLine
 10
49.9845205462
 20
216.9187456444
 30
0.0
 11
50.2050162905
 21
216.9187456425
 31
0.0
  0
ARC
  5
CA
330
6F
100
AcDbEntity
  8
AP_448_0200
  6
Continuous
 62
     7
100
AcDbCircle
 10
49.9845205478
 20
217.1187456403
 30
0.0
 40
0.1999999959098378
100
AcDbArc
 50
199.8238678092
 51
269.9999995197
  0
LINE
  5
CB
330
6F
100
AcDbEntity
  8
AP_448_0200
  6
Continuous
 62
     7
100
AcDbLine
 10
49.6526370802
 20
217.4496396378
 30
0.0
 11
49.796372636
 21
217.0509196746
 31
0.0
  0
ARC
  5
CC
330
6F
100
AcDbEntity
  8
AP_448_0200
  6
Continuous
 62
     7
100
AcDbCircle
 10
49.5115261368
 20
217.3987702012
 30
0.0
 40
0.1499999930655582
100
AcDbArc
 50
19.8238530313
 51
89.9999995197
  0
LINE
  5
CD
330
6F
100
AcDbEntity
  8
AP_448_0200
  6
Continuous
 62
     7
100
AcDbLine
 10
49.4732691854
 20
217.5487701946
 30
0.0
 11
49.5115261381
 21
217.5487701943
 31
0.0
  0
ARC
  5
CE
330
6F
100
AcDbEntity
  8
AP_448_0200
  6
Continuous
 62
     7
100
AcDbCircle
 10
49.4732691842
 20
217.398770328
 30
0.0
 40
0.1499998666290412
100
AcDbArc
 50
89.9999995197
 51
180.0000046782
  0
LINE
  5
CF
330
6F
100
AcDbEntity
  8
AP_448_0200
  6
Continuous
 62
     7
100
AcDbLine
 10
49.3232694037
 20
216.3441825684
 30
0.0
 11
49.3232693176
 21
217.3987703158
 31
0.0
  0
ARC
  5
D0
330
6F
100
AcDbEntity
  8
AP_448_0200
  6
Continuous
 62
     7
100
AcDbCircle
 10
49.9702303914
 20
216.344182563
 30
0.0
 40
0.6469609877716176
100
AcDbArc
 50
179.9999995197
 51
233.3244047099
  0
LINE
  5
D1
330
6F
100
AcDbEntity
  8
AP_448_0200
  6
Continuous
 62
     7
100
AcDbLine
 10
50.0714076977
 20
215.4621801179
 30
0.0
 11
49.583811215
 21
215.8253003608
 31
0.0
  0
ARC
  5
D2
330
6F
100
AcDbEntity
  8
AP_448_0200
  6
Continuous
 62
     7
100
AcDbCircle
 10
49.7727659065
 20
215.0611650551
 30
0.0
 40
0.5000000000000004
100
AcDbArc
 50
0.0
 51
53.3244047099
  0
LINE
  5
D3
330
6F
100
AcDbEntity
  8
AP_448_0200
  6
Continuous
 62
     7
100
AcDbLine
 10
50.2727658586
 20
209.3015931647
 30
0.0
 11
50.2727659065
 21
215.061165051
 31
0.0
  0
ARC
  5
D4
330
6F
100
AcDbEntity
  8
AP_448_0200
  6
Continuous
 62
     7
100
AcDbCircle
 10
52.2727457066
 20
209.2926149928
 30
0.0
 40
2.000000000000001
100
AcDbArc
 50
179.7427934584
 51
275.0242576249
  0
LINE
  5
D5
330
6F
100
AcDbEntity
  8
AP_448_0200
  6
Continuous
 62
     7
100
AcDbLine
 10
66.3576103775
 20
207.3002994578
 30
0.0
 11
52.4479007052
 21
207.3002995744
 31
0.0
  0
ARC
  5
D6
330
6F
100
AcDbEntity
  8
AP_448_0200
  6
Continuous
 62
     7
100
AcDbCircle
 10
66.3576103943
 20
209.3002956107
 30
0.0
 40
1.999996152865284
100
AcDbArc
 50
269.9999995197
 51
0.0371679157
  0
LINE
  5
D7
330
6F
100
AcDbEntity
  8
AP_448_0200
  6
Continuous
 62
     7
100
AcDbLine
 10
68.3576102903
 20
215.0611648993
 30
0.0
 11
68.3576061263
 21
209.3015930131
 31
0.0
  0
ARC
  5
D8
330
6F
100
AcDbEntity
  8
AP_448_0200
  6
Continuous
 62
     7
100
AcDbCircle
 10
68.8576102903
 20
215.0611648952
 30
0.0
 40
0.4999999999999997
100
AcDbArc
 50
126.6756323495
 51
179.9999995197
  0
LINE
  5
D9
330
6F
100
AcDbEntity
  8
AP_448_0200
  6
Continuous
 62
     7
100
AcDbLine
 10
69.1365423516
 20
215.9680544746
 30
0.0
 11
68.5589682397
 21
215.4621797647
 31
0.0
  0
ARC
  5
DA
330
6F
100
AcDbEntity
  8
AP_448_0200
  6
Continuous
 62
     7
100
AcDbCircle
 10
68.8071066435
 20
216.3441822644
 30
0.0
 40
0.4999999999979525
100
AcDbArc
 50
311.2138572741
 51
359.9999943613
  0
LINE
  5
DB
330
6F
100
AcDbEntity
  8
AP_448_0200
  6
Continuous
 62
     7
100
AcDbLine
 10
69.3071067473
 20
217.3987700398
 30
0.0
 11
69.3071066435
 21
216.3441822152
 31
0.0
  0
ARC
  5
DC
330
6F
100
AcDbEntity
  8
AP_448_0200
  6
Continuous
 62
     7
100
AcDbCircle
 10
69.1571067858
 20
217.3987700546
 30
0.0
 40
0.1499999615606831
100
AcDbArc
 50
0.0
 51
89.9999995198
  0
LINE
  5
DD
330
6F
100
AcDbEntity
  8
AP_448_0200
  6
Continuous
 62
     7
100
AcDbLine
 10
69.1188498344
 20
217.5487700165
 30
0.0
 11
69.157106787
 21
217.5487700161
 31
0.0
  0
ARC
  5
DE
330
6F
100
AcDbEntity
  8
AP_448_0200
  6
Continuous
 62
     7
100
AcDbCircle
 10
69.1188498331
 20
217.3987700165
 30
0.0
 40
0.1499999999955268
100
AcDbArc
 50
89.9999995197
 51
160.1761386653
  0
LINE
  5
DF
330
6F
100
AcDbEntity
  8
AP_448_0200
  6
Continuous
 62
     7
100
AcDbLine
 10
68.8340032771
 20
217.0509195334
 30
0.0
 11
68.9777388906
 21
217.4496394758
 31
0.0
  0
ARC
  5
E0
330
6F
100
AcDbEntity
  8
AP_448_0200
  6
Continuous
 62
     7
100
AcDbCircle
 10
68.6458553597
 20
217.1187454839
 30
0.0
 40
0.1999999959117482
100
AcDbArc
 50
269.9999995197
 51
340.1761368384
  0
LINE
  5
E1
330
6F
100
AcDbEntity
  8
AP_448_0200
  6
Continuous
 62
     7
100
AcDbLine
 10
68.4253596758
 20
216.9187454898
 30
0.0
 11
68.645855358
 21
216.9187454879
 31
0.0
  0
ARC
  5
E2
330
6F
100
AcDbEntity
  8
AP_448_0200
  6
Continuous
 62
     7
100
AcDbCircle
 10
68.425359673
 20
217.1187454898
 30
0.0
 40
0.2000000000010736
100
AcDbArc
 50
224.9999995197
 51
270.0000008031
  0
LINE
  5
E3
330
6F
100
AcDbEntity
  8
AP_448_0200
  6
Continuous
 62
     7
100
AcDbLine
 10
67.7723335447
 20
217.4889289142
 30
0.0
 11
68.2839383156
 21
216.9773241347
 31
0.0
  0
ARC
  5
E4
330
6F
100
AcDbEntity
  8
AP_448_0200
  6
Continuous
 62
     7
100
AcDbCircle
 10
68.1258869383
 20
217.8424823018
 30
0.0
 40
0.499999999999997
100
AcDbArc
 50
179.9999995197
 51
224.9999995197
  0
LINE
  5
E5
330
6F
100
AcDbEntity
  8
AP_448_0200
  6
Continuous
 62
     7
100
AcDbLine
 10
67.6258869525
 20
219.5397860764
 30
0.0
 11
67.6258869383
 21
217.842482306
 31
0.0
  0
ARC
  5
E6
330
6F
100
AcDbEntity
  8
AP_448_0200
  6
Continuous
 62
     7
100
AcDbCircle
 10
68.1258869525
 20
219.5397860722
 30
0.0
 40
0.500000000024656
100
AcDbArc
 50
134.9999995212
 51
179.9999995197
  0
LINE
  5
E7
330
6F
100
AcDbEntity
  8
AP_448_0200
  6
Continuous
 62
     7
100
AcDbLine
 10
68.2417707527
 20
220.3627766458
 30
0.0
 11
67.7723335649
 21
219.8933394658
 31
0.0
  0
ARC
  5
E8
330
6F
100
AcDbEntity
  8
AP_448_0200
  6
Continuous
 62
     7
100
AcDbCircle
 10
68.3831921078
 20
220.2213552883
 30
0.0
 40
0.2000000000385929
100
AcDbArc
 50
89.9999995197
 51
134.9999995212
  0
LINE
  5
E9
330
6F
100
AcDbEntity
  8
AP_448_0200
  6
Continuous
 62
     7
100
AcDbLine
 10
68.6458551764
 20
220.4213552862
 30
0.0
 11
68.3831921095
 21
220.4213552884
 31
0.0
  0
ARC
  5
EA
330
6F
100
AcDbEntity
  8
AP_448_0200
  6
Continuous
 62
     7
100
AcDbCircle
 10
68.6458551748
 20
220.2213552862
 30
0.0
 40
0.2000000000007106
100
AcDbArc
 50
19.8238833095
 51
89.9999995197
  0
LINE
  5
EB
330
6F
100
AcDbEntity
  8
AP_448_0200
  6
Continuous
 62
     7
100
AcDbLine
 10
68.9777388243
 20
219.8904614566
 30
0.0
 11
68.8340030721
 21
220.2891813041
 31
0.0
  0
ARC
  5
EC
330
6F
100
AcDbEntity
  8
AP_448_0200
  6
Continuous
 62
     7
100
AcDbCircle
 10
69.1188498177
 20
219.9413309955
 30
0.0
 40
0.1500000748122787
100
AcDbArc
 50
199.8238833095
 51
269.9999995198
  0
LINE
  5
ED
330
6F
100
AcDbEntity
  8
AP_448_0200
  6
Continuous
 62
     7
100
AcDbLine
 10
69.157106805
 20
219.7913309203
 30
0.0
 11
69.1188498164
 21
219.7913309206
 31
0.0
  0
ARC
  5
EE
330
6F
100
AcDbEntity
  8
AP_448_0200
  6
Continuous
 62
     7
100
AcDbCircle
 10
69.1571068062
 20
219.9413309203
 30
0.0
 40
0.1500000000005317
100
AcDbArc
 50
269.9999995197
 51
359.9999995198
  0
LINE
  5
EF
330
6F
100
AcDbEntity
  8
AP_448_0200
  6
Continuous
 62
     7
100
AcDbLine
 10
69.3071068079
 20
220.1438377054
 30
0.0
 11
69.3071068062
 21
219.9413309191
 31
0.0
  0
ARC
  5
F0
330
6F
100
AcDbEntity
  8
AP_448_0200
  6
Continuous
 62
     7
100
AcDbCircle
 10
69.107106816
 20
221.1026542319
 30
0.0
 40
0.1999999999999988
100
AcDbArc
 50
75.5538685647
 51
89.9999995197
  0
LINE
  5
F1
330
6F
100
AcDbEntity
  8
AP_448_0200
  6
Continuous
 62
     7
100
AcDbLine
 10
68.456680599
 20
221.3026542373
 30
0.0
 11
69.1071068176
 21
221.3026542319
 31
0.0
  0
ARC
  5
F2
330
6F
100
AcDbEntity
  8
AP_448_0200
  6
Continuous
 62
     7
100
AcDbCircle
 10
68.4566805865
 20
219.8026542373
 30
0.0
 40
1.500000000002813
100
AcDbArc
 50
89.9999995197
 51
179.9999995197
  0
LINE
  5
F3
330
6F
100
AcDbEntity
  8
AP_448_0200
  6
Continuous
 62
     7
100
AcDbLine
 10
66.9566805674
 20
217.5294687494
 30
0.0
 11
66.9566805865
 21
219.8026542499
 31
0.0
  0
ARC
  5
F4
330
6F
100
AcDbEntity
  8
AP_448_0200
  6
Continuous
 62
     7
100
AcDbCircle
 10
68.4566805674
 20
217.5294687369
 30
0.0
 40
1.499999999999096
100
AcDbArc
 50
179.9999995197
 51
215.9505673157
  0
ARC
  5
F5
330
6F
100
AcDbEntity
  8
AP_448_0200
  6
Continuous
 62
     7
100
AcDbCircle
 10
66.7566805609
 20
216.2965859453
 30
0.0
 40
0.6000000000000015
100
AcDbArc
 50
0.0
 51
35.9505673157
  0
LINE
  5
F6
330
6F
100
AcDbEntity
  8
AP_448_0200
  6
Continuous
 62
     7
100
AcDbLine
 10
67.3566805022
 20
209.298185634
 30
0.0
 11
67.3566805609
 21
216.2965859403
 31
0.0
  0
ARC
  5
F7
330
6F
100
AcDbEntity
  8
AP_448_0200
  6
Continuous
 62
     7
100
AcDbCircle
 10
66.3566805022
 20
209.2981856424
 30
0.0
 40
0.9999999999977458
100
AcDbArc
 50
269.9999995185
 51
359.9999995199
  0
LINE
  5
F8
330
6F
100
AcDbEntity
  8
AP_448_0200
  6
Continuous
 62
     7
100
AcDbLine
 10
52.2736953236
 20
208.2981857607
 30
0.0
 11
66.3566804938
 21
208.2981856424
 31
0.0
  0
ARC
  5
F9
330
6F
100
AcDbEntity
  8
AP_448_0200
  6
Continuous
 62
     7
100
AcDbCircle
 10
52.273695332
 20
209.2981857607
 30
0.0
 40
0.999999999997744
100
AcDbArc
 50
179.9999995361
 51
269.9999995185
  0
LINE
  5
FB
330
6F
100
AcDbEntity
  8
AP_450_0200
  6
Continuous
 62
     7
100
AcDbLine
 10
40.3151880202
 20
221.6026544732
 30
0.0
 11
40.3151880204
 21
221.6226544732
 31
0.0
  0
ARC
  5
FC
330
6F
100
AcDbEntity
  8
AP_450_0200
  6
Continuous
 62
     7
100
AcDbCircle
 10
40.5151880202
 20
221.6026544715
 30
0.0
 40
0.2000000000000002
100
AcDbArc
 50
179.9999995198
 51
269.9999995198
  0
LINE
  5
FD
330
6F
100
AcDbEntity
  8
AP_450_0200
  6
Continuous
 62
     7
100
AcDbLine
 10
43.5151880186
 20
221.4026544463
 30
0.0
 11
40.5151880186
 21
221.4026544715
 31
0.0
  0
LINE
  5
FE
330
6F
100
AcDbEntity
  8
AP_450_0200
  6
Continuous
 62
     7
100
AcDbLine
 10
43.8151880211
 20
221.7026544438
 30
0.0
 11
43.5151880186
 21
221.4026544463
 31
0.0
  0
LINE
  5
FF
330
6F
100
AcDbEntity
  8
AP_450_0200
  6
Continuous
 62
     7
100
AcDbLine
 10
44.1151880186
 20
221.4026544414
 30
0.0
 11
43.8151880211
 21
221.7026544438
 31
0.0
  0
LINE
  5
100
330
6F
100
AcDbEntity
  8
AP_450_0200
  6
Continuous
 62
     7
100
AcDbLine
 10
47.1151880186
 20
221.4026544162
 30
0.0
 11
44.1151880186
 21
221.4026544414
 31
0.0
  0
ARC
  5
101
330
6F
100
AcDbEntity
  8
AP_450_0200
  6
Continuous
 62
     7
100
AcDbCircle
 10
47.1151880169
 20
221.2026544162
 30
0.0
 40
0.2000000000000335
100
AcDbArc
 50
0.0
 51
89.9999995189
  0
LINE
  5
102
330
6F
100
AcDbEntity
  8
AP_450_0200
  6
Continuous
 62
     7
100
AcDbLine
 10
47.3151878627
 20
202.8026544145
 30
0.0
 11
47.3151880169
 21
221.2026544145
 31
0.0
  0
ARC
  5
103
330
6F
100
AcDbEntity
  8
AP_450_0200
  6
Continuous
 62
     7
100
AcDbCircle
 10
47.5151878627
 20
202.8026544128
 30
0.0
 40
0.1999999999999952
100
AcDbArc
 50
179.9999995198
 51
269.9617136844
  0
ARC
  5
104
330
6F
100
AcDbEntity
  8
AP_450_0200
  6
Continuous
 62
     7
100
AcDbCircle
 10
47.5155885283
 20
203.4022536184
 30
0.0
 40
0.7995993394262629
100
AcDbArc
 50
269.9617136844
 51
359.9999995198
  0
LINE
  5
105
330
6F
100
AcDbEntity
  8
AP_450_0200
  6
Continuous
 62
     7
100
AcDbLine
 10
48.3151880186
 20
221.4026544061
 30
0.0
 11
48.3151878677
 21
203.4022536117
 31
0.0
  0
ARC
  5
106
330
6F
100
AcDbEntity
  8
AP_450_0200
  6
Continuous
 62
     7
100
AcDbCircle
 10
48.5151880186
 20
221.4026544044
 30
0.0
 40
0.1999999999999997
100
AcDbArc
 50
89.9999995198
 51
179.9999995198
  0
LINE
  5
107
330
6F
100
AcDbEntity
  8
AP_450_0200
  6
Continuous
 62
     7
100
AcDbLine
 10
50.3651880202
 20
221.6026543889
 30
0.0
 11
48.5151880202
 21
221.6026544044
 31
0.0
  0
ARC
  5
108
330
6F
100
AcDbEntity
  8
AP_450_0200
  6
Continuous
 62
     7
100
AcDbCircle
 10
50.3651880051
 20
219.8026543889
 30
0.0
 40
1.800000000000001
100
AcDbArc
 50
0.0
 51
89.9999995198
  0
LINE
  5
109
330
6F
100
AcDbEntity
  8
AP_450_0200
  6
Continuous
 62
     7
100
AcDbLine
 10
52.1651879545
 20
213.7581301769
 30
0.0
 11
52.1651880051
 21
219.8026543738
 31
0.0
  0
ARC
  5
10A
330
6F
100
AcDbEntity
  8
AP_450_0200
  6
Continuous
 62
     7
100
AcDbCircle
 10
53.3651879545
 20
213.7581301668
 30
0.0
 40
1.200000000000001
100
AcDbArc
 50
179.9999995198
 51
269.9999995198
  0
LINE
  5
10B
330
6F
100
AcDbEntity
  8
AP_450_0200
  6
Continuous
 62
     7
100
AcDbLine
 10
54.9594240056
 20
212.5581301535
 30
0.0
 11
53.3651879444
 21
212.5581301668
 31
0.0
  0
ARC
  5
10C
330
6F
100
AcDbEntity
  8
AP_450_0200
  6
Continuous
 62
     7
100
AcDbCircle
 10
54.9594240073
 20
212.7638942601
 30
0.0
 40
0.2057641066249274
100
AcDbArc
 50
269.9999995198
 51
359.9999995198
  0
LINE
  5
10D
330
6F
100
AcDbEntity
  8
AP_450_0200
  6
Continuous
 62
     7
100
AcDbLine
 10
55.1651881193
 20
213.396891554
 30
0.0
 11
55.165188114
 21
212.7638942584
 31
0.0
  0
ARC
  5
10E
330
6F
100
AcDbEntity
  8
AP_450_0200
  6
Continuous
 62
     7
100
AcDbCircle
 10
54.9594240126
 20
213.3968915557
 30
0.0
 40
0.2057641066249276
100
AcDbArc
 50
0.0
 51
90.00004683
  0
LINE
  5
10F
330
6F
100
AcDbEntity
  8
AP_450_0200
  6
Continuous
 62
     7
100
AcDbLine
 10
53.3651879532
 20
213.6026543593
 30
0.0
 11
54.9594238445
 21
213.6026556624
 31
0.0
  0
ARC
  5
110
330
6F
100
AcDbEntity
  8
AP_450_0200
  6
Continuous
 62
     7
100
AcDbCircle
 10
53.3651877897
 20
213.8026543593
 30
0.0
 40
0.2000000000000006
100
AcDbArc
 50
179.9999982412
 51
270.00004683
  0
LINE
  5
111
330
6F
100
AcDbEntity
  8
AP_450_0200
  6
Continuous
 62
     7
100
AcDbLine
 10
53.1651880169
 20
221.2026543655
 30
0.0
 11
53.1651877897
 21
213.8026543655
 31
0.0
  0
ARC
  5
112
330
6F
100
AcDbEntity
  8
AP_450_0200
  6
Continuous
 62
     7
100
AcDbCircle
 10
53.5651880169
 20
221.2026543532
 30
0.0
 40
0.4000000000000001
100
AcDbArc
 50
89.9999995198
 51
179.9999982412
  0
LINE
  5
113
330
6F
100
AcDbEntity
  8
AP_450_0200
  6
Continuous
 62
     7
100
AcDbLine
 10
65.0651880202
 20
221.6026542568
 30
0.0
 11
53.5651880202
 21
221.6026543532
 31
0.0
  0
ARC
  5
114
330
6F
100
AcDbEntity
  8
AP_450_0200
  6
Continuous
 62
     7
100
AcDbCircle
 10
65.0651880169
 20
221.2026542565
 30
0.0
 40
0.4000000002932439
100
AcDbArc
 50
0.0
 51
89.9999995198
  0
LINE
  5
115
330
6F
100
AcDbEntity
  8
AP_450_0200
  6
Continuous
 62
     7
100
AcDbLine
 10
65.4651879552
 20
213.8026542624
 30
0.0
 11
65.4651880172
 21
221.2026542532
 31
0.0
  0
ARC
  5
116
330
6F
100
AcDbEntity
  8
AP_450_0200
  6
Continuous
 62
     7
100
AcDbCircle
 10
65.2651879552
 20
213.8026542641
 30
0.0
 40
0.1999999999999997
100
AcDbArc
 50
269.9999994157
 51
359.9999995198
  0
LINE
  5
117
330
6F
100
AcDbEntity
  8
AP_450_0200
  6
Continuous
 62
     7
100
AcDbLine
 10
63.6651879535
 20
213.6026542804
 30
0.0
 11
65.2651879532
 21
213.6026542641
 31
0.0
  0
ARC
  5
118
330
6F
100
AcDbEntity
  8
AP_450_0200
  6
Continuous
 62
     7
100
AcDbCircle
 10
63.6651879515
 20
213.4026542804
 30
0.0
 40
0.2000000000000005
100
AcDbArc
 50
89.9999994157
 51
179.9999995198
  0
LINE
  5
119
330
6F
100
AcDbEntity
  8
AP_450_0200
  6
Continuous
 62
     7
100
AcDbLine
 10
63.4651879461
 20
212.7580470026
 30
0.0
 11
63.4651879515
 21
213.402654282
 31
0.0
  0
ARC
  5
11A
330
6F
100
AcDbEntity
  8
AP_450_0200
  6
Continuous
 62
     7
100
AcDbCircle
 10
63.6651879461
 20
212.7580470009
 30
0.0
 40
0.2000000000000005
100
AcDbArc
 50
179.9999995198
 51
269.9999995198
  0
LINE
  5
11B
330
6F
100
AcDbEntity
  8
AP_450_0200
  6
Continuous
 62
     7
100
AcDbLine
 10
65.2651048649
 20
212.5580469875
 30
0.0
 11
63.6651879444
 21
212.5580470009
 31
0.0
  0
ARC
  5
11C
330
6F
100
AcDbEntity
  8
AP_450_0200
  6
Continuous
 62
     7
100
AcDbCircle
 10
65.2651048749
 20
213.7581300671
 30
0.0
 40
1.200083079568734
100
AcDbArc
 50
269.9999995198
 51
359.9999995199
  0
LINE
  5
11D
330
6F
100
AcDbEntity
  8
AP_450_0200
  6
Continuous
 62
     7
100
AcDbLine
 10
66.4651880051
 20
219.802654254
 30
0.0
 11
66.4651879545
 21
213.758130057
 31
0.0
  0
ARC
  5
11E
330
6F
100
AcDbEntity
  8
AP_450_0200
  6
Continuous
 62
     7
100
AcDbCircle
 10
68.2651880051
 20
219.8026542389
 30
0.0
 40
1.800000000000001
100
AcDbArc
 50
89.9999995197
 51
179.9999995199
  0
LINE
  5
11F
330
6F
100
AcDbEntity
  8
AP_450_0200
  6
Continuous
 62
     7
100
AcDbLine
 10
70.1151880202
 20
221.6026542234
 30
0.0
 11
68.2651880202
 21
221.6026542389
 31
0.0
  0
ARC
  5
120
330
6F
100
AcDbEntity
  8
AP_450_0200
  6
Continuous
 62
     7
100
AcDbCircle
 10
70.1151880186
 20
221.4026542234
 30
0.0
 40
0.1999999999999988
100
AcDbArc
 50
0.0
 51
89.9999995198
  0
LINE
  5
121
330
6F
100
AcDbEntity
  8
AP_450_0200
  6
Continuous
 62
     7
100
AcDbLine
 10
70.3151878677
 20
203.4026542217
 30
0.0
 11
70.3151880186
 21
221.4026542217
 31
0.0
  0
ARC
  5
122
330
6F
100
AcDbEntity
  8
AP_450_0200
  6
Continuous
 62
     7
100
AcDbCircle
 10
71.1151878677
 20
203.402654215
 30
0.0
 40
0.7999999999999947
100
AcDbArc
 50
179.9999995198
 51
269.9904294355
  0
ARC
  5
123
330
6F
100
AcDbEntity
  8
AP_450_0200
  6
Continuous
 62
     7
100
AcDbCircle
 10
71.1150876617
 20
202.8027544243
 30
0.0
 40
0.200100200951403
100
AcDbArc
 50
269.9904294355
 51
359.9999995198
  0
LINE
  5
124
330
6F
100
AcDbEntity
  8
AP_450_0200
  6
Continuous
 62
     7
100
AcDbLine
 10
71.3151880169
 20
221.2026542134
 30
0.0
 11
71.3151878627
 21
202.8027544227
 31
0.0
  0
ARC
  5
125
330
6F
100
AcDbEntity
  8
AP_450_0200
  6
Continuous
 62
     7
100
AcDbCircle
 10
71.5151880169
 20
221.2026542117
 30
0.0
 40
0.1999999999999995
100
AcDbArc
 50
89.9999995198
 51
179.9999995198
  0
LINE
  5
126
330
6F
100
AcDbEntity
  8
AP_450_0200
  6
Continuous
 62
     7
100
AcDbLine
 10
74.5151880186
 20
221.4026541865
 30
0.0
 11
71.5151880186
 21
221.4026542117
 31
0.0
  0
LINE
  5
127
330
6F
100
AcDbEntity
  8
AP_450_0200
  6
Continuous
 62
     7
100
AcDbLine
 10
74.8151880211
 20
221.702654184
 30
0.0
 11
74.5151880186
 21
221.4026541865
 31
0.0
  0
LINE
  5
128
330
6F
100
AcDbEntity
  8
AP_450_0200
  6
Continuous
 62
     7
100
AcDbLine
 10
75.1151880186
 20
221.4026541815
 30
0.0
 11
74.8151880211
 21
221.702654184
 31
0.0
  0
LINE
  5
129
330
6F
100
AcDbEntity
  8
AP_450_0200
  6
Continuous
 62
     7
100
AcDbLine
 10
78.1151880186
 20
221.4026541564
 30
0.0
 11
75.1151880186
 21
221.4026541815
 31
0.0
  0
ARC
  5
12A
330
6F
100
AcDbEntity
  8
AP_450_0200
  6
Continuous
 62
     7
100
AcDbCircle
 10
78.1151880202
 20
221.6026541564
 30
0.0
 40
0.1999999999999988
100
AcDbArc
 50
269.9999995198
 51
359.9999995198
  0
LINE
  5
12B
330
6F
100
AcDbEntity
  8
AP_450_0200
  6
Continuous
 62
     7
100
AcDbLine
 10
78.3151880204
 20
221.6226541547
 30
0.0
 11
78.3151880202
 21
221.6026541547
 31
0.0
  0
ARC
  5
12C
330
6F
100
AcDbEntity
  8
AP_450_0200
  6
Continuous
 62
     7
100
AcDbCircle
 10
77.3351880204
 20
221.6226541629
 30
0.0
 40
0.98
100
AcDbArc
 50
0.0
 51
89.9999995198
  0
LINE
  5
12D
330
6F
100
AcDbEntity
  8
AP_450_0200
  6
Continuous
 62
     7
100
AcDbLine
 10
41.2951880286
 20
222.6026544649
 30
0.0
 11
77.3351880286
 21
222.6026541629
 31
0.0
  0
ARC
  5
12E
330
6F
100
AcDbEntity
  8
AP_450_0200
  6
Continuous
 62
     7
100
AcDbCircle
 10
41.2951880204
 20
221.6226544649
 30
0.0
 40
0.9800000000000018
100
AcDbArc
 50
89.9999995198
 51
179.9999995198
  0
ENDBLK
  5
130
330
6F
100
AcDbEntity
  8
0
100
AcDbBlockEnd
  0
BLOCK
  5
133
330
132
100
AcDbEntity
  8
0
100
AcDbBlockBegin
  2
_OBLIQUE
 70
     0
 10
0.0
 20
0.0
 30
0.0
  3
_OBLIQUE
  1
_OBLIQUE
  0
LINE
  5
135
330
132
100
AcDbEntity
  8
0
  6
ByBlock
 62
     0
370
    -2
100
AcDbLine
 10
-0.5
 20
-0.5
 30
0.0
 11
0.5
 21
0.5
 31
0.0
  0
ENDBLK
  5
134
330
132
100
AcDbEntity
  8
0
100
AcDbBlockEnd
  0
BLOCK
  5
137
330
136
100
AcDbEntity
  8
0
100
AcDbBlockBegin
  2
_DOT
 70
     0
 10
0.0
 20
0.0
 30
0.0
  3
_DOT
  1
_DOT
  0
POLYLINE
  5
139
330
136
100
AcDbEntity
  8
0
  6
ByBlock
 62
     0
100
AcDb2dPolyline
 66
     1
 10
0.0
 20
0.0
 30
0.0
 70
     1
 40
0.5
 41
0.5
  0
VERTEX
  5
13B
330
139
100
AcDbEntity
  8
0
  6
ByBlock
 62
     0
100
AcDbVertex
100
AcDb2dVertex
 10
-0.25
 20
0.0
 30
0.0
 42
1.0
  0
VERTEX
  5
13C
330
139
100
AcDbEntity
  8
0
  6
ByBlock
 62
     0
100
AcDbVertex
100
AcDb2dVertex
 10
0.25
 20
0.0
 30
0.0
 42
1.0
  0
SEQEND
  5
13D
330
139
100
AcDbEntity
  8
0
  6
ByBlock
 62
     0
  0
LINE
  5
13A
330
136
100
AcDbEntity
  8
0
  6
ByBlock
 62
     0
370
    -2
100
AcDbLine
 10
-0.5
 20
0.0
 30
0.0
 11
-1.0
 21
0.0
 31
0.0
  0
ENDBLK
  5
138
330
136
100
AcDbEntity
  8
0
100
AcDbBlockEnd
  0
BLOCK
  5
142
330
13E
100
AcDbEntity
  8
0
100
AcDbBlockBegin
  2
_SE_OPEN
 70
     0
 10
0.0
 20
0.0
 30
0.0
  3
_SE_OPEN
  1
_SE_OPEN
  0
LINE
  5
13F
330
13E
100
AcDbEntity
  8
0
 62
     0
100
AcDbLine
 10
0.0
 20
0.0
 30
0.0
 11
-1.0
 21
-0.1665
 31
0.0
  0
LINE
  5
140
330
13E
100
AcDbEntity
  8
0
 62
     0
100
AcDbLine
 10
-1.0
 20
0.1665
 30
0.0
 11
0.0
 21
0.0
 31
0.0
  0
LINE
  5
141
330
13E
100
AcDbEntity
  8
0
 62
     0
100
AcDbLine
 10
0.0
 20
0.0
 30
0.0
 11
-1.0
 21
0.0
 31
0.0
  0
ENDBLK
  5
143
330
13E
100
AcDbEntity
  8
0
100
AcDbBlockEnd
  0
BLOCK
  5
14E
330
147
100
AcDbEntity
  8
0
100
AcDbBlockBegin
  2
DMBLK42
 70
     0
 10
0.0
 20
0.0
 30
0.0
  3
DMBLK42
  1
DMBLK42
  0
LWPOLYLINE
  5
148
330
147
100
AcDbEntity
  8
Standard
  6
Continuous
 62
     7
100
AcDbPolyline
 90
        3
 70
     0
 43
0.0
 10
51.0651879331
 20
226.9755266604
 10
47.3151880169
 20
227.6005266464
 10
51.0651879331
 20
228.2255266324
  0
LWPOLYLINE
  5
149
330
147
100
AcDbEntity
  8
Standard
  6
Continuous
 62
     7
100
AcDbPolyline
 90
        3
 70
     0
 43
0.0
 10
67.5651883093
 20
226.9755266604
 10
71.3151882255
 20
227.6005266464
 10
67.5651883093
 20
228.2255266324
  0
LINE
  5
14A
330
147
100
AcDbEntity
  8
Standard
  6
Continuous
 62
     7
100
AcDbLine
 10
47.3151880169
 20
221.952654421
 30
0.0
 11
47.3151880169
 21
228.8505266184
 31
0.0
  0
LINE
  5
14B
330
147
100
AcDbEntity
  8
Standard
  6
Continuous
 62
     7
100
AcDbLine
 10
71.3151880169
 20
221.9526542199
 30
0.0
 11
71.3151880169
 21
228.8505266184
 31
0.0
  0
LINE
  5
14C
330
147
100
AcDbEntity
  8
Standard
  6
Continuous
 62
     7
100
AcDbLine
 10
47.3151880169
 20
227.6005266464
 30
0.0
 11
71.3151882255
 21
227.6005266464
 31
0.0
  0
TEXT
  5
14D
330
147
100
AcDbEntity
  8
Standard
  6
Continuous
 62
     7
100
AcDbText
 10
57.358666382
 20
228.2255266464
 30
0.0
 40
2.5
  1
24
  7
SEACAD_Arial
 11
57.358666382
 21
230.7255266464
 31
0.0
100
AcDbText
 73
     3
  0
ENDBLK
  5
14F
330
147
100
AcDbEntity
  8
0
100
AcDbBlockEnd
  0
BLOCK
  5
158
330
151
100
AcDbEntity
  8
0
100
AcDbBlockBegin
  2
DMBLK43
 70
     0
 10
0.0
 20
0.0
 30
0.0
  3
DMBLK43
  1
DMBLK43
  0
LWPOLYLINE
  5
152
330
151
100
AcDbEntity
  8
Standard
  6
Continuous
 62
     7
100
AcDbPolyline
 90
        3
 70
     0
 43
0.0
 10
44.0651879366
 20
233.0895742669
 10
40.3151880204
 20
233.7145742529
 10
44.0651879366
 20
234.339574239
  0
LWPOLYLINE
  5
153
330
151
100
AcDbEntity
  8
Standard
  6
Continuous
 62
     7
100
AcDbPolyline
 90
        3
 70
     0
 43
0.0
 10
74.5651868823
 20
233.0895742669
 10
78.3151867985
 20
233.7145742529
 10
74.5651868823
 20
234.339574239
  0
LINE
  5
154
330
151
100
AcDbEntity
  8
Standard
  6
Continuous
 62
     7
100
AcDbLine
 10
40.3151880204
 20
222.3726544797
 30
0.0
 11
40.3151880204
 21
234.964574225
 31
0.0
  0
LINE
  5
155
330
151
100
AcDbEntity
  8
Standard
  6
Continuous
 62
     7
100
AcDbLine
 10
78.3151880204
 20
222.3726541694
 30
0.0
 11
78.3151880204
 21
234.964574225
 31
0.0
  0
LINE
  5
156
330
151
100
AcDbEntity
  8
Standard
  6
Continuous
 62
     7
100
AcDbLine
 10
40.3151880204
 20
233.7145742529
 30
0.0
 11
78.3151867985
 21
233.7145742529
 31
0.0
  0
TEXT
  5
157
330
151
100
AcDbEntity
  8
Standard
  6
Continuous
 62
     7
100
AcDbText
 10
57.3586656703
 20
234.3395742529
 30
0.0
 40
2.5
  1
38
  7
SEACAD_Arial
 11
57.3586656703
 21
236.8395742529
 31
0.0
100
AcDbText
 73
     3
  0
ENDBLK
  5
159
330
151
100
AcDbEntity
  8
0
100
AcDbBlockEnd
  0
BLOCK
  5
162
330
15B
100
AcDbEntity
  8
0
100
AcDbBlockBegin
  2
DMBLK44
 70
     0
 10
0.0
 20
0.0
 30
0.0
  3
DMBLK44
  1
DMBLK44
  0
LWPOLYLINE
  5
15C
330
15B
100
AcDbEntity
  8
Standard
  6
Continuous
 62
     7
100
AcDbPolyline
 90
        3
 70
     0
 43
0.0
 10
82.3797860446
 20
218.8526542467
 10
83.0047860306
 20
222.6026541629
 10
83.6297860166
 20
218.8526542467
  0
LWPOLYLINE
  5
15D
330
15B
100
AcDbEntity
  8
Standard
  6
Continuous
 62
     7
100
AcDbPolyline
 90
        3
 70
     0
 43
0.0
 10
82.3797860446
 20
206.3526545261
 10
83.0047860306
 20
202.6026546099
 10
83.6297860166
 20
206.3526545261
  0
LINE
  5
15E
330
15B
100
AcDbEntity
  8
Standard
  6
Continuous
 62
     7
100
AcDbLine
 10
78.0851880351
 20
222.6026541629
 30
0.0
 11
84.2547860027
 21
222.6026541629
 31
0.0
  0
LINE
  5
15F
330
15B
100
AcDbEntity
  8
Standard
  6
Continuous
 62
     7
100
AcDbLine
 10
71.8650542439
 20
202.6026542262
 30
0.0
 11
84.2547860027
 21
202.6026542262
 31
0.0
  0
LINE
  5
160
330
15B
100
AcDbEntity
  8
Standard
  6
Continuous
 62
     7
100
AcDbLine
 10
83.0047860306
 20
222.6026541629
 30
0.0
 11
83.0047860306
 21
202.6026546099
 31
0.0
  0
TEXT
  5
161
330
15B
100
AcDbEntity
  8
Standard
  6
Continuous
 62
     7
100
AcDbText
 10
82.3797860306
 20
210.6461326473
 30
0.0
 40
2.5
  1
20
 50
90.0
  7
SEACAD_Arial
 11
79.8797860306
 21
210.6461326473
 31
0.0
100
AcDbText
 73
     3
  0
ENDBLK
  5
163
330
15B
100
AcDbEntity
  8
0
100
AcDbBlockEnd
  0
BLOCK
  5
220
330
164
100
AcDbEntity
  8
0
100
AcDbBlockBegin
  2
SE1
 70
     0
 10
0.0
 20
0.0
 30
0.0
  3
SE1
  1
SE1
  0
LINE
  5
166
330
164
100
AcDbEntity
  8
AJ_221
  6
Continuous
 62
     7
100
AcDbLine
 10
159.4831786119
 20
222.1058562475
 30
0.0
 11
148.4831786119
 21
222.1058563396
 31
0.0
  0
LINE
  5
167
330
164
100
AcDbEntity
  8
AJ_221
  6
Continuous
 62
     7
100
AcDbLine
 10
159.4831785566
 20
215.5058562475
 30
0.0
 11
148.4831785566
 21
215.5058563396
 31
0.0
  0
LINE
  5
168
330
164
100
AcDbEntity
  8
AJ_221
  6
Continuous
 62
     7
100
AcDbLine
 10
159.4831786119
 20
222.1058562475
 30
0.0
 11
159.5182189798
 21
222.1058562472
 31
0.0
  0
ARC
  5
169
330
164
100
AcDbEntity
  8
AJ_221
  6
Continuous
 62
     7
100
AcDbCircle
 10
151.4210281107
 20
220.2949773986
 30
0.0
 40
8.297215326481737
100
AcDbArc
 50
0.1391586026
 51
12.6063499491
  0
LINE
  5
16A
330
164
100
AcDbEntity
  8
AJ_221
  6
Continuous
 62
     7
100
AcDbLine
 10
159.7182189648
 20
220.3151294546
 30
0.0
 11
159.7182189395
 21
217.2965830365
 31
0.0
  0
ARC
  5
16B
330
164
100
AcDbEntity
  8
AJ_221
  6
Continuous
 62
     7
100
AcDbCircle
 10
151.4210280858
 20
217.3167352314
 30
0.0
 40
8.2972153264814
100
AcDbArc
 50
347.3936490917
 51
359.8608404381
  0
LINE
  5
16C
330
164
100
AcDbEntity
  8
AJ_221
  6
Continuous
 62
     7
100
AcDbLine
 10
159.5182189245
 20
215.5058562472
 30
0.0
 11
159.4831785566
 21
215.5058562475
 31
0.0
  0
LINE
  5
16D
330
164
100
AcDbEntity
  8
AJ_221
  6
Continuous
 62
     7
100
AcDbLine
 10
147.7182189395
 20
217.2965831369
 30
0.0
 11
147.7182189648
 21
220.3151295551
 31
0.0
  0
ARC
  5
16E
330
164
100
AcDbEntity
  8
AJ_221
  6
Continuous
 62
     7
100
AcDbCircle
 10
156.0154098185
 20
220.2949773602
 30
0.0
 40
8.297215326481052
100
AcDbArc
 50
167.3936490917
 51
179.8608404381
  0
LINE
  5
16F
330
164
100
AcDbEntity
  8
AJ_221
  6
Continuous
 62
     7
100
AcDbLine
 10
147.9182189798
 20
222.1058563443
 30
0.0
 11
148.4831786119
 21
222.1058563396
 31
0.0
  0
LINE
  5
170
330
164
100
AcDbEntity
  8
AJ_221
  6
Continuous
 62
     7
100
AcDbLine
 10
148.4831785566
 20
215.5058563396
 30
0.0
 11
147.9182189245
 21
215.5058563443
 31
0.0
  0
ARC
  5
171
330
164
100
AcDbEntity
  8
AJ_221
  6
Continuous
 62
     7
100
AcDbCircle
 10
156.0154097936
 20
217.3167351929
 30
0.0
 40
8.297215326481876
100
AcDbArc
 50
180.1391586026
 51
192.6063499491
  0
ARC
  5
172
330
164
100
AcDbEntity
  8
AP_447__230
  6
Continuous
 62
     7
100
AcDbCircle
 10
144.4222188371
 20
205.3617783967
 30
0.0
 40
0.4999999999996891
100
AcDbArc
 50
119.4909796887
 51
319.2852090133
  0
ARC
  5
173
330
164
100
AcDbEntity
  8
AP_447__230
  6
Continuous
 62
     7
100
AcDbCircle
 10
144.0776182659
 20
205.9710816433
 30
0.0
 40
0.2000000000036122
100
AcDbArc
 50
299.4909796887
 51
359.9999995203
  0
LINE
  5
174
330
164
100
AcDbEntity
  8
AP_447__230
  6
Continuous
 62
     7
100
AcDbLine
 10
144.2776183335
 20
214.0464249561
 30
0.0
 11
144.2776182659
 21
205.9710816416
 31
0.0
  0
ARC
  5
175
330
164
100
AcDbEntity
  8
AP_447__230
  6
Continuous
 62
     7
100
AcDbCircle
 10
142.4776183335
 20
214.0464249712
 30
0.0
 40
1.799999999999998
100
AcDbArc
 50
0.0
 51
54.5606868878
  0
ARC
  5
176
330
164
100
AcDbEntity
  8
AP_447__230
  6
Continuous
 62
     7
100
AcDbCircle
 10
143.8515720362
 20
215.9769589918
 30
0.0
 40
0.5695380102607233
100
AcDbArc
 50
107.9929146345
 51
234.5606868878
  0
LINE
  5
177
330
164
100
AcDbEntity
  8
AP_447__230
  6
Continuous
 62
     7
100
AcDbLine
 10
143.6756421172
 20
218.9193263404
 30
0.0
 11
143.6756420971
 21
216.5186435879
 31
0.0
  0
LINE
  5
178
330
164
100
AcDbEntity
  8
AP_447__230
  6
Continuous
 62
     7
100
AcDbLine
 10
144.0342059721
 20
218.9193263374
 30
0.0
 11
143.6756421172
 21
218.9193263404
 31
0.0
  0
LINE
  5
179
330
164
100
AcDbEntity
  8
AP_447__230
  6
Continuous
 62
     7
100
AcDbLine
 10
144.1995501138
 20
218.664279337
 30
0.0
 11
144.0342059721
 21
218.9193263374
 31
0.0
  0
ARC
  5
17A
330
164
100
AcDbEntity
  8
AP_447__230
  6
Continuous
 62
     7
100
AcDbCircle
 10
144.315217766
 20
218.739265393
 30
0.0
 40
0.1378474315304175
100
AcDbArc
 50
212.9548939444
 51
281.7960351408
  0
ARC
  5
17B
330
164
100
AcDbEntity
  8
AP_447__230
  6
Continuous
 62
     7
100
AcDbCircle
 10
144.2547996898
 20
219.0285704221
 30
0.0
 40
0.4333939486490141
100
AcDbArc
 50
281.7960351408
 51
301.78460096
  0
ARC
  5
17C
330
164
100
AcDbEntity
  8
AP_447__230
  6
Continuous
 62
     7
100
AcDbCircle
 10
143.4600513994
 20
219.9854197721
 30
0.0
 40
1.67417827315704
100
AcDbArc
 50
307.6664192742
 51
0.3048125104
  0
ARC
  5
17D
330
164
100
AcDbEntity
  8
AP_447__230
  6
Continuous
 62
     7
100
AcDbCircle
 10
143.0729124347
 20
219.8085462637
 30
0.0
 40
2.069648597527393
100
AcDbArc
 50
5.1500338836
 51
46.9863212402
  0
ARC
  5
17E
330
164
100
AcDbEntity
  8
AP_447__230
  6
Continuous
 62
     7
100
AcDbCircle
 10
144.2563701499
 20
220.9626156577
 30
0.0
 40
0.4256985936373838
100
AcDbArc
 50
57.5521893105
 51
78.2035900705
  0
ARC
  5
17F
330
164
100
AcDbEntity
  8
AP_447__230
  6
Continuous
 62
     7
100
AcDbCircle
 10
144.3153572542
 20
221.2450594099
 30
0.0
 40
0.1371609849226393
100
AcDbArc
 50
78.2035900705
 51
146.4442800438
  0
LINE
  5
180
330
164
100
AcDbEntity
  8
AP_447__230
  6
Continuous
 62
     7
100
AcDbLine
 10
144.0342059901
 20
221.0693263374
 30
0.0
 11
144.2010543298
 21
221.3208748255
 31
0.0
  0
LINE
  5
181
330
164
100
AcDbEntity
  8
AP_447__230
  6
Continuous
 62
     7
100
AcDbLine
 10
143.6766938267
 20
221.0693263404
 30
0.0
 11
144.0342059901
 21
221.0693263374
 31
0.0
  0
LINE
  5
182
330
164
100
AcDbEntity
  8
AP_447__230
  6
Continuous
 62
     7
100
AcDbLine
 10
143.8758579269
 20
222.5621241776
 30
0.0
 11
143.6766938267
 21
221.0693263404
 31
0.0
  0
ARC
  5
183
330
164
100
AcDbEntity
  8
AP_447__230
  6
Continuous
 62
     7
100
AcDbCircle
 10
143.6427316964
 20
222.5842455803
 30
0.0
 40
0.2341734310521854
100
AcDbArc
 50
354.5794204202
 51
93.5048650377
  0
ARC
  5
184
330
164
100
AcDbEntity
  8
AP_447__230
  6
Continuous
 62
     7
100
AcDbCircle
 10
143.6453349046
 20
222.54174273
 30
0.0
 40
0.2767559271290324
100
AcDbArc
 50
93.5048650377
 51
163.986785997
  0
ARC
  5
185
330
164
100
AcDbEntity
  8
AP_447__230
  6
Continuous
 62
     7
100
AcDbCircle
 10
153.3774885777
 20
219.7486633545
 30
0.0
 40
10.401779755085
100
AcDbArc
 50
163.986785997
 51
188.1930038059
  0
ARC
  5
186
330
164
100
AcDbEntity
  8
AP_447__230
  6
Continuous
 62
     7
100
AcDbCircle
 10
142.7242218624
 20
217.8230886691
 30
0.0
 40
0.5695380102607241
100
AcDbArc
 50
295.1036805748
 51
51.0996840393
  0
LINE
  5
187
330
164
100
AcDbEntity
  8
AP_447__230
  6
Continuous
 62
     7
100
AcDbLine
 10
142.9658525942
 20
206.0770692252
 30
0.0
 11
142.9658526883
 21
217.307348338
 31
0.0
  0
ARC
  5
188
330
164
100
AcDbEntity
  8
AP_447__230
  6
Continuous
 62
     7
100
AcDbCircle
 10
145.4658522451
 20
206.0783369774
 30
0.0
 40
2.499999972401835
100
AcDbArc
 50
180.0290547416
 51
248.1920793072
  0
ARC
  5
189
330
164
100
AcDbEntity
  8
AP_447__230
  6
Continuous
 62
     7
100
AcDbCircle
 10
153.8245166311
 20
226.9681131575
 30
0.0
 40
25.00000039846504
100
AcDbArc
 50
248.1920793071
 51
269.7563826106
  0
ARC
  5
18A
330
164
100
AcDbEntity
  8
AP_447__230
  6
Continuous
 62
     7
100
AcDbCircle
 10
153.6119214093
 20
226.9681131593
 30
0.0
 40
25.00000039846503
100
AcDbArc
 50
270.243616429
 51
291.8079197326
  0
ARC
  5
18B
330
164
100
AcDbEntity
  8
AP_447__230
  6
Continuous
 62
     7
100
AcDbCircle
 10
161.9705854452
 20
206.0783368391
 30
0.0
 40
2.499999972401818
100
AcDbArc
 50
291.8079197326
 51
359.970944298
  0
LINE
  5
18C
330
164
100
AcDbEntity
  8
AP_447__230
  6
Continuous
 62
     7
100
AcDbLine
 10
164.4705851903
 20
217.3073481578
 30
0.0
 11
164.4705850961
 21
206.077069045
 31
0.0
  0
ARC
  5
18D
330
164
100
AcDbEntity
  8
AP_447__230
  6
Continuous
 62
     7
100
AcDbCircle
 10
164.7122160248
 20
217.8230884848
 30
0.0
 40
0.5695380102607288
100
AcDbArc
 50
128.9003150004
 51
244.8963184648
  0
ARC
  5
18E
330
164
100
AcDbEntity
  8
AP_447__230
  6
Continuous
 62
     7
100
AcDbCircle
 10
154.0589493417
 20
219.7486633488
 30
0.0
 40
10.40177975508503
100
AcDbArc
 50
351.8069952337
 51
16.0132130427
  0
ARC
  5
18F
330
164
100
AcDbEntity
  8
AP_447__230
  6
Continuous
 62
     7
100
AcDbCircle
 10
163.7911030617
 20
222.5417425612
 30
0.0
 40
0.2767559271290613
100
AcDbArc
 50
16.0132130427
 51
86.4951340019
  0
ARC
  5
190
330
164
100
AcDbEntity
  8
AP_447__230
  6
Continuous
 62
     7
100
AcDbCircle
 10
163.7937062706
 20
222.5842454114
 30
0.0
 40
0.2341734310521857
100
AcDbArc
 50
86.4951340019
 51
185.4205786195
  0
LINE
  5
191
330
164
100
AcDbEntity
  8
AP_447__230
  6
Continuous
 62
     7
100
AcDbLine
 10
163.7607958064
 20
221.0693261721
 30
0.0
 11
163.5605800397
 21
222.5621240126
 31
0.0
  0
LINE
  5
192
330
164
100
AcDbEntity
  8
AP_447__230
  6
Continuous
 62
     7
100
AcDbLine
 10
163.4022319514
 20
221.0693261751
 30
0.0
 11
163.7607958064
 21
221.0693261721
 31
0.0
  0
LINE
  5
193
330
164
100
AcDbEntity
  8
AP_447__230
  6
Continuous
 62
     7
100
AcDbLine
 10
163.2353836161
 20
221.320874666
 30
0.0
 11
163.4022319514
 21
221.0693261751
 31
0.0
  0
ARC
  5
194
330
164
100
AcDbEntity
  8
AP_447__230
  6
Continuous
 62
     7
100
AcDbCircle
 10
163.1210806903
 20
221.2450592523
 30
0.0
 40
0.1371609849226428
100
AcDbArc
 50
33.5557189958
 51
101.7964089692
  0
ARC
  5
195
330
164
100
AcDbEntity
  8
AP_447__230
  6
Continuous
 62
     7
100
AcDbCircle
 10
163.18006779
 20
220.9626154991
 30
0.0
 40
0.4256985936373808
100
AcDbArc
 50
101.7964089692
 51
122.4478097291
  0
ARC
  5
196
330
164
100
AcDbEntity
  8
AP_447__230
  6
Continuous
 62
     7
100
AcDbCircle
 10
164.3635254858
 20
219.8085460853
 30
0.0
 40
2.069648597527391
100
AcDbArc
 50
133.0136777995
 51
174.849965156
  0
ARC
  5
197
330
164
100
AcDbEntity
  8
AP_447__230
  6
Continuous
 62
     7
100
AcDbCircle
 10
163.976386524
 20
219.9854196001
 30
0.0
 40
1.674178273157056
100
AcDbArc
 50
179.6951865293
 51
232.3335797654
  0
ARC
  5
198
330
164
100
AcDbEntity
  8
AP_447__230
  6
Continuous
 62
     7
100
AcDbCircle
 10
163.1816382176
 20
219.0285702635
 30
0.0
 40
0.4333939486490219
100
AcDbArc
 50
238.2153980796
 51
258.2039638989
  0
ARC
  5
199
330
164
100
AcDbEntity
  8
AP_447__230
  6
Continuous
 62
     7
100
AcDbCircle
 10
163.1212201365
 20
218.7392652354
 30
0.0
 40
0.1378474315304166
100
AcDbArc
 50
258.2039638989
 51
327.0451050952
  0
LINE
  5
19A
330
164
100
AcDbEntity
  8
AP_447__230
  6
Continuous
 62
     7
100
AcDbLine
 10
163.4022319334
 20
218.919326175
 30
0.0
 11
163.2368877875
 21
218.6642791774
 31
0.0
  0
LINE
  5
19B
330
164
100
AcDbEntity
  8
AP_447__230
  6
Continuous
 62
     7
100
AcDbLine
 10
163.7607957884
 20
218.9193261721
 30
0.0
 11
163.4022319334
 21
218.919326175
 31
0.0
  0
LINE
  5
19C
330
164
100
AcDbEntity
  8
AP_447__230
  6
Continuous
 62
     7
100
AcDbLine
 10
163.7607957683
 20
216.5186434196
 30
0.0
 11
163.7607957884
 21
218.9193261721
 31
0.0
  0
ARC
  5
19D
330
164
100
AcDbEntity
  8
AP_447__230
  6
Continuous
 62
     7
100
AcDbCircle
 10
163.58486582
 20
215.9769588264
 30
0.0
 40
0.5695380102607226
100
AcDbArc
 50
305.4393121519
 51
72.0070844051
  0
ARC
  5
19E
330
164
100
AcDbEntity
  8
AP_447__230
  6
Continuous
 62
     7
100
AcDbCircle
 10
164.9588194904
 20
214.0464247828
 30
0.0
 40
1.8
100
AcDbArc
 50
125.4393121519
 51
179.9999995193
  0
LINE
  5
19F
330
164
100
AcDbEntity
  8
AP_447__230
  6
Continuous
 62
     7
100
AcDbLine
 10
163.1588194226
 20
205.9710814834
 30
0.0
 11
163.1588194904
 21
214.0464247979
 31
0.0
  0
ARC
  5
1A0
330
164
100
AcDbEntity
  8
AP_447__230
  6
Continuous
 62
     7
100
AcDbCircle
 10
163.3588194226
 20
205.9710814817
 30
0.0
 40
0.2000000000035534
100
AcDbArc
 50
179.9999995193
 51
240.5090193509
  0
ARC
  5
1A1
330
164
100
AcDbEntity
  8
AP_447__230
  6
Continuous
 62
     7
100
AcDbCircle
 10
163.0142188412
 20
205.3617782409
 30
0.0
 40
0.4999999999996919
100
AcDbArc
 50
220.7147900264
 51
60.5090193509
  0
ARC
  5
1A2
330
164
100
AcDbEntity
  8
AP_447__230
  6
Continuous
 62
     7
100
AcDbCircle
 10
162.483642654
 20
204.9051723829
 30
0.0
 40
0.1999999999910123
100
AcDbArc
 50
40.7147900264
 51
121.6603536473
  0
ARC
  5
1A3
330
164
100
AcDbEntity
  8
AP_447__230
  6
Continuous
 62
     7
100
AcDbCircle
 10
153.4904399446
 20
219.4889707792
 30
0.0
 40
16.93373487119723
100
AcDbArc
 50
270.7707196114
 51
301.6603536473
  0
ARC
  5
1A4
330
164
100
AcDbEntity
  8
AP_447__230
  6
Continuous
 62
     7
100
AcDbCircle
 10
153.9459979705
 20
219.4889707754
 30
0.0
 40
16.93373487119719
100
AcDbArc
 50
238.3396453923
 51
269.2292794283
  0
ARC
  5
1A5
330
164
100
AcDbEntity
  8
AP_447__230
  6
Continuous
 62
     7
100
AcDbCircle
 10
144.9527950167
 20
204.9051725298
 30
0.0
 40
0.1999999999909926
100
AcDbArc
 50
58.3396453923
 51
139.2852090133
  0
LINE
  5
1A6
330
164
100
AcDbEntity
  8
AP_448_0200
  6
Continuous
 62
     7
100
AcDbLine
 10
145.6767263566
 20
217.5997780704
 30
0.0
 11
145.6767262979
 21
210.601377764
 31
0.0
  0
ARC
  5
1A7
330
164
100
AcDbEntity
  8
AP_448_0200
  6
Continuous
 62
     7
100
AcDbCircle
 10
146.2767263564
 20
217.5997780653
 30
0.0
 40
0.5999999997806151
100
AcDbArc
 50
144.0494317239
 51
179.9999995197
  0
ARC
  5
1A8
330
164
100
AcDbEntity
  8
AP_448_0200
  6
Continuous
 62
     7
100
AcDbCircle
 10
144.5767263707
 20
218.8326608853
 30
0.0
 40
1.499999999999106
100
AcDbArc
 50
324.0494317239
 51
359.9999995197
  0
LINE
  5
1A9
330
164
100
AcDbEntity
  8
AP_448_0200
  6
Continuous
 62
     7
100
AcDbLine
 10
146.0767263898
 20
221.1058463732
 30
0.0
 11
146.0767263707
 21
218.8326608727
 31
0.0
  0
ARC
  5
1AA
330
164
100
AcDbEntity
  8
AP_448_0200
  6
Continuous
 62
     7
100
AcDbCircle
 10
144.5767263898
 20
221.1058463857
 30
0.0
 40
1.500000000002819
100
AcDbArc
 50
0.0
 51
89.9999995197
  0
LINE
  5
1AB
330
164
100
AcDbEntity
  8
AP_448_0200
  6
Continuous
 62
     7
100
AcDbLine
 10
143.9263001837
 20
222.6058463912
 30
0.0
 11
144.5767264023
 21
222.6058463857
 31
0.0
  0
ARC
  5
1AC
330
164
100
AcDbEntity
  8
AP_448_0200
  6
Continuous
 62
     7
100
AcDbCircle
 10
143.926300182
 20
222.4058463912
 30
0.0
 40
0.1999999999999988
100
AcDbArc
 50
89.9999995197
 51
104.4461304661
  0
LINE
  5
1AD
330
164
100
AcDbEntity
  8
AP_448_0200
  6
Continuous
 62
     7
100
AcDbLine
 10
143.7263001723
 20
221.2445230817
 30
0.0
 11
143.7263001739
 21
221.4411415811
 31
0.0
  0
ARC
  5
1AE
330
164
100
AcDbEntity
  8
AP_448_0200
  6
Continuous
 62
     7
100
AcDbCircle
 10
143.8763001723
 20
221.2445230805
 30
0.0
 40
0.1500000000004692
100
AcDbArc
 50
179.9999995198
 51
269.9999995198
  0
LINE
  5
1AF
330
164
100
AcDbEntity
  8
AP_448_0200
  6
Continuous
 62
     7
100
AcDbLine
 10
143.9145571596
 20
221.0945230802
 30
0.0
 11
143.876300171
 21
221.0945230805
 31
0.0
  0
ARC
  5
1B0
330
164
100
AcDbEntity
  8
AP_448_0200
  6
Continuous
 62
     7
100
AcDbCircle
 10
143.9145571609
 20
221.244523155
 30
0.0
 40
0.1500000748122821
100
AcDbArc
 50
269.9999995198
 51
340.1761157299
  0
LINE
  5
1B1
330
164
100
AcDbEntity
  8
AP_448_0200
  6
Continuous
 62
     7
100
AcDbLine
 10
144.1994039122
 20
221.5923734589
 30
0.0
 11
144.0556681534
 21
221.1936536138
 31
0.0
  0
ARC
  5
1B2
330
164
100
AcDbEntity
  8
AP_448_0200
  6
Continuous
 62
     7
100
AcDbCircle
 10
144.3875518085
 20
221.5245474378
 30
0.0
 40
0.2000000000007135
100
AcDbArc
 50
89.9999995197
 51
160.17611573
  0
LINE
  5
1B3
330
164
100
AcDbEntity
  8
AP_448_0200
  6
Continuous
 62
     7
100
AcDbLine
 10
144.6502148771
 20
221.7245474356
 30
0.0
 11
144.3875518101
 21
221.7245474378
 31
0.0
  0
ARC
  5
1B4
330
164
100
AcDbEntity
  8
AP_448_0200
  6
Continuous
 62
     7
100
AcDbCircle
 10
144.6502148754
 20
221.5245474356
 30
0.0
 40
0.2000000000060451
100
AcDbArc
 50
44.9999995195
 51
89.9999995197
  0
LINE
  5
1B5
330
164
100
AcDbEntity
  8
AP_448_0200
  6
Continuous
 62
     7
100
AcDbLine
 10
145.2610734129
 20
221.1965316027
 30
0.0
 11
144.7916362328
 21
221.6659687906
 31
0.0
  0
ARC
  5
1B6
330
164
100
AcDbEntity
  8
AP_448_0200
  6
Continuous
 62
     7
100
AcDbCircle
 10
144.9075200193
 20
220.8429782151
 30
0.0
 40
0.499999999998061
100
AcDbArc
 50
0.0
 51
44.9999995195
  0
LINE
  5
1B7
330
164
100
AcDbEntity
  8
AP_448_0200
  6
Continuous
 62
     7
100
AcDbLine
 10
145.4075200051
 20
219.1456744405
 30
0.0
 11
145.4075200193
 21
220.8429782109
 31
0.0
  0
ARC
  5
1B8
330
164
100
AcDbEntity
  8
AP_448_0200
  6
Continuous
 62
     7
100
AcDbCircle
 10
144.9075200051
 20
219.1456744447
 30
0.0
 40
0.4999999999999958
100
AcDbArc
 50
314.9999995201
 51
359.9999995197
  0
LINE
  5
1B9
330
164
100
AcDbEntity
  8
AP_448_0200
  6
Continuous
 62
     7
100
AcDbLine
 10
144.7494686132
 20
218.2805162803
 30
0.0
 11
145.2610733927
 21
218.7921210512
 31
0.0
  0
ARC
  5
1BA
330
164
100
AcDbEntity
  8
AP_448_0200
  6
Continuous
 62
     7
100
AcDbCircle
 10
144.6080472582
 20
218.4219376377
 30
0.0
 40
0.2000000000012686
100
AcDbArc
 50
269.9999995198
 51
314.99999952
  0
LINE
  5
1BB
330
164
100
AcDbEntity
  8
AP_448_0200
  6
Continuous
 62
     7
100
AcDbLine
 10
144.3875515121
 20
218.2219376395
 30
0.0
 11
144.6080472565
 21
218.2219376377
 31
0.0
  0
ARC
  5
1BC
330
164
100
AcDbEntity
  8
AP_448_0200
  6
Continuous
 62
     7
100
AcDbCircle
 10
144.3875515138
 20
218.4219376354
 30
0.0
 40
0.1999999959098378
100
AcDbArc
 50
199.8238678091
 51
269.9999995197
  0
LINE
  5
1BD
330
164
100
AcDbEntity
  8
AP_448_0200
  6
Continuous
 62
     7
100
AcDbLine
 10
144.0556680462
 20
218.752831633
 30
0.0
 11
144.1994036019
 21
218.3541116698
 31
0.0
  0
ARC
  5
1BE
330
164
100
AcDbEntity
  8
AP_448_0200
  6
Continuous
 62
     7
100
AcDbCircle
 10
143.9145571028
 20
218.7019621964
 30
0.0
 40
0.1499999930655582
100
AcDbArc
 50
19.8238530313
 51
89.9999995197
  0
LINE
  5
1BF
330
164
100
AcDbEntity
  8
AP_448_0200
  6
Continuous
 62
     7
100
AcDbLine
 10
143.8763001514
 20
218.8519621898
 30
0.0
 11
143.9145571041
 21
218.8519621895
 31
0.0
  0
ARC
  5
1C0
330
164
100
AcDbEntity
  8
AP_448_0200
  6
Continuous
 62
     7
100
AcDbCircle
 10
143.8763001502
 20
218.7019623232
 30
0.0
 40
0.1499998666290412
100
AcDbArc
 50
89.9999995197
 51
180.0000046782
  0
LINE
  5
1C1
330
164
100
AcDbEntity
  8
AP_448_0200
  6
Continuous
 62
     7
100
AcDbLine
 10
143.7263003696
 20
217.6473745636
 30
0.0
 11
143.7263002835
 21
218.7019623109
 31
0.0
  0
ARC
  5
1C2
330
164
100
AcDbEntity
  8
AP_448_0200
  6
Continuous
 62
     7
100
AcDbCircle
 10
144.3732613574
 20
217.6473745582
 30
0.0
 40
0.6469609877716176
100
AcDbArc
 50
179.9999995197
 51
233.3244047099
  0
LINE
  5
1C3
330
164
100
AcDbEntity
  8
AP_448_0200
  6
Continuous
 62
     7
100
AcDbLine
 10
144.4744386637
 20
216.765372113
 30
0.0
 11
143.9868421809
 21
217.128492356
 31
0.0
  0
ARC
  5
1C4
330
164
100
AcDbEntity
  8
AP_448_0200
  6
Continuous
 62
     7
100
AcDbCircle
 10
144.1757968725
 20
216.3643570503
 30
0.0
 40
0.5000000000000004
100
AcDbArc
 50
0.0
 51
53.3244047099
  0
LINE
  5
1C5
330
164
100
AcDbEntity
  8
AP_448_0200
  6
Continuous
 62
     7
100
AcDbLine
 10
144.6757968246
 20
210.6047851599
 30
0.0
 11
144.6757968725
 21
216.3643570461
 31
0.0
  0
ARC
  5
1C6
330
164
100
AcDbEntity
  8
AP_448_0200
  6
Continuous
 62
     7
100
AcDbCircle
 10
146.6757766726
 20
210.595806988
 30
0.0
 40
2.000000000000001
100
AcDbArc
 50
179.7427934584
 51
275.0242576249
  0
LINE
  5
1C7
330
164
100
AcDbEntity
  8
AP_448_0200
  6
Continuous
 62
     7
100
AcDbLine
 10
160.7606413435
 20
208.603491453
 30
0.0
 11
146.8509316711
 21
208.6034915696
 31
0.0
  0
ARC
  5
1C8
330
164
100
AcDbEntity
  8
AP_448_0200
  6
Continuous
 62
     7
100
AcDbCircle
 10
160.7606413602
 20
210.6034876059
 30
0.0
 40
1.999996152865284
100
AcDbArc
 50
269.9999995197
 51
0.0371679157
  0
LINE
  5
1C9
330
164
100
AcDbEntity
  8
AP_448_0200
  6
Continuous
 62
     7
100
AcDbLine
 10
162.7606412563
 20
216.3643568945
 30
0.0
 11
162.7606370923
 21
210.6047850083
 31
0.0
  0
ARC
  5
1CA
330
164
100
AcDbEntity
  8
AP_448_0200
  6
Continuous
 62
     7
100
AcDbCircle
 10
163.2606412563
 20
216.3643568903
 30
0.0
 40
0.4999999999999997
100
AcDbArc
 50
126.6756323495
 51
179.9999995197
  0
LINE
  5
1CB
330
164
100
AcDbEntity
  8
AP_448_0200
  6
Continuous
 62
     7
100
AcDbLine
 10
163.5395733176
 20
217.2712464698
 30
0.0
 11
162.9619992057
 21
216.7653717599
 31
0.0
  0
ARC
  5
1CC
330
164
100
AcDbEntity
  8
AP_448_0200
  6
Continuous
 62
     7
100
AcDbCircle
 10
163.2101376095
 20
217.6473742596
 30
0.0
 40
0.4999999999979525
100
AcDbArc
 50
311.2138572741
 51
359.9999943613
  0
LINE
  5
1CD
330
164
100
AcDbEntity
  8
AP_448_0200
  6
Continuous
 62
     7
100
AcDbLine
 10
163.7101377133
 20
218.701962035
 30
0.0
 11
163.7101376095
 21
217.6473742104
 31
0.0
  0
ARC
  5
1CE
330
164
100
AcDbEntity
  8
AP_448_0200
  6
Continuous
 62
     7
100
AcDbCircle
 10
163.5601377517
 20
218.7019620497
 30
0.0
 40
0.1499999615606831
100
AcDbArc
 50
0.0
 51
89.9999995197
  0
LINE
  5
1CF
330
164
100
AcDbEntity
  8
AP_448_0200
  6
Continuous
 62
     7
100
AcDbLine
 10
163.5218808003
 20
218.8519620116
 30
0.0
 11
163.560137753
 21
218.8519620113
 31
0.0
  0
ARC
  5
1D0
330
164
100
AcDbEntity
  8
AP_448_0200
  6
Continuous
 62
     7
100
AcDbCircle
 10
163.5218807991
 20
218.7019620116
 30
0.0
 40
0.1499999999955268
100
AcDbArc
 50
89.9999995198
 51
160.1761386653
  0
LINE
  5
1D1
330
164
100
AcDbEntity
  8
AP_448_0200
  6
Continuous
 62
     7
100
AcDbLine
 10
163.237034243
 20
218.3541115286
 30
0.0
 11
163.3807698565
 21
218.752831471
 31
0.0
  0
ARC
  5
1D2
330
164
100
AcDbEntity
  8
AP_448_0200
  6
Continuous
 62
     7
100
AcDbCircle
 10
163.0488863256
 20
218.421937479
 30
0.0
 40
0.1999999959117482
100
AcDbArc
 50
269.9999995197
 51
340.1761368384
  0
LINE
  5
1D3
330
164
100
AcDbEntity
  8
AP_448_0200
  6
Continuous
 62
     7
100
AcDbLine
 10
162.8283906418
 20
218.221937485
 30
0.0
 11
163.048886324
 21
218.2219374831
 31
0.0
  0
ARC
  5
1D4
330
164
100
AcDbEntity
  8
AP_448_0200
  6
Continuous
 62
     7
100
AcDbCircle
 10
162.828390639
 20
218.421937485
 30
0.0
 40
0.2000000000010736
100
AcDbArc
 50
224.9999995197
 51
270.0000008031
  0
LINE
  5
1D5
330
164
100
AcDbEntity
  8
AP_448_0200
  6
Continuous
 62
     7
100
AcDbLine
 10
162.1753645107
 20
218.7921209094
 30
0.0
 11
162.6869692816
 21
218.2805161299
 31
0.0
  0
ARC
  5
1D6
330
164
100
AcDbEntity
  8
AP_448_0200
  6
Continuous
 62
     7
100
AcDbCircle
 10
162.5289179042
 20
219.145674297
 30
0.0
 40
0.499999999999997
100
AcDbArc
 50
179.9999995197
 51
224.9999995197
  0
LINE
  5
1D7
330
164
100
AcDbEntity
  8
AP_448_0200
  6
Continuous
 62
     7
100
AcDbLine
 10
162.0289179185
 20
220.8429780716
 30
0.0
 11
162.0289179042
 21
219.1456743012
 31
0.0
  0
ARC
  5
1D8
330
164
100
AcDbEntity
  8
AP_448_0200
  6
Continuous
 62
     7
100
AcDbCircle
 10
162.5289179185
 20
220.8429780674
 30
0.0
 40
0.500000000024656
100
AcDbArc
 50
134.9999995212
 51
179.9999995197
  0
LINE
  5
1D9
330
164
100
AcDbEntity
  8
AP_448_0200
  6
Continuous
 62
     7
100
AcDbLine
 10
162.6448017187
 20
221.665968641
 30
0.0
 11
162.1753645308
 21
221.196531461
 31
0.0
  0
ARC
  5
1DA
330
164
100
AcDbEntity
  8
AP_448_0200
  6
Continuous
 62
     7
100
AcDbCircle
 10
162.7862230738
 20
221.5245472835
 30
0.0
 40
0.2000000000385929
100
AcDbArc
 50
89.9999995197
 51
134.9999995212
  0
LINE
  5
1DB
330
164
100
AcDbEntity
  8
AP_448_0200
  6
Continuous
 62
     7
100
AcDbLine
 10
163.0488861424
 20
221.7245472813
 30
0.0
 11
162.7862230754
 21
221.7245472836
 31
0.0
  0
ARC
  5
1DC
330
164
100
AcDbEntity
  8
AP_448_0200
  6
Continuous
 62
     7
100
AcDbCircle
 10
163.0488861407
 20
221.5245472813
 30
0.0
 40
0.2000000000007106
100
AcDbArc
 50
19.8238833095
 51
89.9999995197
  0
LINE
  5
1DD
330
164
100
AcDbEntity
  8
AP_448_0200
  6
Continuous
 62
     7
100
AcDbLine
 10
163.3807697902
 20
221.1936534518
 30
0.0
 11
163.2370340381
 21
221.5923732993
 31
0.0
  0
ARC
  5
1DE
330
164
100
AcDbEntity
  8
AP_448_0200
  6
Continuous
 62
     7
100
AcDbCircle
 10
163.5218807836
 20
221.2445229906
 30
0.0
 40
0.1500000748122787
100
AcDbArc
 50
199.8238833095
 51
269.9999995198
  0
LINE
  5
1DF
330
164
100
AcDbEntity
  8
AP_448_0200
  6
Continuous
 62
     7
100
AcDbLine
 10
163.5601377709
 20
221.0945229155
 30
0.0
 11
163.5218807824
 21
221.0945229158
 31
0.0
  0
ARC
  5
1E0
330
164
100
AcDbEntity
  8
AP_448_0200
  6
Continuous
 62
     7
100
AcDbCircle
 10
163.5601377722
 20
221.2445229155
 30
0.0
 40
0.1500000000005317
100
AcDbArc
 50
269.9999995198
 51
359.9999995197
  0
LINE
  5
1E1
330
164
100
AcDbEntity
  8
AP_448_0200
  6
Continuous
 62
     7
100
AcDbLine
 10
163.7101377739
 20
221.4470297005
 30
0.0
 11
163.7101377722
 21
221.2445229142
 31
0.0
  0
ARC
  5
1E2
330
164
100
AcDbEntity
  8
AP_448_0200
  6
Continuous
 62
     7
100
AcDbCircle
 10
163.5101377819
 20
222.405846227
 30
0.0
 40
0.1999999999999988
100
AcDbArc
 50
75.5538685647
 51
89.9999995197
  0
LINE
  5
1E3
330
164
100
AcDbEntity
  8
AP_448_0200
  6
Continuous
 62
     7
100
AcDbLine
 10
162.859711565
 20
222.6058462325
 30
0.0
 11
163.5101377836
 21
222.605846227
 31
0.0
  0
ARC
  5
1E4
330
164
100
AcDbEntity
  8
AP_448_0200
  6
Continuous
 62
     7
100
AcDbCircle
 10
162.8597115524
 20
221.1058462325
 30
0.0
 40
1.500000000002813
100
AcDbArc
 50
89.9999995197
 51
179.9999995197
  0
LINE
  5
1E5
330
164
100
AcDbEntity
  8
AP_448_0200
  6
Continuous
 62
     7
100
AcDbLine
 10
161.3597115334
 20
218.8326607446
 30
0.0
 11
161.3597115524
 21
221.1058462451
 31
0.0
  0
ARC
  5
1E6
330
164
100
AcDbEntity
  8
AP_448_0200
  6
Continuous
 62
     7
100
AcDbCircle
 10
162.8597115334
 20
218.832660732
 30
0.0
 40
1.499999999999096
100
AcDbArc
 50
179.9999995197
 51
215.9505673157
  0
ARC
  5
1E7
330
164
100
AcDbEntity
  8
AP_448_0200
  6
Continuous
 62
     7
100
AcDbCircle
 10
161.1597115268
 20
217.5997779405
 30
0.0
 40
0.6000000000000015
100
AcDbArc
 50
0.0
 51
35.9505673157
  0
LINE
  5
1E8
330
164
100
AcDbEntity
  8
AP_448_0200
  6
Continuous
 62
     7
100
AcDbLine
 10
161.7597114682
 20
210.6013776292
 30
0.0
 11
161.7597115268
 21
217.5997779354
 31
0.0
  0
ARC
  5
1E9
330
164
100
AcDbEntity
  8
AP_448_0200
  6
Continuous
 62
     7
100
AcDbCircle
 10
160.7597114682
 20
210.6013776375
 30
0.0
 40
0.9999999999977458
100
AcDbArc
 50
269.9999995185
 51
359.9999995199
  0
LINE
  5
1EA
330
164
100
AcDbEntity
  8
AP_448_0200
  6
Continuous
 62
     7
100
AcDbLine
 10
146.6767262895
 20
209.6013777559
 30
0.0
 11
160.7597114598
 21
209.6013776375
 31
0.0
  0
ARC
  5
1EB
330
164
100
AcDbEntity
  8
AP_448_0200
  6
Continuous
 62
     7
100
AcDbCircle
 10
146.6767262979
 20
210.6013777559
 30
0.0
 40
0.999999999997744
100
AcDbArc
 50
179.9999995361
 51
269.9999995185
  0
LINE
  5
1EC
330
164
100
AcDbEntity
  8
AP_450_0200
  6
Continuous
 62
     7
100
AcDbLine
 10
134.7182189862
 20
222.9058464683
 30
0.0
 11
134.7182189864
 21
222.9258464683
 31
0.0
  0
ARC
  5
1ED
330
164
100
AcDbEntity
  8
AP_450_0200
  6
Continuous
 62
     7
100
AcDbCircle
 10
134.9182189862
 20
222.9058464666
 30
0.0
 40
0.2000000000000002
100
AcDbArc
 50
179.9999995198
 51
269.9999995198
  0
LINE
  5
1EE
330
164
100
AcDbEntity
  8
AP_450_0200
  6
Continuous
 62
     7
100
AcDbLine
 10
137.9182189845
 20
222.7058464415
 30
0.0
 11
134.9182189845
 21
222.7058464666
 31
0.0
  0
LINE
  5
1EF
330
164
100
AcDbEntity
  8
AP_450_0200
  6
Continuous
 62
     7
100
AcDbLine
 10
138.2182189871
 20
223.005846439
 30
0.0
 11
137.9182189845
 21
222.7058464415
 31
0.0
  0
LINE
  5
1F0
330
164
100
AcDbEntity
  8
AP_450_0200
  6
Continuous
 62
     7
100
AcDbLine
 10
138.5182189845
 20
222.7058464365
 30
0.0
 11
138.2182189871
 21
223.005846439
 31
0.0
  0
LINE
  5
1F1
330
164
100
AcDbEntity
  8
AP_450_0200
  6
Continuous
 62
     7
100
AcDbLine
 10
141.5182189845
 20
222.7058464113
 30
0.0
 11
138.5182189845
 21
222.7058464365
 31
0.0
  0
ARC
  5
1F2
330
164
100
AcDbEntity
  8
AP_450_0200
  6
Continuous
 62
     7
100
AcDbCircle
 10
141.5182189828
 20
222.5058464113
 30
0.0
 40
0.2000000000000335
100
AcDbArc
 50
0.0
 51
89.9999995189
  0
LINE
  5
1F3
330
164
100
AcDbEntity
  8
AP_450_0200
  6
Continuous
 62
     7
100
AcDbLine
 10
141.7182188286
 20
204.1058464097
 30
0.0
 11
141.7182189828
 21
222.5058464097
 31
0.0
  0
ARC
  5
1F4
330
164
100
AcDbEntity
  8
AP_450_0200
  6
Continuous
 62
     7
100
AcDbCircle
 10
141.9182188286
 20
204.105846408
 30
0.0
 40
0.1999999999999952
100
AcDbArc
 50
179.9999995198
 51
269.9617136844
  0
ARC
  5
1F5
330
164
100
AcDbEntity
  8
AP_450_0200
  6
Continuous
 62
     7
100
AcDbCircle
 10
141.9186194942
 20
204.7054456135
 30
0.0
 40
0.7995993394262629
100
AcDbArc
 50
269.9617136844
 51
359.9999995198
  0
LINE
  5
1F6
330
164
100
AcDbEntity
  8
AP_450_0200
  6
Continuous
 62
     7
100
AcDbLine
 10
142.7182189845
 20
222.7058464013
 30
0.0
 11
142.7182188337
 21
204.7054456068
 31
0.0
  0
ARC
  5
1F7
330
164
100
AcDbEntity
  8
AP_450_0200
  6
Continuous
 62
     7
100
AcDbCircle
 10
142.9182189845
 20
222.7058463996
 30
0.0
 40
0.1999999999999997
100
AcDbArc
 50
89.9999995198
 51
179.9999995198
  0
LINE
  5
1F8
330
164
100
AcDbEntity
  8
AP_450_0200
  6
Continuous
 62
     7
100
AcDbLine
 10
144.7682189862
 20
222.9058463841
 30
0.0
 11
142.9182189862
 21
222.9058463996
 31
0.0
  0
ARC
  5
1F9
330
164
100
AcDbEntity
  8
AP_450_0200
  6
Continuous
 62
     7
100
AcDbCircle
 10
144.7682189711
 20
221.1058463841
 30
0.0
 40
1.800000000000001
100
AcDbArc
 50
0.0
 51
89.9999995198
  0
LINE
  5
1FA
330
164
100
AcDbEntity
  8
AP_450_0200
  6
Continuous
 62
     7
100
AcDbLine
 10
146.5682189204
 20
215.061322172
 30
0.0
 11
146.5682189711
 21
221.105846369
 31
0.0
  0
ARC
  5
1FB
330
164
100
AcDbEntity
  8
AP_450_0200
  6
Continuous
 62
     7
100
AcDbCircle
 10
147.7682189204
 20
215.061322162
 30
0.0
 40
1.200000000000001
100
AcDbArc
 50
179.9999995198
 51
269.9999995198
  0
LINE
  5
1FC
330
164
100
AcDbEntity
  8
AP_450_0200
  6
Continuous
 62
     7
100
AcDbLine
 10
149.3624549716
 20
213.8613221486
 30
0.0
 11
147.7682189104
 21
213.861322162
 31
0.0
  0
ARC
  5
1FD
330
164
100
AcDbEntity
  8
AP_450_0200
  6
Continuous
 62
     7
100
AcDbCircle
 10
149.3624549733
 20
214.0670862552
 30
0.0
 40
0.2057641066249274
100
AcDbArc
 50
269.9999995198
 51
359.9999995198
  0
LINE
  5
1FE
330
164
100
AcDbEntity
  8
AP_450_0200
  6
Continuous
 62
     7
100
AcDbLine
 10
149.5682190852
 20
214.7000835492
 30
0.0
 11
149.5682190799
 21
214.0670862535
 31
0.0
  0
ARC
  5
1FF
330
164
100
AcDbEntity
  8
AP_450_0200
  6
Continuous
 62
     7
100
AcDbCircle
 10
149.3624549786
 20
214.7000835509
 30
0.0
 40
0.2057641066249276
100
AcDbArc
 50
0.0
 51
90.00004683
  0
LINE
  5
200
330
164
100
AcDbEntity
  8
AP_450_0200
  6
Continuous
 62
     7
100
AcDbLine
 10
147.7682189191
 20
214.9058463545
 30
0.0
 11
149.3624548104
 21
214.9058476575
 31
0.0
  0
ARC
  5
201
330
164
100
AcDbEntity
  8
AP_450_0200
  6
Continuous
 62
     7
100
AcDbCircle
 10
147.7682187557
 20
215.1058463545
 30
0.0
 40
0.2000000000000006
100
AcDbArc
 50
179.9999982412
 51
270.00004683
  0
LINE
  5
202
330
164
100
AcDbEntity
  8
AP_450_0200
  6
Continuous
 62
     7
100
AcDbLine
 10
147.5682189828
 20
222.5058463606
 30
0.0
 11
147.5682187557
 21
215.1058463606
 31
0.0
  0
ARC
  5
203
330
164
100
AcDbEntity
  8
AP_450_0200
  6
Continuous
 62
     7
100
AcDbCircle
 10
147.9682189828
 20
222.5058463484
 30
0.0
 40
0.4000000000000001
100
AcDbArc
 50
89.9999995198
 51
179.9999982412
  0
LINE
  5
204
330
164
100
AcDbEntity
  8
AP_450_0200
  6
Continuous
 62
     7
100
AcDbLine
 10
159.4682189862
 20
222.905846252
 30
0.0
 11
147.9682189862
 21
222.9058463484
 31
0.0
  0
ARC
  5
205
330
164
100
AcDbEntity
  8
AP_450_0200
  6
Continuous
 62
     7
100
AcDbCircle
 10
159.4682189828
 20
222.5058462517
 30
0.0
 40
0.4000000002932439
100
AcDbArc
 50
0.0
 51
89.9999995198
  0
LINE
  5
206
330
164
100
AcDbEntity
  8
AP_450_0200
  6
Continuous
 62
     7
100
AcDbLine
 10
159.8682189212
 20
215.1058462575
 30
0.0
 11
159.8682189831
 21
222.5058462483
 31
0.0
  0
ARC
  5
207
330
164
100
AcDbEntity
  8
AP_450_0200
  6
Continuous
 62
     7
100
AcDbCircle
 10
159.6682189212
 20
215.1058462592
 30
0.0
 40
0.1999999999999997
100
AcDbArc
 50
269.9999994157
 51
359.9999995198
  0
LINE
  5
208
330
164
100
AcDbEntity
  8
AP_450_0200
  6
Continuous
 62
     7
100
AcDbLine
 10
158.0682189195
 20
214.9058462755
 30
0.0
 11
159.6682189191
 21
214.9058462592
 31
0.0
  0
ARC
  5
209
330
164
100
AcDbEntity
  8
AP_450_0200
  6
Continuous
 62
     7
100
AcDbCircle
 10
158.0682189175
 20
214.7058462755
 30
0.0
 40
0.2000000000000005
100
AcDbArc
 50
89.9999994157
 51
179.9999995198
  0
LINE
  5
20A
330
164
100
AcDbEntity
  8
AP_450_0200
  6
Continuous
 62
     7
100
AcDbLine
 10
157.8682189121
 20
214.0612389978
 30
0.0
 11
157.8682189175
 21
214.7058462772
 31
0.0
  0
ARC
  5
20B
330
164
100
AcDbEntity
  8
AP_450_0200
  6
Continuous
 62
     7
100
AcDbCircle
 10
158.0682189121
 20
214.0612389961
 30
0.0
 40
0.2000000000000005
100
AcDbArc
 50
179.9999995198
 51
269.9999995198
  0
LINE
  5
20C
330
164
100
AcDbEntity
  8
AP_450_0200
  6
Continuous
 62
     7
100
AcDbLine
 10
159.6681358308
 20
213.8612389827
 30
0.0
 11
158.0682189104
 21
213.8612389961
 31
0.0
  0
ARC
  5
20D
330
164
100
AcDbEntity
  8
AP_450_0200
  6
Continuous
 62
     7
100
AcDbCircle
 10
159.6681358409
 20
215.0613220623
 30
0.0
 40
1.200083079568734
100
AcDbArc
 50
269.9999995198
 51
359.9999995199
  0
LINE
  5
20E
330
164
100
AcDbEntity
  8
AP_450_0200
  6
Continuous
 62
     7
100
AcDbLine
 10
160.8682189711
 20
221.1058462492
 30
0.0
 11
160.8682189205
 21
215.0613220522
 31
0.0
  0
ARC
  5
20F
330
164
100
AcDbEntity
  8
AP_450_0200
  6
Continuous
 62
     7
100
AcDbCircle
 10
162.6682189711
 20
221.1058462341
 30
0.0
 40
1.800000000000001
100
AcDbArc
 50
89.9999995197
 51
179.9999995199
  0
LINE
  5
210
330
164
100
AcDbEntity
  8
AP_450_0200
  6
Continuous
 62
     7
100
AcDbLine
 10
164.5182189862
 20
222.9058462186
 30
0.0
 11
162.6682189862
 21
222.9058462341
 31
0.0
  0
ARC
  5
211
330
164
100
AcDbEntity
  8
AP_450_0200
  6
Continuous
 62
     7
100
AcDbCircle
 10
164.5182189845
 20
222.7058462186
 30
0.0
 40
0.1999999999999988
100
AcDbArc
 50
0.0
 51
89.9999995198
  0
LINE
  5
212
330
164
100
AcDbEntity
  8
AP_450_0200
  6
Continuous
 62
     7
100
AcDbLine
 10
164.7182188337
 20
204.7058462169
 30
0.0
 11
164.7182189845
 21
222.7058462169
 31
0.0
  0
ARC
  5
213
330
164
100
AcDbEntity
  8
AP_450_0200
  6
Continuous
 62
     7
100
AcDbCircle
 10
165.5182188337
 20
204.7058462102
 30
0.0
 40
0.7999999999999947
100
AcDbArc
 50
179.9999995198
 51
269.9904294355
  0
ARC
  5
214
330
164
100
AcDbEntity
  8
AP_450_0200
  6
Continuous
 62
     7
100
AcDbCircle
 10
165.5181186277
 20
204.1059464195
 30
0.0
 40
0.200100200951403
100
AcDbArc
 50
269.9904294355
 51
359.9999995198
  0
LINE
  5
215
330
164
100
AcDbEntity
  8
AP_450_0200
  6
Continuous
 62
     7
100
AcDbLine
 10
165.7182189828
 20
222.5058462085
 30
0.0
 11
165.7182188286
 21
204.1059464178
 31
0.0
  0
ARC
  5
216
330
164
100
AcDbEntity
  8
AP_450_0200
  6
Continuous
 62
     7
100
AcDbCircle
 10
165.9182189828
 20
222.5058462068
 30
0.0
 40
0.1999999999999995
100
AcDbArc
 50
89.9999995198
 51
179.9999995198
  0
LINE
  5
217
330
164
100
AcDbEntity
  8
AP_450_0200
  6
Continuous
 62
     7
100
AcDbLine
 10
168.9182189845
 20
222.7058461817
 30
0.0
 11
165.9182189845
 21
222.7058462068
 31
0.0
  0
LINE
  5
218
330
164
100
AcDbEntity
  8
AP_450_0200
  6
Continuous
 62
     7
100
AcDbLine
 10
169.218218987
 20
223.0058461792
 30
0.0
 11
168.9182189845
 21
222.7058461817
 31
0.0
  0
LINE
  5
219
330
164
100
AcDbEntity
  8
AP_450_0200
  6
Continuous
 62
     7
100
AcDbLine
 10
169.5182189845
 20
222.7058461767
 30
0.0
 11
169.218218987
 21
223.0058461792
 31
0.0
  0
LINE
  5
21A
330
164
100
AcDbEntity
  8
AP_450_0200
  6
Continuous
 62
     7
100
AcDbLine
 10
172.5182189845
 20
222.7058461515
 30
0.0
 11
169.5182189845
 21
222.7058461767
 31
0.0
  0
ARC
  5
21B
330
164
100
AcDbEntity
  8
AP_450_0200
  6
Continuous
 62
     7
100
AcDbCircle
 10
172.5182189862
 20
222.9058461515
 30
0.0
 40
0.1999999999999988
100
AcDbArc
 50
269.9999995198
 51
359.9999995198
  0
LINE
  5
21C
330
164
100
AcDbEntity
  8
AP_450_0200
  6
Continuous
 62
     7
100
AcDbLine
 10
172.7182189864
 20
222.9258461499
 30
0.0
 11
172.7182189862
 21
222.9058461499
 31
0.0
  0
ARC
  5
21D
330
164
100
AcDbEntity
  8
AP_450_0200
  6
Continuous
 62
     7
100
AcDbCircle
 10
171.7382189864
 20
222.9258461581
 30
0.0
 40
0.98
100
AcDbArc
 50
0.0
 51
89.9999995198
  0
LINE
  5
21E
330
164
100
AcDbEntity
  8
AP_450_0200
  6
Continuous
 62
     7
100
AcDbLine
 10
135.6982189946
 20
223.9058464601
 30
0.0
 11
171.7382189946
 21
223.9058461581
 31
0.0
  0
ARC
  5
21F
330
164
100
AcDbEntity
  8
AP_450_0200
  6
Continuous
 62
     7
100
AcDbCircle
 10
135.6982189864
 20
222.9258464601
 30
0.0
 40
0.9800000000000018
100
AcDbArc
 50
89.9999995198
 51
179.9999995198
  0
ENDBLK
  5
221
330
164
100
AcDbEntity
  8
0
100
AcDbBlockEnd
  0
ENDSEC
  0
SECTION
  2
ENTITIES
  0
INSERT
  5
70
330
1F
100
AcDbEntity
  8
Standard
100
AcDbBlockReference
  2
SE
 10
0.0
 20
0.0
 30
0.0
  0
DIMENSION
  5
146
330
1F
100
AcDbEntity
  8
Standard
  6
Continuous
 62
     7
100
AcDbDimension
  2
DMBLK42
 10
47.3151880169
 20
227.6005266464
 30
0.0
 11
59.3151881212
 21
227.6005266464
 31
0.0
 70
   161
  1
\A1;<>
 71
     5
 42
-1.0
 73
     0
 74
     0
 75
     0
  3
E-Katalog
100
AcDbAlignedDimension
 13
47.3151880169
 23
221.2026544145
 33
0.0
 14
71.3151880169
 24
221.2026542134
 34
0.0
  0
DIMENSION
  5
150
330
1F
100
AcDbEntity
  8
Standard
  6
Continuous
 62
     7
100
AcDbDimension
  2
DMBLK43
 10
40.3151880204
 20
233.7145742529
 30
0.0
 11
59.3151874094
 21
233.7145742529
 31
0.0
 70
   161
  1
\A1;<>
 71
     5
 42
-1.0
 73
     0
 74
     0
 75
     0
  3
E-Katalog
100
AcDbAlignedDimension
 13
40.3151880204
 23
221.6226544732
 33
0.0
 14
78.3151880204
 24
221.6226541629
 34
0.0
  0
DIMENSION
  5
15A
330
1F
100
AcDbEntity
  8
Standard
  6
Continuous
 62
     7
100
AcDbDimension
  2
DMBLK44
 10
83.0047860306
 20
202.6026542262
 30
0.0
 11
83.0047860306
 21
212.6026543864
 31
0.0
 70
   160
  1
\A1;<>
 71
     5
 42
-1.0
 73
     0
 74
     0
 75
     0
  3
E-Katalog
100
AcDbAlignedDimension
 13
77.3351880286
 23
222.6026541629
 33
0.0
 14
71.1150542374
 24
202.6026542262
 34
0.0
 50
90.0
100
AcDbRotatedDimension
  0
INSERT
  5
165
330
1F
100
AcDbEntity
  8
Standard
100
AcDbBlockReference
  2
SE1
 10
0.0
 20
0.0
 30
0.0
  0
LINE
  5
222
330
1F
100
AcDbEntity
  8
Standard
  6
Continuous
 62
     7
100
AcDbLine
 10
18.1568766159
 20
171.0856000139
 30
0.0
 11
198.0131616313
 21
171.0856000139
 31
0.0
  0
LINE
  5
223
330
1F
100
AcDbEntity
  8
Standard
  6
Continuous
 62
     7
100
AcDbLine
 10
108.0850191236
 20
248.4701847857
 30
0.0
 11
108.0850191236
 21
78.496657704
 31
0.0
  0
ENDSEC
  0
SECTION
  2
OBJECTS
  0
DICTIONARY
  5
C
330
0
100
AcDbDictionary
281
     1
  3
ACAD_DETAILVIEWSTYLE
350
25F
  3
ACAD_GROUP
350
D
  3
ACAD_LAYOUT
350
1A
  3
ACAD_MATERIAL
350
43
  3
ACAD_MLEADERSTYLE
350
6B
  3
ACAD_MLINESTYLE
350
17
  3
ACAD_PLOTSETTINGS
350
19
  3
ACAD_PLOTSTYLENAME
350
E
  3
ACAD_SCALELIST
350
47
  3
ACAD_SECTIONVIEWSTYLE
350
260
  3
ACAD_TABLESTYLE
350
69
  3
ACAD_VISUALSTYLE
350
2A
  3
ACDB_RECOMPOSE_DATA
350
25C
  3
AcDbVariableDictionary
350
224
  0
SUN
  5
6D
330
29
100
AcDbSun
 90
        1
290
     0
 63
     7
421
 16777215
 40
1.0
291
     1
 91
  2455826
 92
 54000000
292
     0
 70
     2
 71
   256
280
     1
  0
DICTIONARY
  5
25F
102
{ACAD_REACTORS
330
C
102
}
330
C
100
AcDbDictionary
281
     1
  0
DICTIONARY
  5
D
102
{ACAD_REACTORS
330
C
102
}
330
C
100
AcDbDictionary
281
     1
  0
DICTIONARY
  5
1A
102
{ACAD_REACTORS
330
C
102
}
330
C
100
AcDbDictionary
281
     1
  3
Layout1
350
1E
  3
Model
350
22
  0
DICTIONARY
  5
43
102
{ACAD_REACTORS
330
C
102
}
330
C
100
AcDbDictionary
281
     1
  3
ByBlock
350
45
  3
ByLayer
350
44
  3
Global
350
46
  0
DICTIONARY
  5
6B
102
{ACAD_REACTORS
330
C
102
}
330
C
100
AcDbDictionary
281
     1
  3
Standard
350
6C
  0
DICTIONARY
  5
17
102
{ACAD_REACTORS
330
C
102
}
330
C
100
AcDbDictionary
281
     1
  3
Standard
350
18
  0
DICTIONARY
  5
19
102
{ACAD_REACTORS
330
C
102
}
330
C
100
AcDbDictionary
281
     1
  0
ACDBDICTIONARYWDFLT
  5
E
102
{ACAD_REACTORS
330
C
102
}
330
C
100
AcDbDictionary
281
     1
  3
Normal
350
F
100
AcDbDictionaryWithDefault
340
F
  0
DICTIONARY
  5
47
102
{ACAD_REACTORS
330
C
102
}
330
C
100
AcDbDictionary
281
     1
  3
A0
350
48
  3
A1
350
49
  3
A2
350
4A
  3
A3
350
4B
  3
A4
350
4C
  3
A5
350
4D
  3
A6
350
4E
  3
A7
350
4F
  3
A8
350
50
  3
A9
350
51
  3
B0
350
52
  3
B1
350
53
  3
B2
350
54
  3
B3
350
55
  3
B4
350
56
  3
B5
350
57
  3
B6
350
58
  3
B7
350
59
  3
B8
350
5A
  3
B9
350
5B
  3
C0
350
5C
  3
C1
350
5D
  3
C2
350
5E
  3
C3
350
5F
  3
C4
350
60
  3
C5
350
61
  3
C6
350
62
  3
C7
350
63
  3
C8
350
64
  3
C9
350
65
  3
D0
350
66
  3
D1
350
67
  3
D2
350
68
  0
DICTIONARY
  5
260
102
{ACAD_REACTORS
330
C
102
}
330
C
100
AcDbDictionary
281
     1
  0
DICTIONARY
  5
69
102
{ACAD_REACTORS
330
C
102
}
330
C
100
AcDbDictionary
281
     1
  3
Standard
350
6A
  0
DICTIONARY
  5
2A
102
{ACAD_REACTORS
330
C
102
}
330
C
100
AcDbDictionary
281
     1
  3
2dWireframe
350
2F
  3
Basic
350
32
  3
Brighten
350
36
  3
ColorChange
350
3A
  3
Conceptual
350
34
  3
Dim
350
35
  3
EdgeColorOff
350
3D
  3
Facepattern
350
39
  3
Flat
350
2B
  3
FlatWithEdges
350
2C
  3
Gouraud
350
2D
  3
GouraudWithEdges
350
2E
  3
Hidden
350
31
  3
JitterOff
350
3B
  3
Linepattern
350
38
  3
OverhangOff
350
3C
  3
Realistic
350
33
  3
Shaded
350
42
  3
Shaded with edges
350
41
  3
Shades of Gray
350
3E
  3
Sketchy
350
3F
  3
Thicken
350
37
  3
Wireframe
350
30
  3
X-Ray
350
40
  0
XRECORD
  5
25C
102
{ACAD_REACTORS
330
C
102
}
330
C
100
AcDbXrecord
280
     1
 90
        1
330
6A
  0
DICTIONARY
  5
224
102
{ACAD_REACTORS
330
C
102
}
330
C
100
AcDbDictionary
281
     1
  3
CANNOSCALE
350
225
  3
CMLEADERSTYLE
350
25E
  3
CTABLESTYLE
350
25D
  3
XCLIPFRAME
350
226
  0
LAYOUT
  5
1E
102
{ACAD_REACTORS
330
1A
102
}
330
1A
100
AcDbPlotSettings
  1

  2
none_device
  4

  6

 40
0.0
 41
0.0
 42
0.0
 43
0.0
 44
0.0
 45
0.0
 46
0.0
 47
0.0
 48
0.0
 49
0.0
140
0.0
141
0.0
142
1.0
143
1.0
 70
   688
 72
     1
 73
     0
 74
     5
  7

 75
    16
 76
     0
 77
     2
 78
   300
147
1.0
148
0.0
149
0.0
100
AcDbLayout
  1
Layout1
 70
     1
 71
     1
 10
0.0
 20
0.0
 11
215.9
 21
279.4
 12
0.0
 22
0.0
 32
0.0
 14
0.0
 24
0.0
 34
0.0
 15
215.9
 25
279.4
 35
0.0
146
0.0
 13
0.0
 23
0.0
 33
0.0
 16
1.0
 26
0.0
 36
0.0
 17
0.0
 27
1.0
 37
0.0
 76
     0
330
1B
  0
LAYOUT
  5
22
102
{ACAD_REACTORS
330
1A
102
}
330
1A
100
AcDbPlotSettings
  1

  2
none_device
  4
Letter_(8.50_x_11.00_Inches)
  6

 40
6.35
 41
6.35
 42
6.35000508
 43
6.35000508
 44
215.9
 45
279.4
 46
0.0
 47
0.0
 48
0.0
 49
0.0
140
0.0
141
0.0
142
1.0
143
1.0
 70
  1712
 72
     1
 73
     0
 74
     0
  7

 75
     0
 76
     0
 77
     2
 78
   300
147
1.0
148
0.0
149
0.0
100
AcDbLayout
  1
Model
 70
     1
 71
     0
 10
0.0
 20
0.0
 11
215.9
 21
279.4
 12
0.0
 22
0.0
 32
0.0
 14
0.0
 24
0.0
 34
0.0
 15
215.9
 25
279.4
 35
0.0
146
0.0
 13
0.0
 23
0.0
 33
0.0
 16
1.0
 26
0.0
 36
0.0
 17
0.0
 27
1.0
 37
0.0
 76
     0
330
1F
331
29
  0
MATERIAL
  5
45
102
{ACAD_REACTORS
330
43
102
}
330
43
100
AcDbMaterial
  1
ByBlock
 72
     1
 94
      127
  0
MATERIAL
  5
44
102
{ACAD_REACTORS
330
43
102
}
330
43
100
AcDbMaterial
  1
ByLayer
 72
     1
 94
      127
  0
MATERIAL
  5
46
102
{ACAD_REACTORS
330
43
102
}
330
43
100
AcDbMaterial
  1
Global
 72
     1
 94
      127
  0
MLEADERSTYLE
  5
6C
102
{ACAD_REACTORS
330
6B
102
}
102
{ACAD_XDICTIONARY
360
25A
102
}
330
6B
100
AcDbMLeaderStyle
170
     2
171
     1
172
     0
 90
        2
 40
0.0
 41
0.0
173
     1
 91
-1056964608
340
14
 92
       -2
290
     1
 42
2.0
291
     1
 43
8.0
  3
Standard
341
0
 44
4.0
300

342
11
174
     1
178
     6
175
     1
176
     0
 93
-1056964608
 45
4.0
292
     0
297
     0
 46
4.0
343
0
 94
-1056964608
 47
1.0
 49
1.0
140
1.0
293
     1
141
0.0
294
     1
177
     0
142
1.0
295
     0
296
     0
143
3.75
1001
ACAD_MLEADERVER
1070
     2
  0
MLINESTYLE
  5
18
102
{ACAD_REACTORS
330
17
102
}
330
17
100
AcDbMlineStyle
  2
Standard
 70
     0
  3

 62
   256
 51
90.0
 52
90.0
 71
     2
 49
0.5
 62
   256
  6
BYLAYER
 49
-0.5
 62
   256
  6
BYLAYER
  0
ACDBPLACEHOLDER
  5
F
102
{ACAD_REACTORS
330
E
102
}
330
E
  0
SCALE
  5
48
102
{ACAD_REACTORS
330
47
102
}
330
47
100
AcDbScale
 70
     0
300
1:1
140
1.0
141
1.0
290
     1
  0
SCALE
  5
49
102
{ACAD_REACTORS
330
47
102
}
330
47
100
AcDbScale
 70
     0
300
1:2
140
1.0
141
2.0
290
     0
  0
SCALE
  5
4A
102
{ACAD_REACTORS
330
47
102
}
330
47
100
AcDbScale
 70
     0
300
1:4
140
1.0
141
4.0
290
     0
  0
SCALE
  5
4B
102
{ACAD_REACTORS
330
47
102
}
330
47
100
AcDbScale
 70
     0
300
1:5
140
1.0
141
5.0
290
     0
  0
SCALE
  5
4C
102
{ACAD_REACTORS
330
47
102
}
330
47
100
AcDbScale
 70
     0
300
1:8
140
1.0
141
8.0
290
     0
  0
SCALE
  5
4D
102
{ACAD_REACTORS
330
47
102
}
330
47
100
AcDbScale
 70
     0
300
1:10
140
1.0
141
10.0
290
     0
  0
SCALE
  5
4E
102
{ACAD_REACTORS
330
47
102
}
330
47
100
AcDbScale
 70
     0
300
1:16
140
1.0
141
16.0
290
     0
  0
SCALE
  5
4F
102
{ACAD_REACTORS
330
47
102
}
330
47
100
AcDbScale
 70
     0
300
1:20
140
1.0
141
20.0
290
     0
  0
SCALE
  5
50
102
{ACAD_REACTORS
330
47
102
}
330
47
100
AcDbScale
 70
     0
300
1:30
140
1.0
141
30.0
290
     0
  0
SCALE
  5
51
102
{ACAD_REACTORS
330
47
102
}
330
47
100
AcDbScale
 70
     0
300
1:40
140
1.0
141
40.0
290
     0
  0
SCALE
  5
52
102
{ACAD_REACTORS
330
47
102
}
330
47
100
AcDbScale
 70
     0
300
1:50
140
1.0
141
50.0
290
     0
  0
SCALE
  5
53
102
{ACAD_REACTORS
330
47
102
}
330
47
100
AcDbScale
 70
     0
300
1:100
140
1.0
141
100.0
290
     0
  0
SCALE
  5
54
102
{ACAD_REACTORS
330
47
102
}
330
47
100
AcDbScale
 70
     0
300
2:1
140
2.0
141
1.0
290
     0
  0
SCALE
  5
55
102
{ACAD_REACTORS
330
47
102
}
330
47
100
AcDbScale
 70
     0
300
4:1
140
4.0
141
1.0
290
     0
  0
SCALE
  5
56
102
{ACAD_REACTORS
330
47
102
}
330
47
100
AcDbScale
 70
     0
300
8:1
140
8.0
141
1.0
290
     0
  0
SCALE
  5
57
102
{ACAD_REACTORS
330
47
102
}
330
47
100
AcDbScale
 70
     0
300
10:1
140
10.0
141
1.0
290
     0
  0
SCALE
  5
58
102
{ACAD_REACTORS
330
47
102
}
330
47
100
AcDbScale
 70
     0
300
100:1
140
100.0
141
1.0
290
     0
  0
SCALE
  5
59
102
{ACAD_REACTORS
330
47
102
}
330
47
100
AcDbScale
 70
     0
300
1/128" = 1'-0"
140
0.0078125
141
12.0
290
     0
  0
SCALE
  5
5A
102
{ACAD_REACTORS
330
47
102
}
330
47
100
AcDbScale
 70
     0
300
1/64" = 1'-0"
140
0.015625
141
12.0
290
     0
  0
SCALE
  5
5B
102
{ACAD_REACTORS
330
47
102
}
330
47
100
AcDbScale
 70
     0
300
1/32" = 1'-0"
140
0.03125
141
12.0
290
     0
  0
SCALE
  5
5C
102
{ACAD_REACTORS
330
47
102
}
330
47
100
AcDbScale
 70
     0
300
1/16" = 1'-0"
140
0.0625
141
12.0
290
     0
  0
SCALE
  5
5D
102
{ACAD_REACTORS
330
47
102
}
330
47
100
AcDbScale
 70
     0
300
3/32" = 1'-0"
140
0.09375
141
12.0
290
     0
  0
SCALE
  5
5E
102
{ACAD_REACTORS
330
47
102
}
330
47
100
AcDbScale
 70
     0
300
1/8" = 1'-0"
140
0.125
141
12.0
290
     0
  0
SCALE
  5
5F
102
{ACAD_REACTORS
330
47
102
}
330
47
100
AcDbScale
 70
     0
300
3/16" = 1'-0"
140
0.1875
141
12.0
290
     0
  0
SCALE
  5
60
102
{ACAD_REACTORS
330
47
102
}
330
47
100
AcDbScale
 70
     0
300
1/4" = 1'-0"
140
0.25
141
12.0
290
     0
  0
SCALE
  5
61
102
{ACAD_REACTORS
330
47
102
}
330
47
100
AcDbScale
 70
     0
300
3/8" = 1'-0"
140
0.375
141
12.0
290
     0
  0
SCALE
  5
62
102
{ACAD_REACTORS
330
47
102
}
330
47
100
AcDbScale
 70
     0
300
1/2" = 1'-0"
140
0.5
141
12.0
290
     0
  0
SCALE
  5
63
102
{ACAD_REACTORS
330
47
102
}
330
47
100
AcDbScale
 70
     0
300
3/4" = 1'-0"
140
0.75
141
12.0
290
     0
  0
SCALE
  5
64
102
{ACAD_REACTORS
330
47
102
}
330
47
100
AcDbScale
 70
     0
300
1" = 1'-0"
140
1.0
141
12.0
290
     0
  0
SCALE
  5
65
102
{ACAD_REACTORS
330
47
102
}
330
47
100
AcDbScale
 70
     0
300
1-1/2" = 1'-0"
140
1.5
141
12.0
290
     0
  0
SCALE
  5
66
102
{ACAD_REACTORS
330
47
102
}
330
47
100
AcDbScale
 70
     0
300
3" = 1'-0"
140
3.0
141
12.0
290
     0
  0
SCALE
  5
67
102
{ACAD_REACTORS
330
47
102
}
330
47
100
AcDbScale
 70
     0
300
6" = 1'-0"
140
6.0
141
12.0
290
     0
  0
SCALE
  5
68
102
{ACAD_REACTORS
330
47
102
}
330
47
100
AcDbScale
 70
     0
300
1'-0" = 1'-0"
140
12.0
141
12.0
290
     0
  0
TABLESTYLE
  5
6A
102
{ACAD_REACTORS
330
69
102
}
102
{ACAD_XDICTIONARY
360
257
102
}
330
69
100
AcDbTableStyle
  3
Standard
 70
     0
 71
     0
 40
0.06
 41
0.06
280
     0
281
     0
  7
Standard
140
4.5
170
     2
 62
     0
 63
   257
283
     0
 90
        4
 91
        0
  1

274
    -2
284
     1
 64
     0
275
    -2
285
     1
 65
     0
276
    -2
286
     1
 66
     0
277
    -2
287
     1
 67
     0
278
    -2
288
     1
 68
     0
279
    -2
289
     1
 69
     0
  7
Standard
140
6.0
170
     5
 62
     0
 63
   257
283
     0
 90
        4
 91
        0
  1

274
    -2
284
     1
 64
     0
275
    -2
285
     1
 65
     0
276
    -2
286
     1
 66
     0
277
    -2
287
     1
 67
     0
278
    -2
288
     1
 68
     0
279
    -2
289
     1
 69
     0
  7
Standard
140
4.5
170
     5
 62
     0
 63
   257
283
     0
 90
        4
 91
        0
  1

274
    -2
284
     1
 64
     0
275
    -2
285
     1
 65
     0
276
    -2
286
     1
 66
     0
277
    -2
287
     1
 67
     0
278
    -2
288
     1
 68
     0
279
    -2
289
     1
 69
     0
  0
VISUALSTYLE
  5
2F
102
{ACAD_REACTORS
330
2A
102
}
102
{ACAD_XDICTIONARY
360
22F
102
}
330
2A
100
AcDbVisualStyle
  2
2dWireframe
 70
     4
 71
     0
 72
     2
 73
     0
 90
        0
 40
0.6
 41
30.0
 62
     5
 63
     7
421
 16777215
 74
     1
 91
        4
 64
     7
 65
   257
 75
     1
175
     1
 42
1.0
 92
        0
 66
   257
 43
1.0
 76
     1
 77
     6
 78
     2
 67
     7
 79
     5
170
     0
171
     0
290
     0
174
     0
 93
        1
 44
0.0
173
     0
291
     0
 45
0.0
  0
VISUALSTYLE
  5
32
102
{ACAD_REACTORS
330
2A
102
}
102
{ACAD_XDICTIONARY
360
235
102
}
330
2A
100
AcDbVisualStyle
  2
Basic
 70
     7
 71
     1
 72
     0
 73
     1
 90
        0
 40
0.6
 41
30.0
 62
     5
 63
     7
421
 16777215
 74
     0
 91
        4
 64
     7
 65
   257
 75
     1
175
     1
 42
1.0
 92
        8
 66
     7
 43
1.0
 76
     1
 77
     6
 78
     2
 67
     7
 79
     5
170
     0
171
     0
290
     0
174
     0
 93
        1
 44
0.0
173
     0
291
     1
 45
0.0
  0
VISUALSTYLE
  5
36
102
{ACAD_REACTORS
330
2A
102
}
102
{ACAD_XDICTIONARY
360
23D
102
}
330
2A
100
AcDbVisualStyle
  2
Brighten
 70
    12
 71
     2
 72
     2
 73
     0
 90
        0
 40
0.6
 41
30.0
 62
     5
 63
     7
421
 16777215
 74
     1
 91
        4
 64
     7
 65
   257
 75
     1
175
     1
 42
1.0
 92
        8
 66
     7
 43
1.0
 76
     1
 77
     6
 78
     2
 67
     7
 79
     5
170
     0
171
     0
290
     0
174
     0
 93
        1
 44
50.0
173
     0
291
     1
 45
0.0
  0
VISUALSTYLE
  5
3A
102
{ACAD_REACTORS
330
2A
102
}
102
{ACAD_XDICTIONARY
360
245
102
}
330
2A
100
AcDbVisualStyle
  2
ColorChange
 70
    16
 71
     2
 72
     2
 73
     3
 90
        0
 40
0.6
 41
30.0
 62
     5
 63
     8
421
  8421504
 74
     1
 91
        4
 64
     7
 65
   257
 75
     1
175
     1
 42
1.0
 92
        8
 66
     8
424
  8421504
 43
1.0
 76
     1
 77
     6
 78
     2
 67
     7
 79
     5
170
     0
171
     0
290
     0
174
     0
 93
        1
 44
0.0
173
     0
291
     1
 45
0.0
  0
VISUALSTYLE
  5
34
102
{ACAD_REACTORS
330
2A
102
}
102
{ACAD_XDICTIONARY
360
239
102
}
330
2A
100
AcDbVisualStyle
  2
Conceptual
 70
     9
 71
     3
 72
     2
 73
     0
 90
        0
 40
0.6
 41
30.0
 62
     5
 63
     7
421
 16777215
 74
     2
 91
        2
 64
     7
 65
   257
 75
     1
175
     1
 42
179.0
 92
        8
 66
     7
 43
1.0
 76
     1
 77
     6
 78
     2
 67
     7
 79
     3
170
     0
171
     0
290
     0
174
     0
 93
        1
 44
0.0
173
     0
291
     0
 45
0.0
  0
VISUALSTYLE
  5
35
102
{ACAD_REACTORS
330
2A
102
}
102
{ACAD_XDICTIONARY
360
23B
102
}
330
2A
100
AcDbVisualStyle
  2
Dim
 70
    11
 71
     2
 72
     2
 73
     0
 90
        0
 40
0.6
 41
30.0
 62
     5
 63
     7
421
 16777215
 74
     1
 91
        4
 64
     7
 65
   257
 75
     1
175
     1
 42
1.0
 92
        8
 66
     7
 43
1.0
 76
     1
 77
     6
 78
     2
 67
     7
 79
     5
170
     0
171
     0
290
     0
174
     0
 93
        1
 44
-50.0
173
     0
291
     1
 45
0.0
  0
VISUALSTYLE
  5
3D
102
{ACAD_REACTORS
330
2A
102
}
102
{ACAD_XDICTIONARY
360
24B
102
}
330
2A
100
AcDbVisualStyle
  2
EdgeColorOff
 70
    22
 71
     2
 72
     2
 73
     0
 90
        0
 40
0.6
 41
30.0
 62
     5
 63
     7
421
 16777215
 74
     1
 91
        4
 64
     7
 65
   257
 75
     1
175
     1
 42
1.0
 92
        8
 66
     7
 43
1.0
 76
     1
 77
     6
 78
     2
 67
     7
 79
     5
170
     0
171
     0
290
     0
174
     0
 93
        1
 44
0.0
173
     0
291
     1
 45
0.0
  0
VISUALSTYLE
  5
39
102
{ACAD_REACTORS
330
2A
102
}
102
{ACAD_XDICTIONARY
360
243
102
}
330
2A
100
AcDbVisualStyle
  2
Facepattern
 70
    15
 71
     2
 72
     2
 73
     0
 90
        0
 40
0.6
 41
30.0
 62
     5
 63
     7
421
 16777215
 74
     1
 91
        4
 64
     7
 65
   257
 75
     1
175
     1
 42
1.0
 92
        8
 66
     7
 43
1.0
 76
     1
 77
     6
 78
     2
 67
     7
 79
     5
170
     0
171
     0
290
     0
174
     0
 93
        1
 44
0.0
173
     0
291
     1
 45
0.0
  0
VISUALSTYLE
  5
2B
102
{ACAD_REACTORS
330
2A
102
}
102
{ACAD_XDICTIONARY
360
227
102
}
330
2A
100
AcDbVisualStyle
  2
Flat
 70
     0
 71
     2
 72
     1
 73
     1
 90
        2
 40
0.6
 41
30.0
 62
     5
 63
     7
421
 16777215
 74
     0
 91
        0
 64
     7
 65
   257
 75
     1
175
     1
 42
1.0
 92
        8
 66
     7
 43
1.0
 76
     1
 77
     6
 78
     2
 67
     7
 79
     5
170
     0
171
     0
290
     0
174
     0
 93
       13
 44
0.0
173
     0
291
     1
 45
0.0
  0
VISUALSTYLE
  5
2C
102
{ACAD_REACTORS
330
2A
102
}
102
{ACAD_XDICTIONARY
360
229
102
}
330
2A
100
AcDbVisualStyle
  2
FlatWithEdges
 70
     1
 71
     2
 72
     1
 73
     1
 90
        2
 40
0.6
 41
30.0
 62
     5
 63
     7
421
 16777215
 74
     1
 91
        0
 64
     7
 65
   257
 75
     1
175
     1
 42
1.0
 92
        0
 66
   257
 43
1.0
 76
     1
 77
     6
 78
     2
 67
     7
 79
     5
170
     0
171
     0
290
     0
174
     0
 93
       13
 44
0.0
173
     0
291
     1
 45
0.0
  0
VISUALSTYLE
  5
2D
102
{ACAD_REACTORS
330
2A
102
}
102
{ACAD_XDICTIONARY
360
22B
102
}
330
2A
100
AcDbVisualStyle
  2
Gouraud
 70
     2
 71
     2
 72
     2
 73
     1
 90
        2
 40
0.6
 41
30.0
 62
     5
 63
     7
421
 16777215
 74
     0
 91
        0
 64
     7
 65
   257
 75
     1
175
     1
 42
1.0
 92
        0
 66
     7
 43
1.0
 76
     1
 77
     6
 78
     2
 67
     7
 79
     5
170
     0
171
     0
290
     0
174
     0
 93
       13
 44
0.0
173
     0
291
     1
 45
0.0
  0
VISUALSTYLE
  5
2E
102
{ACAD_REACTORS
330
2A
102
}
102
{ACAD_XDICTIONARY
360
22D
102
}
330
2A
100
AcDbVisualStyle
  2
GouraudWithEdges
 70
     3
 71
     2
 72
     2
 73
     1
 90
        2
 40
0.6
 41
30.0
 62
     5
 63
     7
421
 16777215
 74
     1
 91
        0
 64
     7
 65
   257
 75
     1
175
     1
 42
1.0
 92
        0
 66
   257
 43
1.0
 76
     1
 77
     6
 78
     2
 67
     7
 79
     5
170
     0
171
     0
290
     0
174
     0
 93
       13
 44
0.0
173
     0
291
     1
 45
0.0
  0
VISUALSTYLE
  5
31
102
{ACAD_REACTORS
330
2A
102
}
102
{ACAD_XDICTIONARY
360
233
102
}
330
2A
100
AcDbVisualStyle
  2
Hidden
 70
     6
 71
     1
 72
     2
 73
     2
 90
        0
 40
0.6
 41
30.0
 62
     5
 63
     7
421
 16777215
 74
     2
 91
        2
 64
     7
 65
   257
 75
     2
175
     1
 42
40.0
 92
        0
 66
   257
 43
1.0
 76
     1
 77
     6
 78
     2
 67
     7
 79
     3
170
     0
171
     0
290
     0
174
     0
 93
        1
 44
0.0
173
     0
291
     0
 45
0.0
  0
VISUALSTYLE
  5
3B
102
{ACAD_REACTORS
330
2A
102
}
102
{ACAD_XDICTIONARY
360
247
102
}
330
2A
100
AcDbVisualStyle
  2
JitterOff
 70
    20
 71
     2
 72
     2
 73
     0
 90
        0
 40
0.6
 41
30.0
 62
     5
 63
     7
421
 16777215
 74
     1
 91
        4
 64
     7
 65
   257
 75
     1
175
     1
 42
1.0
 92
       10
 66
     7
 43
1.0
 76
     1
 77
     6
 78
     2
 67
     7
 79
     5
170
     0
171
     0
290
     0
174
     0
 93
        1
 44
0.0
173
     0
291
     1
 45
0.0
  0
VISUALSTYLE
  5
38
102
{ACAD_REACTORS
330
2A
102
}
102
{ACAD_XDICTIONARY
360
241
102
}
330
2A
100
AcDbVisualStyle
  2
Linepattern
 70
    14
 71
     2
 72
     2
 73
     0
 90
        0
 40
0.6
 41
30.0
 62
     5
 63
     7
421
 16777215
 74
     1
 91
        4
 64
     7
 65
   257
 75
     7
175
     7
 42
1.0
 92
        8
 66
     7
 43
1.0
 76
     1
 77
     6
 78
     2
 67
     7
 79
     5
170
     0
171
     0
290
     0
174
     0
 93
        1
 44
0.0
173
     0
291
     1
 45
0.0
  0
VISUALSTYLE
  5
3C
102
{ACAD_REACTORS
330
2A
102
}
102
{ACAD_XDICTIONARY
360
249
102
}
330
2A
100
AcDbVisualStyle
  2
OverhangOff
 70
    21
 71
     2
 72
     2
 73
     0
 90
        0
 40
0.6
 41
30.0
 62
     5
 63
     7
421
 16777215
 74
     1
 91
        4
 64
     7
 65
   257
 75
     1
175
     1
 42
1.0
 92
        9
 66
     7
 43
1.0
 76
     1
 77
     6
 78
     2
 67
     7
 79
     5
170
     0
171
     0
290
     0
174
     0
 93
        1
 44
0.0
173
     0
291
     1
 45
0.0
  0
VISUALSTYLE
  5
33
102
{ACAD_REACTORS
330
2A
102
}
102
{ACAD_XDICTIONARY
360
237
102
}
330
2A
100
AcDbVisualStyle
  2
Realistic
 70
     8
 71
     2
 72
     3
 73
     0
 90
        2
 40
0.6
 41
30.0
 62
     5
 63
     7
421
 16777215
 74
     0
 91
        0
 64
     7
 65
   257
 75
     1
175
     1
 42
1.0
 92
        8
 66
   257
 43
1.0
 76
     1
 77
     6
 78
     2
 67
     7
 79
     3
170
     0
171
     0
290
     0
174
     0
 93
       13
 44
0.0
173
     0
291
     0
 45
0.0
  0
VISUALSTYLE
  5
42
102
{ACAD_REACTORS
330
2A
102
}
102
{ACAD_XDICTIONARY
360
255
102
}
330
2A
100
AcDbVisualStyle
  2
Shaded
 70
    27
 71
     2
 72
     2
 73
     1
 90
        2
 40
0.6
 41
30.0
 62
     5
 63
     7
421
 16777215
 74
     0
 91
        4
 64
     7
 65
   257
 75
     1
175
     1
 42
1.0
 92
        8
 66
   257
 43
1.0
 76
     1
 77
     6
 78
     2
 67
     8
425
  7895160
 79
     3
170
     0
171
     0
290
     0
174
     0
 93
        5
 44
0.0
173
     0
291
     0
 45
0.0
  0
VISUALSTYLE
  5
41
102
{ACAD_REACTORS
330
2A
102
}
102
{ACAD_XDICTIONARY
360
253
102
}
330
2A
100
AcDbVisualStyle
  2
Shaded with edges
 70
    26
 71
     2
 72
     2
 73
     1
 90
        2
 40
0.6
 41
30.0
 62
     5
 63
     7
421
 16777215
 74
     1
 91
       10
 64
     7
 65
   257
 75
     2
175
     1
 42
1.0
 92
        8
 66
   257
 43
1.0
 76
     1
 77
     6
 78
     2
 67
     7
 79
     3
170
     0
171
     0
290
     0
174
     0
 93
        5
 44
0.0
173
     0
291
     0
 45
0.0
  0
VISUALSTYLE
  5
3E
102
{ACAD_REACTORS
330
2A
102
}
102
{ACAD_XDICTIONARY
360
24D
102
}
330
2A
100
AcDbVisualStyle
  2
Shades of Gray
 70
    23
 71
     2
 72
     2
 73
     3
 90
        0
 40
0.6
 41
30.0
 62
     5
 63
     7
421
 16777215
 74
     2
 91
        2
 64
     7
 65
     7
 75
     1
175
     1
 42
40.0
 92
        8
 66
     7
 43
1.0
 76
     1
 77
     6
 78
     2
 67
     7
 79
     3
170
     0
171
     0
290
     0
174
     0
 93
        1
 44
0.0
173
     0
291
     0
 45
0.0
  0
VISUALSTYLE
  5
3F
102
{ACAD_REACTORS
330
2A
102
}
102
{ACAD_XDICTIONARY
360
24F
102
}
330
2A
100
AcDbVisualStyle
  2
Sketchy
 70
    24
 71
     1
 72
     2
 73
     2
 90
        0
 40
0.6
 41
30.0
 62
     5
 63
     7
421
 16777215
 74
     2
 91
        2
 64
     7
 65
     7
 75
     1
175
     1
 42
40.0
 92
       11
 66
     7
 43
1.0
 76
     1
 77
     6
 78
     2
 67
     7
 79
     6
170
     0
171
     0
290
     0
174
     0
 93
        1
 44
0.0
173
     0
291
     0
 45
0.0
  0
VISUALSTYLE
  5
37
102
{ACAD_REACTORS
330
2A
102
}
102
{ACAD_XDICTIONARY
360
23F
102
}
330
2A
100
AcDbVisualStyle
  2
Thicken
 70
    13
 71
     2
 72
     2
 73
     0
 90
        0
 40
0.6
 41
30.0
 62
     5
 63
     7
421
 16777215
 74
     1
 91
        4
 64
     7
 65
   257
 75
     1
175
     1
 42
1.0
 92
       12
 66
     7
 43
1.0
 76
     1
 77
     6
 78
     2
 67
     7
 79
     5
170
     0
171
     0
290
     0
174
     0
 93
        1
 44
0.0
173
     0
291
     1
 45
0.0
  0
VISUALSTYLE
  5
30
102
{ACAD_REACTORS
330
2A
102
}
102
{ACAD_XDICTIONARY
360
231
102
}
330
2A
100
AcDbVisualStyle
  2
Wireframe
 70
     5
 71
     0
 72
     2
 73
     0
 90
        0
 40
0.6
 41
30.0
 62
     5
 63
     7
421
 16777215
 74
     1
 91
        4
 64
     7
 65
   257
 75
     1
175
     1
 42
1.0
 92
        0
 66
   257
 43
1.0
 76
     1
 77
     6
 78
     2
 67
     7
 79
     3
170
     0
171
     0
290
     0
174
     0
 93
        1
 44
0.0
173
     0
291
     0
 45
0.0
  0
VISUALSTYLE
  5
40
102
{ACAD_REACTORS
330
2A
102
}
102
{ACAD_XDICTIONARY
360
251
102
}
330
2A
100
AcDbVisualStyle
  2
X-Ray
 70
    25
 71
     2
 72
     2
 73
     1
 90
        1
 40
0.5
 41
30.0
 62
     5
 63
     7
421
 16777215
 74
     1
 91
        0
 64
     7
 65
   257
 75
     1
175
     1
 42
1.0
 92
        8
 66
     7
 43
1.0
 76
     1
 77
     6
 78
     2
 67
     7
 79
     3
170
     0
171
     0
290
     0
174
     0
 93
       13
 44
0.0
173
     0
291
     0
 45
0.0
  0
DICTIONARYVAR
  5
225
102
{ACAD_REACTORS
330
224
102
}
330
224
100
DictionaryVariables
280
     0
  1
1:1
  0
DICTIONARYVAR
  5
25E
102
{ACAD_REACTORS
330
224
102
}
330
224
100
DictionaryVariables
280
     0
  1
Standard
  0
DICTIONARYVAR
  5
25D
102
{ACAD_REACTORS
330
224
102
}
330
224
100
DictionaryVariables
280
     0
  1
Standard
  0
DICTIONARYVAR
  5
226
102
{ACAD_REACTORS
330
224
102
}
330
224
100
DictionaryVariables
280
     0
  1
2
  0
DICTIONARY
  5
25A
330
6C
100
AcDbDictionary
280
     1
281
     1
  3
ACAD_XREC_ROUNDTRIP
360
25B
  0
DICTIONARY
  5
257
330
6A
100
AcDbDictionary
280
     1
281
     1
  3
ACAD_ROUNDTRIP_2008_TABLESTYLE_CELLSTYLEMAP
360
258
  0
DICTIONARY
  5
22F
330
2F
100
AcDbDictionary
280
     1
281
     1
  3
ACAD_XREC_ROUNDTRIP
360
230
  0
DICTIONARY
  5
235
330
32
100
AcDbDictionary
280
     1
281
     1
  3
ACAD_XREC_ROUNDTRIP
360
236
  0
DICTIONARY
  5
23D
330
36
100
AcDbDictionary
280
     1
281
     1
  3
ACAD_XREC_ROUNDTRIP
360
23E
  0
DICTIONARY
  5
245
330
3A
100
AcDbDictionary
280
     1
281
     1
  3
ACAD_XREC_ROUNDTRIP
360
246
  0
DICTIONARY
  5
239
330
34
100
AcDbDictionary
280
     1
281
     1
  3
ACAD_XREC_ROUNDTRIP
360
23A
  0
DICTIONARY
  5
23B
330
35
100
AcDbDictionary
280
     1
281
     1
  3
ACAD_XREC_ROUNDTRIP
360
23C
  0
DICTIONARY
  5
24B
330
3D
100
AcDbDictionary
280
     1
281
     1
  3
ACAD_XREC_ROUNDTRIP
360
24C
  0
DICTIONARY
  5
243
330
39
100
AcDbDictionary
280
     1
281
     1
  3
ACAD_XREC_ROUNDTRIP
360
244
  0
DICTIONARY
  5
227
330
2B
100
AcDbDictionary
280
     1
281
     1
  3
ACAD_XREC_ROUNDTRIP
360
228
  0
DICTIONARY
  5
229
330
2C
100
AcDbDictionary
280
     1
281
     1
  3
ACAD_XREC_ROUNDTRIP
360
22A
  0
DICTIONARY
  5
22B
330
2D
100
AcDbDictionary
280
     1
281
     1
  3
ACAD_XREC_ROUNDTRIP
360
22C
  0
DICTIONARY
  5
22D
330
2E
100
AcDbDictionary
280
     1
281
     1
  3
ACAD_XREC_ROUNDTRIP
360
22E
  0
DICTIONARY
  5
233
330
31
100
AcDbDictionary
280
     1
281
     1
  3
ACAD_XREC_ROUNDTRIP
360
234
  0
DICTIONARY
  5
247
330
3B
100
AcDbDictionary
280
     1
281
     1
  3
ACAD_XREC_ROUNDTRIP
360
248
  0
DICTIONARY
  5
241
330
38
100
AcDbDictionary
280
     1
281
     1
  3
ACAD_XREC_ROUNDTRIP
360
242
  0
DICTIONARY
  5
249
330
3C
100
AcDbDictionary
280
     1
281
     1
  3
ACAD_XREC_ROUNDTRIP
360
24A
  0
DICTIONARY
  5
237
330
33
100
AcDbDictionary
280
     1
281
     1
  3
ACAD_XREC_ROUNDTRIP
360
238
  0
DICTIONARY
  5
255
330
42
100
AcDbDictionary
280
     1
281
     1
  3
ACAD_XREC_ROUNDTRIP
360
256
  0
DICTIONARY
  5
253
330
41
100
AcDbDictionary
280
     1
281
     1
  3
ACAD_XREC_ROUNDTRIP
360
254
  0
DICTIONARY
  5
24D
330
3E
100
AcDbDictionary
280
     1
281
     1
  3
ACAD_XREC_ROUNDTRIP
360
24E
  0
DICTIONARY
  5
24F
330
3F
100
AcDbDictionary
280
     1
281
     1
  3
ACAD_XREC_ROUNDTRIP
360
250
  0
DICTIONARY
  5
23F
330
37
100
AcDbDictionary
280
     1
281
     1
  3
ACAD_XREC_ROUNDTRIP
360
240
  0
DICTIONARY
  5
231
330
30
100
AcDbDictionary
280
     1
281
     1
  3
ACAD_XREC_ROUNDTRIP
360
232
  0
DICTIONARY
  5
251
330
40
100
AcDbDictionary
280
     1
281
     1
  3
ACAD_XREC_ROUNDTRIP
360
252
  0
XRECORD
  5
25B
102
{ACAD_REACTORS
330
25A
102
}
330
25A
100
AcDbXrecord
280
     1
102
ACAD_ROUNDTRIP_2010_MLEADER_STYLE
  0
CELLSTYLEMAP
  5
258
102
{ACAD_REACTORS
330
257
102
}
330
257
100
AcDbCellStyleMap
 90
        3
300
CELLSTYLE
  1
TABLEFORMAT_BEGIN
 90
        5
170
     1
 91
        0
 92
    32768
 62
   257
 93
        1
300
CONTENTFORMAT
  1
CONTENTFORMAT_BEGIN
 90
        0
 91
        0
 92
        4
 93
        0
300

 40
0.0
140
1.0
 94
        5
 62
     0
340
11
144
6.0
309
CONTENTFORMAT_END
171
     1
301
MARGIN
  1
CELLMARGIN_BEGIN
 40
1.5
 40
1.5
 40
1.5
 40
1.5
 40
1.5
 40
1.5
309
CELLMARGIN_END
 94
        6
 95
        1
302
GRIDFORMAT
  1
GRIDFORMAT_BEGIN
 90
        0
 91
        1
 62
     0
 92
       -2
340
14
 93
        0
 40
0.045
309
GRIDFORMAT_END
 95
        2
302
GRIDFORMAT
  1
GRIDFORMAT_BEGIN
 90
        0
 91
        1
 62
     0
 92
       -2
340
14
 93
        0
 40
0.045
309
GRIDFORMAT_END
 95
        4
302
GRIDFORMAT
  1
GRIDFORMAT_BEGIN
 90
        0
 91
        1
 62
     0
 92
       -2
340
14
 93
        0
 40
0.045
309
GRIDFORMAT_END
 95
        8
302
GRIDFORMAT
  1
GRIDFORMAT_BEGIN
 90
        0
 91
        1
 62
     0
 92
       -2
340
14
 93
        0
 40
0.045
309
GRIDFORMAT_END
 95
       16
302
GRIDFORMAT
  1
GRIDFORMAT_BEGIN
 90
        0
 91
        1
 62
     0
 92
       -2
340
14
 93
        0
 40
0.045
309
GRIDFORMAT_END
 95
       32
302
GRIDFORMAT
  1
GRIDFORMAT_BEGIN
 90
        0
 91
        1
 62
     0
 92
       -2
340
14
 93
        0
 40
0.045
309
GRIDFORMAT_END
309
TABLEFORMAT_END
  1
CELLSTYLE_BEGIN
 90
        1
 91
        1
300
_TITLE
309
CELLSTYLE_END
300
CELLSTYLE
  1
TABLEFORMAT_BEGIN
 90
        5
170
     1
 91
        0
 92
        0
 62
   257
 93
        1
300
CONTENTFORMAT
  1
CONTENTFORMAT_BEGIN
 90
        0
 91
        0
 92
        4
 93
        0
300

 40
0.0
140
1.0
 94
        5
 62
     0
340
11
144
4.5
309
CONTENTFORMAT_END
171
     1
301
MARGIN
  1
CELLMARGIN_BEGIN
 40
1.5
 40
1.5
 40
1.5
 40
1.5
 40
1.5
 40
1.5
309
CELLMARGIN_END
 94
        6
 95
        1
302
GRIDFORMAT
  1
GRIDFORMAT_BEGIN
 90
        0
 91
        1
 62
     0
 92
       -2
340
14
 93
        0
 40
0.045
309
GRIDFORMAT_END
 95
        2
302
GRIDFORMAT
  1
GRIDFORMAT_BEGIN
 90
        0
 91
        1
 62
     0
 92
       -2
340
14
 93
        0
 40
0.045
309
GRIDFORMAT_END
 95
        4
302
GRIDFORMAT
  1
GRIDFORMAT_BEGIN
 90
        0
 91
        1
 62
     0
 92
       -2
340
14
 93
        0
 40
0.045
309
GRIDFORMAT_END
 95
        8
302
GRIDFORMAT
  1
GRIDFORMAT_BEGIN
 90
        0
 91
        1
 62
     0
 92
       -2
340
14
 93
        0
 40
0.045
309
GRIDFORMAT_END
 95
       16
302
GRIDFORMAT
  1
GRIDFORMAT_BEGIN
 90
        0
 91
        1
 62
     0
 92
       -2
340
14
 93
        0
 40
0.045
309
GRIDFORMAT_END
 95
       32
302
GRIDFORMAT
  1
GRIDFORMAT_BEGIN
 90
        0
 91
        1
 62
     0
 92
       -2
340
14
 93
        0
 40
0.045
309
GRIDFORMAT_END
309
TABLEFORMAT_END
  1
CELLSTYLE_BEGIN
 90
        2
 91
        1
300
_HEADER
309
CELLSTYLE_END
300
CELLSTYLE
  1
TABLEFORMAT_BEGIN
 90
        5
170
     1
 91
        0
 92
        0
 62
   257
 93
        1
300
CONTENTFORMAT
  1
CONTENTFORMAT_BEGIN
 90
        0
 91
        0
 92
        4
 93
        0
300

 40
0.0
140
1.0
 94
        2
 62
     0
340
11
144
4.5
309
CONTENTFORMAT_END
171
     1
301
MARGIN
  1
CELLMARGIN_BEGIN
 40
1.5
 40
1.5
 40
1.5
 40
1.5
 40
1.5
 40
1.5
309
CELLMARGIN_END
 94
        6
 95
        1
302
GRIDFORMAT
  1
GRIDFORMAT_BEGIN
 90
        0
 91
        1
 62
     0
 92
       -2
340
14
 93
        0
 40
0.045
309
GRIDFORMAT_END
 95
        2
302
GRIDFORMAT
  1
GRIDFORMAT_BEGIN
 90
        0
 91
        1
 62
     0
 92
       -2
340
14
 93
        0
 40
0.045
309
GRIDFORMAT_END
 95
        4
302
GRIDFORMAT
  1
GRIDFORMAT_BEGIN
 90
        0
 91
        1
 62
     0
 92
       -2
340
14
 93
        0
 40
0.045
309
GRIDFORMAT_END
 95
        8
302
GRIDFORMAT
  1
GRIDFORMAT_BEGIN
 90
        0
 91
        1
 62
     0
 92
       -2
340
14
 93
        0
 40
0.045
309
GRIDFORMAT_END
 95
       16
302
GRIDFORMAT
  1
GRIDFORMAT_BEGIN
 90
        0
 91
        1
 62
     0
 92
       -2
340
14
 93
        0
 40
0.045
309
GRIDFORMAT_END
 95
       32
302
GRIDFORMAT
  1
GRIDFORMAT_BEGIN
 90
        0
 91
        1
 62
     0
 92
       -2
340
14
 93
        0
 40
0.045
309
GRIDFORMAT_END
309
TABLEFORMAT_END
  1
CELLSTYLE_BEGIN
 90
        3
 91
        2
300
_DATA
309
CELLSTYLE_END
  0
XRECORD
  5
230
102
{ACAD_REACTORS
330
22F
102
}
330
22F
100
AcDbXrecord
280
     1
102
RTVSPropertyOp0
 70
     1
102
RTVSPropertyOp1
 70
     1
102
RTVSPropertyOp2
 70
     1
102
RTVSPropertyOp3
 70
     1
102
RTVSPropertyOp4
 70
     1
102
RTVSPropertyOp5
 70
     1
102
RTVSPropertyOp6
 70
     1
102
RTVSPropertyOp7
 70
     1
102
RTVSPropertyOp8
 70
     1
102
RTVSPropertyOp9
 70
     1
102
RTVSPropertyOp10
 70
     1
102
RTVSPropertyOp11
 70
     1
102
RTVSPropertyOp12
 70
     1
102
RTVSPropertyOp13
 70
     1
102
RTVSPropertyOp14
 70
     1
102
RTVSPropertyOp15
 70
     1
102
RTVSPropertyOp16
 70
     1
102
RTVSPropertyOp17
 70
     1
102
RTVSPropertyOp18
 70
     1
102
RTVSPropertyOp19
 70
     1
102
RTVSPropertyOp20
 70
     1
102
RTVSPropertyOp21
 70
     1
102
RTVSPropertyOp22
 70
     1
102
RTVSPropertyOp23
 70
     1
102
RTVSPropertyOp24
 70
     1
102
RTVSPropertyOp25
 70
     1
102
RTVSPropertyOp26
 70
     1
102
RTVSPropertyOp27
 70
     1
102
RTVSPropertyOp28
 70
     1
102
RTVSPropertyOp29
 70
     1
102
RTVSPropertyOp30
 70
     1
102
RTVSPropertyOp31
 70
     1
102
RTVSPropertyOp32
 70
     1
102
RTVSPropertyOp33
 70
     1
102
RTVSPropertyOp34
 70
     1
102
RTVSPropertyOp35
 70
     1
102
RTVSPropertyOp36
 70
     1
102
RTVSPropertyOp37
 70
     1
102
RTVSPropertyOp38
 70
     1
102
RTVSPropertyOp39
 70
     1
102
RTVSPropertyOp40
 70
     1
102
RTVSPropertyOp41
 70
     1
102
RTVSPropertyOp42
 70
     1
102
RTVSPropertyOp43
 70
     1
102
RTVSPropertyOp44
 70
     1
102
RTVSPropertyOp45
 70
     1
102
RTVSPropertyOp46
 70
     1
102
RTVSPropertyOp47
 70
     1
102
RTVSPropertyOp48
 70
     1
102
RTVSPropertyOp49
 70
     1
102
RTVSPropertyOp50
 70
     1
102
RTVSPropertyOp51
 70
     0
102
RTVSPropertyOp52
 70
     0
102
RTVSPropertyOp53
 70
     1
102
RTVSPropertyOp54
 70
     1
102
RTVSPropertyOp55
 70
     1
102
RTVSPropertyOp56
 70
     1
102
RTVSPropertyOp57
 70
     1
102
RTVSPost2010Prop28
280
     1
102
RTVSPost2010PropOp28
 70
     1
102
RTVSPost2010Prop29
280
     1
102
RTVSPost2010PropOp29
 70
     1
102
RTVSPost2010Prop30
280
     0
102
RTVSPost2010PropOp30
 70
     1
102
RTVSPost2010Prop31
280
     0
102
RTVSPost2010PropOp31
 70
     1
102
RTVSPost2010Prop32
280
     0
102
RTVSPost2010PropOp32
 70
     1
102
RTVSPost2010Prop33
280
     0
102
RTVSPost2010PropOp33
 70
     1
102
RTVSPost2010Prop34
280
     0
102
RTVSPost2010PropOp34
 70
     1
102
RTVSPost2010Prop35
280
     0
102
RTVSPost2010PropOp35
 70
     1
102
RTVSPost2010Prop36
280
     0
102
RTVSPost2010PropOp36
 70
     1
102
RTVSPost2010Prop37
 90
       50
102
RTVSPost2010PropOp37
 70
     1
102
RTVSPost2010Prop38
140
0.0
102
RTVSPost2010PropOp38
 70
     1
102
RTVSPost2010Prop39
140
1.0
102
RTVSPost2010PropOp39
 70
     1
102
RTVSPost2010Prop40
 90
        0
102
RTVSPost2010PropOp40
 70
     1
102
RTVSPost2010Prop41ColorIndex
 90
       18
102
RTVSPost2010Prop41ColorRGB
 90
        0
102
RTVSPost2010PropOp41
 70
     1
102
RTVSPost2010Prop42
 90
       50
102
RTVSPost2010PropOp42
 70
     1
102
RTVSPost2010Prop43
 90
        3
102
RTVSPost2010PropOp43
 70
     1
102
RTVSPost2010Prop44ColorIndex
 90
        5
102
RTVSPost2010Prop44ColorRGB
 90
      255
102
RTVSPost2010PropOp44
 70
     1
102
RTVSPost2010Prop45
280
     0
102
RTVSPost2010PropOp45
 70
     1
102
RTVSPost2010Prop46
 90
       50
102
RTVSPost2010PropOp46
 70
     1
102
RTVSPost2010Prop47
 90
       50
102
RTVSPost2010PropOp47
 70
     1
102
RTVSPost2010Prop48
 90
       50
102
RTVSPost2010PropOp48
 70
     1
102
RTVSPost2010Prop49
280
     0
102
RTVSPost2010PropOp49
 70
     1
102
RTVSPost2010Prop50
 90
       50
102
RTVSPost2010PropOp50
 70
     1
102
RTVSPost2010Prop51ColorIndex
 90
      256
102
RTVSPost2010Prop51ColorRGB
 90
-16777216
102
RTVSPost2010PropOp51
 70
     0
102
RTVSPost2010Prop52
140
1.0
102
RTVSPost2010PropOp52
 70
     0
102
RTVSPost2010Prop53
 90
        2
102
RTVSPost2010PropOp53
 70
     1
102
RTVSPost2010Prop54
  1
strokes_ogs.tif
102
RTVSPost2010PropOp54
 70
     1
102
RTVSPost2010Prop55
280
     0
102
RTVSPost2010PropOp55
 70
     1
102
RTVSPost2010Prop56
140
1.0
102
RTVSPost2010PropOp56
 70
     1
102
RTVSPost2010Prop57
140
1.0
102
RTVSPost2010PropOp57
 70
     1
  0
XRECORD
  5
236
102
{ACAD_REACTORS
330
235
102
}
330
235
100
AcDbXrecord
280
     1
102
RTVSPropertyOp0
 70
     1
102
RTVSPropertyOp1
 70
     1
102
RTVSPropertyOp2
 70
     1
102
RTVSPropertyOp3
 70
     1
102
RTVSPropertyOp4
 70
     1
102
RTVSPropertyOp5
 70
     1
102
RTVSPropertyOp6
 70
     1
102
RTVSPropertyOp7
 70
     1
102
RTVSPropertyOp8
 70
     1
102
RTVSPropertyOp9
 70
     1
102
RTVSPropertyOp10
 70
     1
102
RTVSPropertyOp11
 70
     1
102
RTVSPropertyOp12
 70
     1
102
RTVSPropertyOp13
 70
     1
102
RTVSPropertyOp14
 70
     1
102
RTVSPropertyOp15
 70
     1
102
RTVSPropertyOp16
 70
     1
102
RTVSPropertyOp17
 70
     1
102
RTVSPropertyOp18
 70
     1
102
RTVSPropertyOp19
 70
     1
102
RTVSPropertyOp20
 70
     1
102
RTVSPropertyOp21
 70
     1
102
RTVSPropertyOp22
 70
     1
102
RTVSPropertyOp23
 70
     1
102
RTVSPropertyOp24
 70
     1
102
RTVSPropertyOp25
 70
     1
102
RTVSPropertyOp26
 70
     1
102
RTVSPropertyOp27
 70
     1
102
RTVSPropertyOp28
 70
     1
102
RTVSPropertyOp29
 70
     1
102
RTVSPropertyOp30
 70
     1
102
RTVSPropertyOp31
 70
     1
102
RTVSPropertyOp32
 70
     1
102
RTVSPropertyOp33
 70
     1
102
RTVSPropertyOp34
 70
     1
102
RTVSPropertyOp35
 70
     1
102
RTVSPropertyOp36
 70
     1
102
RTVSPropertyOp37
 70
     1
102
RTVSPropertyOp38
 70
     1
102
RTVSPropertyOp39
 70
     1
102
RTVSPropertyOp40
 70
     1
102
RTVSPropertyOp41
 70
     1
102
RTVSPropertyOp42
 70
     1
102
RTVSPropertyOp43
 70
     1
102
RTVSPropertyOp44
 70
     1
102
RTVSPropertyOp45
 70
     1
102
RTVSPropertyOp46
 70
     1
102
RTVSPropertyOp47
 70
     1
102
RTVSPropertyOp48
 70
     1
102
RTVSPropertyOp49
 70
     1
102
RTVSPropertyOp50
 70
     1
102
RTVSPropertyOp51
 70
     0
102
RTVSPropertyOp52
 70
     0
102
RTVSPropertyOp53
 70
     1
102
RTVSPropertyOp54
 70
     1
102
RTVSPropertyOp55
 70
     1
102
RTVSPropertyOp56
 70
     1
102
RTVSPropertyOp57
 70
     1
102
RTVSPost2010Prop28
280
     0
102
RTVSPost2010PropOp28
 70
     1
102
RTVSPost2010Prop29
280
     1
102
RTVSPost2010PropOp29
 70
     1
102
RTVSPost2010Prop30
280
     1
102
RTVSPost2010PropOp30
 70
     1
102
RTVSPost2010Prop31
280
     0
102
RTVSPost2010PropOp31
 70
     1
102
RTVSPost2010Prop32
280
     0
102
RTVSPost2010PropOp32
 70
     1
102
RTVSPost2010Prop33
280
     0
102
RTVSPost2010PropOp33
 70
     1
102
RTVSPost2010Prop34
280
     0
102
RTVSPost2010PropOp34
 70
     1
102
RTVSPost2010Prop35
280
     0
102
RTVSPost2010PropOp35
 70
     1
102
RTVSPost2010Prop36
280
     0
102
RTVSPost2010PropOp36
 70
     1
102
RTVSPost2010Prop37
 90
       50
102
RTVSPost2010PropOp37
 70
     1
102
RTVSPost2010Prop38
140
0.0
102
RTVSPost2010PropOp38
 70
     1
102
RTVSPost2010Prop39
140
1.0
102
RTVSPost2010PropOp39
 70
     1
102
RTVSPost2010Prop40
 90
        0
102
RTVSPost2010PropOp40
 70
     1
102
RTVSPost2010Prop41ColorIndex
 90
       18
102
RTVSPost2010Prop41ColorRGB
 90
        0
102
RTVSPost2010PropOp41
 70
     1
102
RTVSPost2010Prop42
 90
       50
102
RTVSPost2010PropOp42
 70
     1
102
RTVSPost2010Prop43
 90
        3
102
RTVSPost2010PropOp43
 70
     1
102
RTVSPost2010Prop44ColorIndex
 90
        5
102
RTVSPost2010Prop44ColorRGB
 90
      255
102
RTVSPost2010PropOp44
 70
     1
102
RTVSPost2010Prop45
280
     0
102
RTVSPost2010PropOp45
 70
     1
102
RTVSPost2010Prop46
 90
       50
102
RTVSPost2010PropOp46
 70
     1
102
RTVSPost2010Prop47
 90
       50
102
RTVSPost2010PropOp47
 70
     1
102
RTVSPost2010Prop48
 90
       50
102
RTVSPost2010PropOp48
 70
     1
102
RTVSPost2010Prop49
280
     0
102
RTVSPost2010PropOp49
 70
     1
102
RTVSPost2010Prop50
 90
       50
102
RTVSPost2010PropOp50
 70
     1
102
RTVSPost2010Prop51ColorIndex
 90
      256
102
RTVSPost2010Prop51ColorRGB
 90
-16777216
102
RTVSPost2010PropOp51
 70
     0
102
RTVSPost2010Prop52
140
1.0
102
RTVSPost2010PropOp52
 70
     0
102
RTVSPost2010Prop53
 90
        2
102
RTVSPost2010PropOp53
 70
     1
102
RTVSPost2010Prop54
  1
strokes_ogs.tif
102
RTVSPost2010PropOp54
 70
     1
102
RTVSPost2010Prop55
280
     0
102
RTVSPost2010PropOp55
 70
     1
102
RTVSPost2010Prop56
140
1.0
102
RTVSPost2010PropOp56
 70
     1
102
RTVSPost2010Prop57
140
1.0
102
RTVSPost2010PropOp57
 70
     1
  0
XRECORD
  5
23E
102
{ACAD_REACTORS
330
23D
102
}
330
23D
100
AcDbXrecord
280
     1
102
RTVSPropertyOp0
 70
     1
102
RTVSPropertyOp1
 70
     1
102
RTVSPropertyOp2
 70
     1
102
RTVSPropertyOp3
 70
     1
102
RTVSPropertyOp4
 70
     1
102
RTVSPropertyOp5
 70
     1
102
RTVSPropertyOp6
 70
     1
102
RTVSPropertyOp7
 70
     1
102
RTVSPropertyOp8
 70
     1
102
RTVSPropertyOp9
 70
     1
102
RTVSPropertyOp10
 70
     1
102
RTVSPropertyOp11
 70
     1
102
RTVSPropertyOp12
 70
     1
102
RTVSPropertyOp13
 70
     1
102
RTVSPropertyOp14
 70
     1
102
RTVSPropertyOp15
 70
     1
102
RTVSPropertyOp16
 70
     1
102
RTVSPropertyOp17
 70
     1
102
RTVSPropertyOp18
 70
     1
102
RTVSPropertyOp19
 70
     1
102
RTVSPropertyOp20
 70
     1
102
RTVSPropertyOp21
 70
     1
102
RTVSPropertyOp22
 70
     1
102
RTVSPropertyOp23
 70
     1
102
RTVSPropertyOp24
 70
     1
102
RTVSPropertyOp25
 70
     1
102
RTVSPropertyOp26
 70
     1
102
RTVSPropertyOp27
 70
     1
102
RTVSPropertyOp28
 70
     1
102
RTVSPropertyOp29
 70
     1
102
RTVSPropertyOp30
 70
     1
102
RTVSPropertyOp31
 70
     1
102
RTVSPropertyOp32
 70
     1
102
RTVSPropertyOp33
 70
     1
102
RTVSPropertyOp34
 70
     1
102
RTVSPropertyOp35
 70
     1
102
RTVSPropertyOp36
 70
     1
102
RTVSPropertyOp37
 70
     1
102
RTVSPropertyOp38
 70
     1
102
RTVSPropertyOp39
 70
     1
102
RTVSPropertyOp40
 70
     1
102
RTVSPropertyOp41
 70
     1
102
RTVSPropertyOp42
 70
     1
102
RTVSPropertyOp43
 70
     1
102
RTVSPropertyOp44
 70
     1
102
RTVSPropertyOp45
 70
     1
102
RTVSPropertyOp46
 70
     1
102
RTVSPropertyOp47
 70
     1
102
RTVSPropertyOp48
 70
     1
102
RTVSPropertyOp49
 70
     1
102
RTVSPropertyOp50
 70
     1
102
RTVSPropertyOp51
 70
     0
102
RTVSPropertyOp52
 70
     0
102
RTVSPropertyOp53
 70
     1
102
RTVSPropertyOp54
 70
     1
102
RTVSPropertyOp55
 70
     1
102
RTVSPropertyOp56
 70
     1
102
RTVSPropertyOp57
 70
     1
102
RTVSPost2010Prop28
280
     0
102
RTVSPost2010PropOp28
 70
     1
102
RTVSPost2010Prop29
280
     1
102
RTVSPost2010PropOp29
 70
     1
102
RTVSPost2010Prop30
280
     1
102
RTVSPost2010PropOp30
 70
     1
102
RTVSPost2010Prop31
280
     0
102
RTVSPost2010PropOp31
 70
     1
102
RTVSPost2010Prop32
280
     0
102
RTVSPost2010PropOp32
 70
     1
102
RTVSPost2010Prop33
280
     0
102
RTVSPost2010PropOp33
 70
     1
102
RTVSPost2010Prop34
280
     0
102
RTVSPost2010PropOp34
 70
     1
102
RTVSPost2010Prop35
280
     0
102
RTVSPost2010PropOp35
 70
     1
102
RTVSPost2010Prop36
280
     0
102
RTVSPost2010PropOp36
 70
     1
102
RTVSPost2010Prop37
 90
       50
102
RTVSPost2010PropOp37
 70
     1
102
RTVSPost2010Prop38
140
0.0
102
RTVSPost2010PropOp38
 70
     1
102
RTVSPost2010Prop39
140
1.0
102
RTVSPost2010PropOp39
 70
     1
102
RTVSPost2010Prop40
 90
        0
102
RTVSPost2010PropOp40
 70
     1
102
RTVSPost2010Prop41ColorIndex
 90
       18
102
RTVSPost2010Prop41ColorRGB
 90
        0
102
RTVSPost2010PropOp41
 70
     1
102
RTVSPost2010Prop42
 90
       50
102
RTVSPost2010PropOp42
 70
     1
102
RTVSPost2010Prop43
 90
        3
102
RTVSPost2010PropOp43
 70
     1
102
RTVSPost2010Prop44ColorIndex
 90
        5
102
RTVSPost2010Prop44ColorRGB
 90
      255
102
RTVSPost2010PropOp44
 70
     1
102
RTVSPost2010Prop45
280
     0
102
RTVSPost2010PropOp45
 70
     1
102
RTVSPost2010Prop46
 90
       50
102
RTVSPost2010PropOp46
 70
     1
102
RTVSPost2010Prop47
 90
       50
102
RTVSPost2010PropOp47
 70
     1
102
RTVSPost2010Prop48
 90
       50
102
RTVSPost2010PropOp48
 70
     1
102
RTVSPost2010Prop49
280
     0
102
RTVSPost2010PropOp49
 70
     1
102
RTVSPost2010Prop50
 90
       50
102
RTVSPost2010PropOp50
 70
     1
102
RTVSPost2010Prop51ColorIndex
 90
      256
102
RTVSPost2010Prop51ColorRGB
 90
-16777216
102
RTVSPost2010PropOp51
 70
     0
102
RTVSPost2010Prop52
140
1.0
102
RTVSPost2010PropOp52
 70
     0
102
RTVSPost2010Prop53
 90
        2
102
RTVSPost2010PropOp53
 70
     1
102
RTVSPost2010Prop54
  1
strokes_ogs.tif
102
RTVSPost2010PropOp54
 70
     1
102
RTVSPost2010Prop55
280
     0
102
RTVSPost2010PropOp55
 70
     1
102
RTVSPost2010Prop56
140
1.0
102
RTVSPost2010PropOp56
 70
     1
102
RTVSPost2010Prop57
140
1.0
102
RTVSPost2010PropOp57
 70
     1
  0
XRECORD
  5
246
102
{ACAD_REACTORS
330
245
102
}
330
245
100
AcDbXrecord
280
     1
102
RTVSPropertyOp0
 70
     1
102
RTVSPropertyOp1
 70
     1
102
RTVSPropertyOp2
 70
     1
102
RTVSPropertyOp3
 70
     1
102
RTVSPropertyOp4
 70
     1
102
RTVSPropertyOp5
 70
     1
102
RTVSPropertyOp6
 70
     1
102
RTVSPropertyOp7
 70
     1
102
RTVSPropertyOp8
 70
     1
102
RTVSPropertyOp9
 70
     1
102
RTVSPropertyOp10
 70
     1
102
RTVSPropertyOp11
 70
     1
102
RTVSPropertyOp12
 70
     1
102
RTVSPropertyOp13
 70
     1
102
RTVSPropertyOp14
 70
     1
102
RTVSPropertyOp15
 70
     1
102
RTVSPropertyOp16
 70
     1
102
RTVSPropertyOp17
 70
     1
102
RTVSPropertyOp18
 70
     1
102
RTVSPropertyOp19
 70
     1
102
RTVSPropertyOp20
 70
     1
102
RTVSPropertyOp21
 70
     1
102
RTVSPropertyOp22
 70
     1
102
RTVSPropertyOp23
 70
     1
102
RTVSPropertyOp24
 70
     1
102
RTVSPropertyOp25
 70
     1
102
RTVSPropertyOp26
 70
     1
102
RTVSPropertyOp27
 70
     1
102
RTVSPropertyOp28
 70
     1
102
RTVSPropertyOp29
 70
     1
102
RTVSPropertyOp30
 70
     1
102
RTVSPropertyOp31
 70
     1
102
RTVSPropertyOp32
 70
     1
102
RTVSPropertyOp33
 70
     1
102
RTVSPropertyOp34
 70
     1
102
RTVSPropertyOp35
 70
     1
102
RTVSPropertyOp36
 70
     1
102
RTVSPropertyOp37
 70
     1
102
RTVSPropertyOp38
 70
     1
102
RTVSPropertyOp39
 70
     1
102
RTVSPropertyOp40
 70
     1
102
RTVSPropertyOp41
 70
     1
102
RTVSPropertyOp42
 70
     1
102
RTVSPropertyOp43
 70
     1
102
RTVSPropertyOp44
 70
     1
102
RTVSPropertyOp45
 70
     1
102
RTVSPropertyOp46
 70
     1
102
RTVSPropertyOp47
 70
     1
102
RTVSPropertyOp48
 70
     1
102
RTVSPropertyOp49
 70
     1
102
RTVSPropertyOp50
 70
     1
102
RTVSPropertyOp51
 70
     0
102
RTVSPropertyOp52
 70
     0
102
RTVSPropertyOp53
 70
     1
102
RTVSPropertyOp54
 70
     1
102
RTVSPropertyOp55
 70
     1
102
RTVSPropertyOp56
 70
     1
102
RTVSPropertyOp57
 70
     1
102
RTVSPost2010Prop28
280
     0
102
RTVSPost2010PropOp28
 70
     1
102
RTVSPost2010Prop29
280
     1
102
RTVSPost2010PropOp29
 70
     1
102
RTVSPost2010Prop30
280
     1
102
RTVSPost2010PropOp30
 70
     1
102
RTVSPost2010Prop31
280
     0
102
RTVSPost2010PropOp31
 70
     1
102
RTVSPost2010Prop32
280
     0
102
RTVSPost2010PropOp32
 70
     1
102
RTVSPost2010Prop33
280
     0
102
RTVSPost2010PropOp33
 70
     1
102
RTVSPost2010Prop34
280
     0
102
RTVSPost2010PropOp34
 70
     1
102
RTVSPost2010Prop35
280
     0
102
RTVSPost2010PropOp35
 70
     1
102
RTVSPost2010Prop36
280
     0
102
RTVSPost2010PropOp36
 70
     1
102
RTVSPost2010Prop37
 90
       50
102
RTVSPost2010PropOp37
 70
     1
102
RTVSPost2010Prop38
140
0.0
102
RTVSPost2010PropOp38
 70
     1
102
RTVSPost2010Prop39
140
1.0
102
RTVSPost2010PropOp39
 70
     1
102
RTVSPost2010Prop40
 90
        0
102
RTVSPost2010PropOp40
 70
     1
102
RTVSPost2010Prop41ColorIndex
 90
       18
102
RTVSPost2010Prop41ColorRGB
 90
        0
102
RTVSPost2010PropOp41
 70
     1
102
RTVSPost2010Prop42
 90
       50
102
RTVSPost2010PropOp42
 70
     1
102
RTVSPost2010Prop43
 90
        3
102
RTVSPost2010PropOp43
 70
     1
102
RTVSPost2010Prop44ColorIndex
 90
        5
102
RTVSPost2010Prop44ColorRGB
 90
      255
102
RTVSPost2010PropOp44
 70
     1
102
RTVSPost2010Prop45
280
     0
102
RTVSPost2010PropOp45
 70
     1
102
RTVSPost2010Prop46
 90
       50
102
RTVSPost2010PropOp46
 70
     1
102
RTVSPost2010Prop47
 90
       50
102
RTVSPost2010PropOp47
 70
     1
102
RTVSPost2010Prop48
 90
       50
102
RTVSPost2010PropOp48
 70
     1
102
RTVSPost2010Prop49
280
     0
102
RTVSPost2010PropOp49
 70
     1
102
RTVSPost2010Prop50
 90
       50
102
RTVSPost2010PropOp50
 70
     1
102
RTVSPost2010Prop51ColorIndex
 90
      256
102
RTVSPost2010Prop51ColorRGB
 90
-16777216
102
RTVSPost2010PropOp51
 70
     0
102
RTVSPost2010Prop52
140
1.0
102
RTVSPost2010PropOp52
 70
     0
102
RTVSPost2010Prop53
 90
        2
102
RTVSPost2010PropOp53
 70
     1
102
RTVSPost2010Prop54
  1
strokes_ogs.tif
102
RTVSPost2010PropOp54
 70
     1
102
RTVSPost2010Prop55
280
     0
102
RTVSPost2010PropOp55
 70
     1
102
RTVSPost2010Prop56
140
1.0
102
RTVSPost2010PropOp56
 70
     1
102
RTVSPost2010Prop57
140
1.0
102
RTVSPost2010PropOp57
 70
     1
  0
XRECORD
  5
23A
102
{ACAD_REACTORS
330
239
102
}
330
239
100
AcDbXrecord
280
     1
102
RTVSPropertyOp0
 70
     1
102
RTVSPropertyOp1
 70
     1
102
RTVSPropertyOp2
 70
     1
102
RTVSPropertyOp3
 70
     1
102
RTVSPropertyOp4
 70
     1
102
RTVSPropertyOp5
 70
     1
102
RTVSPropertyOp6
 70
     1
102
RTVSPropertyOp7
 70
     1
102
RTVSPropertyOp8
 70
     1
102
RTVSPropertyOp9
 70
     1
102
RTVSPropertyOp10
 70
     1
102
RTVSPropertyOp11
 70
     1
102
RTVSPropertyOp12
 70
     1
102
RTVSPropertyOp13
 70
     1
102
RTVSPropertyOp14
 70
     1
102
RTVSPropertyOp15
 70
     1
102
RTVSPropertyOp16
 70
     1
102
RTVSPropertyOp17
 70
     1
102
RTVSPropertyOp18
 70
     1
102
RTVSPropertyOp19
 70
     1
102
RTVSPropertyOp20
 70
     1
102
RTVSPropertyOp21
 70
     1
102
RTVSPropertyOp22
 70
     1
102
RTVSPropertyOp23
 70
     1
102
RTVSPropertyOp24
 70
     1
102
RTVSPropertyOp25
 70
     1
102
RTVSPropertyOp26
 70
     1
102
RTVSPropertyOp27
 70
     1
102
RTVSPropertyOp28
 70
     1
102
RTVSPropertyOp29
 70
     1
102
RTVSPropertyOp30
 70
     1
102
RTVSPropertyOp31
 70
     1
102
RTVSPropertyOp32
 70
     1
102
RTVSPropertyOp33
 70
     1
102
RTVSPropertyOp34
 70
     1
102
RTVSPropertyOp35
 70
     1
102
RTVSPropertyOp36
 70
     1
102
RTVSPropertyOp37
 70
     1
102
RTVSPropertyOp38
 70
     1
102
RTVSPropertyOp39
 70
     1
102
RTVSPropertyOp40
 70
     1
102
RTVSPropertyOp41
 70
     1
102
RTVSPropertyOp42
 70
     1
102
RTVSPropertyOp43
 70
     1
102
RTVSPropertyOp44
 70
     1
102
RTVSPropertyOp45
 70
     1
102
RTVSPropertyOp46
 70
     1
102
RTVSPropertyOp47
 70
     1
102
RTVSPropertyOp48
 70
     1
102
RTVSPropertyOp49
 70
     1
102
RTVSPropertyOp50
 70
     1
102
RTVSPropertyOp51
 70
     0
102
RTVSPropertyOp52
 70
     0
102
RTVSPropertyOp53
 70
     1
102
RTVSPropertyOp54
 70
     1
102
RTVSPropertyOp55
 70
     1
102
RTVSPropertyOp56
 70
     1
102
RTVSPropertyOp57
 70
     1
102
RTVSPost2010Prop28
280
     0
102
RTVSPost2010PropOp28
 70
     1
102
RTVSPost2010Prop29
280
     1
102
RTVSPost2010PropOp29
 70
     1
102
RTVSPost2010Prop30
280
     1
102
RTVSPost2010PropOp30
 70
     1
102
RTVSPost2010Prop31
280
     0
102
RTVSPost2010PropOp31
 70
     1
102
RTVSPost2010Prop32
280
     0
102
RTVSPost2010PropOp32
 70
     1
102
RTVSPost2010Prop33
280
     0
102
RTVSPost2010PropOp33
 70
     1
102
RTVSPost2010Prop34
280
     0
102
RTVSPost2010PropOp34
 70
     1
102
RTVSPost2010Prop35
280
     0
102
RTVSPost2010PropOp35
 70
     1
102
RTVSPost2010Prop36
280
     0
102
RTVSPost2010PropOp36
 70
     1
102
RTVSPost2010Prop37
 90
       50
102
RTVSPost2010PropOp37
 70
     1
102
RTVSPost2010Prop38
140
0.0
102
RTVSPost2010PropOp38
 70
     1
102
RTVSPost2010Prop39
140
1.0
102
RTVSPost2010PropOp39
 70
     1
102
RTVSPost2010Prop40
 90
        0
102
RTVSPost2010PropOp40
 70
     1
102
RTVSPost2010Prop41ColorIndex
 90
       18
102
RTVSPost2010Prop41ColorRGB
 90
        0
102
RTVSPost2010PropOp41
 70
     1
102
RTVSPost2010Prop42
 90
       50
102
RTVSPost2010PropOp42
 70
     1
102
RTVSPost2010Prop43
 90
        3
102
RTVSPost2010PropOp43
 70
     1
102
RTVSPost2010Prop44ColorIndex
 90
        5
102
RTVSPost2010Prop44ColorRGB
 90
      255
102
RTVSPost2010PropOp44
 70
     1
102
RTVSPost2010Prop45
280
     0
102
RTVSPost2010PropOp45
 70
     1
102
RTVSPost2010Prop46
 90
       50
102
RTVSPost2010PropOp46
 70
     1
102
RTVSPost2010Prop47
 90
       50
102
RTVSPost2010PropOp47
 70
     1
102
RTVSPost2010Prop48
 90
       50
102
RTVSPost2010PropOp48
 70
     1
102
RTVSPost2010Prop49
280
     0
102
RTVSPost2010PropOp49
 70
     1
102
RTVSPost2010Prop50
 90
       50
102
RTVSPost2010PropOp50
 70
     1
102
RTVSPost2010Prop51ColorIndex
 90
      256
102
RTVSPost2010Prop51ColorRGB
 90
-16777216
102
RTVSPost2010PropOp51
 70
     0
102
RTVSPost2010Prop52
140
1.0
102
RTVSPost2010PropOp52
 70
     0
102
RTVSPost2010Prop53
 90
        2
102
RTVSPost2010PropOp53
 70
     1
102
RTVSPost2010Prop54
  1
strokes_ogs.tif
102
RTVSPost2010PropOp54
 70
     1
102
RTVSPost2010Prop55
280
     0
102
RTVSPost2010PropOp55
 70
     1
102
RTVSPost2010Prop56
140
1.0
102
RTVSPost2010PropOp56
 70
     1
102
RTVSPost2010Prop57
140
1.0
102
RTVSPost2010PropOp57
 70
     1
  0
XRECORD
  5
23C
102
{ACAD_REACTORS
330
23B
102
}
330
23B
100
AcDbXrecord
280
     1
102
RTVSPropertyOp0
 70
     1
102
RTVSPropertyOp1
 70
     1
102
RTVSPropertyOp2
 70
     1
102
RTVSPropertyOp3
 70
     1
102
RTVSPropertyOp4
 70
     1
102
RTVSPropertyOp5
 70
     1
102
RTVSPropertyOp6
 70
     1
102
RTVSPropertyOp7
 70
     1
102
RTVSPropertyOp8
 70
     1
102
RTVSPropertyOp9
 70
     1
102
RTVSPropertyOp10
 70
     1
102
RTVSPropertyOp11
 70
     1
102
RTVSPropertyOp12
 70
     1
102
RTVSPropertyOp13
 70
     1
102
RTVSPropertyOp14
 70
     1
102
RTVSPropertyOp15
 70
     1
102
RTVSPropertyOp16
 70
     1
102
RTVSPropertyOp17
 70
     1
102
RTVSPropertyOp18
 70
     1
102
RTVSPropertyOp19
 70
     1
102
RTVSPropertyOp20
 70
     1
102
RTVSPropertyOp21
 70
     1
102
RTVSPropertyOp22
 70
     1
102
RTVSPropertyOp23
 70
     1
102
RTVSPropertyOp24
 70
     1
102
RTVSPropertyOp25
 70
     1
102
RTVSPropertyOp26
 70
     1
102
RTVSPropertyOp27
 70
     1
102
RTVSPropertyOp28
 70
     1
102
RTVSPropertyOp29
 70
     1
102
RTVSPropertyOp30
 70
     1
102
RTVSPropertyOp31
 70
     1
102
RTVSPropertyOp32
 70
     1
102
RTVSPropertyOp33
 70
     1
102
RTVSPropertyOp34
 70
     1
102
RTVSPropertyOp35
 70
     1
102
RTVSPropertyOp36
 70
     1
102
RTVSPropertyOp37
 70
     1
102
RTVSPropertyOp38
 70
     1
102
RTVSPropertyOp39
 70
     1
102
RTVSPropertyOp40
 70
     1
102
RTVSPropertyOp41
 70
     1
102
RTVSPropertyOp42
 70
     1
102
RTVSPropertyOp43
 70
     1
102
RTVSPropertyOp44
 70
     1
102
RTVSPropertyOp45
 70
     1
102
RTVSPropertyOp46
 70
     1
102
RTVSPropertyOp47
 70
     1
102
RTVSPropertyOp48
 70
     1
102
RTVSPropertyOp49
 70
     1
102
RTVSPropertyOp50
 70
     1
102
RTVSPropertyOp51
 70
     0
102
RTVSPropertyOp52
 70
     0
102
RTVSPropertyOp53
 70
     1
102
RTVSPropertyOp54
 70
     1
102
RTVSPropertyOp55
 70
     1
102
RTVSPropertyOp56
 70
     1
102
RTVSPropertyOp57
 70
     1
102
RTVSPost2010Prop28
280
     0
102
RTVSPost2010PropOp28
 70
     1
102
RTVSPost2010Prop29
280
     1
102
RTVSPost2010PropOp29
 70
     1
102
RTVSPost2010Prop30
280
     1
102
RTVSPost2010PropOp30
 70
     1
102
RTVSPost2010Prop31
280
     0
102
RTVSPost2010PropOp31
 70
     1
102
RTVSPost2010Prop32
280
     0
102
RTVSPost2010PropOp32
 70
     1
102
RTVSPost2010Prop33
280
     0
102
RTVSPost2010PropOp33
 70
     1
102
RTVSPost2010Prop34
280
     0
102
RTVSPost2010PropOp34
 70
     1
102
RTVSPost2010Prop35
280
     0
102
RTVSPost2010PropOp35
 70
     1
102
RTVSPost2010Prop36
280
     0
102
RTVSPost2010PropOp36
 70
     1
102
RTVSPost2010Prop37
 90
       50
102
RTVSPost2010PropOp37
 70
     1
102
RTVSPost2010Prop38
140
0.0
102
RTVSPost2010PropOp38
 70
     1
102
RTVSPost2010Prop39
140
1.0
102
RTVSPost2010PropOp39
 70
     1
102
RTVSPost2010Prop40
 90
        0
102
RTVSPost2010PropOp40
 70
     1
102
RTVSPost2010Prop41ColorIndex
 90
       18
102
RTVSPost2010Prop41ColorRGB
 90
        0
102
RTVSPost2010PropOp41
 70
     1
102
RTVSPost2010Prop42
 90
       50
102
RTVSPost2010PropOp42
 70
     1
102
RTVSPost2010Prop43
 90
        3
102
RTVSPost2010PropOp43
 70
     1
102
RTVSPost2010Prop44ColorIndex
 90
        5
102
RTVSPost2010Prop44ColorRGB
 90
      255
102
RTVSPost2010PropOp44
 70
     1
102
RTVSPost2010Prop45
280
     0
102
RTVSPost2010PropOp45
 70
     1
102
RTVSPost2010Prop46
 90
       50
102
RTVSPost2010PropOp46
 70
     1
102
RTVSPost2010Prop47
 90
       50
102
RTVSPost2010PropOp47
 70
     1
102
RTVSPost2010Prop48
 90
       50
102
RTVSPost2010PropOp48
 70
     1
102
RTVSPost2010Prop49
280
     0
102
RTVSPost2010PropOp49
 70
     1
102
RTVSPost2010Prop50
 90
       50
102
RTVSPost2010PropOp50
 70
     1
102
RTVSPost2010Prop51ColorIndex
 90
      256
102
RTVSPost2010Prop51ColorRGB
 90
-16777216
102
RTVSPost2010PropOp51
 70
     0
102
RTVSPost2010Prop52
140
1.0
102
RTVSPost2010PropOp52
 70
     0
102
RTVSPost2010Prop53
 90
        2
102
RTVSPost2010PropOp53
 70
     1
102
RTVSPost2010Prop54
  1
strokes_ogs.tif
102
RTVSPost2010PropOp54
 70
     1
102
RTVSPost2010Prop55
280
     0
102
RTVSPost2010PropOp55
 70
     1
102
RTVSPost2010Prop56
140
1.0
102
RTVSPost2010PropOp56
 70
     1
102
RTVSPost2010Prop57
140
1.0
102
RTVSPost2010PropOp57
 70
     1
  0
XRECORD
  5
24C
102
{ACAD_REACTORS
330
24B
102
}
330
24B
100
AcDbXrecord
280
     1
102
RTVSPropertyOp0
 70
     0
102
RTVSPropertyOp1
 70
     0
102
RTVSPropertyOp2
 70
     0
102
RTVSPropertyOp3
 70
     0
102
RTVSPropertyOp4
 70
     0
102
RTVSPropertyOp5
 70
     0
102
RTVSPropertyOp6
 70
     0
102
RTVSPropertyOp7
 70
     0
102
RTVSPropertyOp8
 70
     0
102
RTVSPropertyOp9
 70
     0
102
RTVSPropertyOp10
 70
     0
102
RTVSPropertyOp11
 70
     0
102
RTVSPropertyOp12
 70
     0
102
RTVSPropertyOp13
 70
     0
102
RTVSPropertyOp14
 70
     2
102
RTVSPropertyOp15
 70
     0
102
RTVSPropertyOp16
 70
     0
102
RTVSPropertyOp17
 70
     0
102
RTVSPropertyOp18
 70
     0
102
RTVSPropertyOp19
 70
     0
102
RTVSPropertyOp20
 70
     0
102
RTVSPropertyOp21
 70
     0
102
RTVSPropertyOp22
 70
     0
102
RTVSPropertyOp23
 70
     0
102
RTVSPropertyOp24
 70
     0
102
RTVSPropertyOp25
 70
     0
102
RTVSPropertyOp26
 70
     0
102
RTVSPropertyOp27
 70
     0
102
RTVSPropertyOp28
 70
     0
102
RTVSPropertyOp29
 70
     0
102
RTVSPropertyOp30
 70
     0
102
RTVSPropertyOp31
 70
     0
102
RTVSPropertyOp32
 70
     0
102
RTVSPropertyOp33
 70
     0
102
RTVSPropertyOp34
 70
     0
102
RTVSPropertyOp35
 70
     0
102
RTVSPropertyOp36
 70
     0
102
RTVSPropertyOp37
 70
     0
102
RTVSPropertyOp38
 70
     0
102
RTVSPropertyOp39
 70
     0
102
RTVSPropertyOp40
 70
     0
102
RTVSPropertyOp41
 70
     0
102
RTVSPropertyOp42
 70
     0
102
RTVSPropertyOp43
 70
     0
102
RTVSPropertyOp44
 70
     0
102
RTVSPropertyOp45
 70
     0
102
RTVSPropertyOp46
 70
     0
102
RTVSPropertyOp47
 70
     0
102
RTVSPropertyOp48
 70
     0
102
RTVSPropertyOp49
 70
     0
102
RTVSPropertyOp50
 70
     0
102
RTVSPropertyOp51
 70
     0
102
RTVSPropertyOp52
 70
     0
102
RTVSPropertyOp53
 70
     0
102
RTVSPropertyOp54
 70
     0
102
RTVSPropertyOp55
 70
     0
102
RTVSPropertyOp56
 70
     0
102
RTVSPropertyOp57
 70
     0
102
RTVSPost2010Prop28
280
     0
102
RTVSPost2010PropOp28
 70
     0
102
RTVSPost2010Prop29
280
     1
102
RTVSPost2010PropOp29
 70
     0
102
RTVSPost2010Prop30
280
     1
102
RTVSPost2010PropOp30
 70
     0
102
RTVSPost2010Prop31
280
     0
102
RTVSPost2010PropOp31
 70
     0
102
RTVSPost2010Prop32
280
     0
102
RTVSPost2010PropOp32
 70
     0
102
RTVSPost2010Prop33
280
     0
102
RTVSPost2010PropOp33
 70
     0
102
RTVSPost2010Prop34
280
     0
102
RTVSPost2010PropOp34
 70
     0
102
RTVSPost2010Prop35
280
     0
102
RTVSPost2010PropOp35
 70
     0
102
RTVSPost2010Prop36
280
     0
102
RTVSPost2010PropOp36
 70
     0
102
RTVSPost2010Prop37
 90
       50
102
RTVSPost2010PropOp37
 70
     0
102
RTVSPost2010Prop38
140
0.0
102
RTVSPost2010PropOp38
 70
     0
102
RTVSPost2010Prop39
140
1.0
102
RTVSPost2010PropOp39
 70
     0
102
RTVSPost2010Prop40
 90
        0
102
RTVSPost2010PropOp40
 70
     0
102
RTVSPost2010Prop41ColorIndex
 90
       18
102
RTVSPost2010Prop41ColorRGB
 90
        0
102
RTVSPost2010PropOp41
 70
     0
102
RTVSPost2010Prop42
 90
       50
102
RTVSPost2010PropOp42
 70
     0
102
RTVSPost2010Prop43
 90
        3
102
RTVSPost2010PropOp43
 70
     0
102
RTVSPost2010Prop44ColorIndex
 90
        5
102
RTVSPost2010Prop44ColorRGB
 90
      255
102
RTVSPost2010PropOp44
 70
     0
102
RTVSPost2010Prop45
280
     0
102
RTVSPost2010PropOp45
 70
     0
102
RTVSPost2010Prop46
 90
       50
102
RTVSPost2010PropOp46
 70
     0
102
RTVSPost2010Prop47
 90
       50
102
RTVSPost2010PropOp47
 70
     0
102
RTVSPost2010Prop48
 90
       50
102
RTVSPost2010PropOp48
 70
     0
102
RTVSPost2010Prop49
280
     0
102
RTVSPost2010PropOp49
 70
     0
102
RTVSPost2010Prop50
 90
       50
102
RTVSPost2010PropOp50
 70
     0
102
RTVSPost2010Prop51ColorIndex
 90
      256
102
RTVSPost2010Prop51ColorRGB
 90
-16777216
102
RTVSPost2010PropOp51
 70
     0
102
RTVSPost2010Prop52
140
1.0
102
RTVSPost2010PropOp52
 70
     0
102
RTVSPost2010Prop53
 90
        2
102
RTVSPost2010PropOp53
 70
     0
102
RTVSPost2010Prop54
  1
strokes_ogs.tif
102
RTVSPost2010PropOp54
 70
     0
102
RTVSPost2010Prop55
280
     0
102
RTVSPost2010PropOp55
 70
     0
102
RTVSPost2010Prop56
140
1.0
102
RTVSPost2010PropOp56
 70
     0
102
RTVSPost2010Prop57
140
1.0
102
RTVSPost2010PropOp57
 70
     0
  0
XRECORD
  5
244
102
{ACAD_REACTORS
330
243
102
}
330
243
100
AcDbXrecord
280
     1
102
RTVSPropertyOp0
 70
     1
102
RTVSPropertyOp1
 70
     1
102
RTVSPropertyOp2
 70
     1
102
RTVSPropertyOp3
 70
     1
102
RTVSPropertyOp4
 70
     1
102
RTVSPropertyOp5
 70
     1
102
RTVSPropertyOp6
 70
     1
102
RTVSPropertyOp7
 70
     1
102
RTVSPropertyOp8
 70
     1
102
RTVSPropertyOp9
 70
     1
102
RTVSPropertyOp10
 70
     1
102
RTVSPropertyOp11
 70
     1
102
RTVSPropertyOp12
 70
     1
102
RTVSPropertyOp13
 70
     1
102
RTVSPropertyOp14
 70
     1
102
RTVSPropertyOp15
 70
     1
102
RTVSPropertyOp16
 70
     1
102
RTVSPropertyOp17
 70
     1
102
RTVSPropertyOp18
 70
     1
102
RTVSPropertyOp19
 70
     1
102
RTVSPropertyOp20
 70
     1
102
RTVSPropertyOp21
 70
     1
102
RTVSPropertyOp22
 70
     1
102
RTVSPropertyOp23
 70
     1
102
RTVSPropertyOp24
 70
     1
102
RTVSPropertyOp25
 70
     1
102
RTVSPropertyOp26
 70
     1
102
RTVSPropertyOp27
 70
     1
102
RTVSPropertyOp28
 70
     1
102
RTVSPropertyOp29
 70
     1
102
RTVSPropertyOp30
 70
     1
102
RTVSPropertyOp31
 70
     1
102
RTVSPropertyOp32
 70
     1
102
RTVSPropertyOp33
 70
     1
102
RTVSPropertyOp34
 70
     1
102
RTVSPropertyOp35
 70
     1
102
RTVSPropertyOp36
 70
     1
102
RTVSPropertyOp37
 70
     1
102
RTVSPropertyOp38
 70
     1
102
RTVSPropertyOp39
 70
     1
102
RTVSPropertyOp40
 70
     1
102
RTVSPropertyOp41
 70
     1
102
RTVSPropertyOp42
 70
     1
102
RTVSPropertyOp43
 70
     1
102
RTVSPropertyOp44
 70
     1
102
RTVSPropertyOp45
 70
     1
102
RTVSPropertyOp46
 70
     1
102
RTVSPropertyOp47
 70
     1
102
RTVSPropertyOp48
 70
     1
102
RTVSPropertyOp49
 70
     1
102
RTVSPropertyOp50
 70
     1
102
RTVSPropertyOp51
 70
     0
102
RTVSPropertyOp52
 70
     0
102
RTVSPropertyOp53
 70
     1
102
RTVSPropertyOp54
 70
     1
102
RTVSPropertyOp55
 70
     1
102
RTVSPropertyOp56
 70
     1
102
RTVSPropertyOp57
 70
     1
102
RTVSPost2010Prop28
280
     0
102
RTVSPost2010PropOp28
 70
     1
102
RTVSPost2010Prop29
280
     1
102
RTVSPost2010PropOp29
 70
     1
102
RTVSPost2010Prop30
280
     1
102
RTVSPost2010PropOp30
 70
     1
102
RTVSPost2010Prop31
280
     0
102
RTVSPost2010PropOp31
 70
     1
102
RTVSPost2010Prop32
280
     0
102
RTVSPost2010PropOp32
 70
     1
102
RTVSPost2010Prop33
280
     0
102
RTVSPost2010PropOp33
 70
     1
102
RTVSPost2010Prop34
280
     0
102
RTVSPost2010PropOp34
 70
     1
102
RTVSPost2010Prop35
280
     0
102
RTVSPost2010PropOp35
 70
     1
102
RTVSPost2010Prop36
280
     0
102
RTVSPost2010PropOp36
 70
     1
102
RTVSPost2010Prop37
 90
       50
102
RTVSPost2010PropOp37
 70
     1
102
RTVSPost2010Prop38
140
0.0
102
RTVSPost2010PropOp38
 70
     1
102
RTVSPost2010Prop39
140
1.0
102
RTVSPost2010PropOp39
 70
     1
102
RTVSPost2010Prop40
 90
        0
102
RTVSPost2010PropOp40
 70
     1
102
RTVSPost2010Prop41ColorIndex
 90
       18
102
RTVSPost2010Prop41ColorRGB
 90
        0
102
RTVSPost2010PropOp41
 70
     1
102
RTVSPost2010Prop42
 90
       50
102
RTVSPost2010PropOp42
 70
     1
102
RTVSPost2010Prop43
 90
        3
102
RTVSPost2010PropOp43
 70
     1
102
RTVSPost2010Prop44ColorIndex
 90
        5
102
RTVSPost2010Prop44ColorRGB
 90
      255
102
RTVSPost2010PropOp44
 70
     1
102
RTVSPost2010Prop45
280
     0
102
RTVSPost2010PropOp45
 70
     1
102
RTVSPost2010Prop46
 90
       50
102
RTVSPost2010PropOp46
 70
     1
102
RTVSPost2010Prop47
 90
       50
102
RTVSPost2010PropOp47
 70
     1
102
RTVSPost2010Prop48
 90
       50
102
RTVSPost2010PropOp48
 70
     1
102
RTVSPost2010Prop49
280
     0
102
RTVSPost2010PropOp49
 70
     1
102
RTVSPost2010Prop50
 90
       50
102
RTVSPost2010PropOp50
 70
     1
102
RTVSPost2010Prop51ColorIndex
 90
      256
102
RTVSPost2010Prop51ColorRGB
 90
-16777216
102
RTVSPost2010PropOp51
 70
     0
102
RTVSPost2010Prop52
140
1.0
102
RTVSPost2010PropOp52
 70
     0
102
RTVSPost2010Prop53
 90
        2
102
RTVSPost2010PropOp53
 70
     1
102
RTVSPost2010Prop54
  1
strokes_ogs.tif
102
RTVSPost2010PropOp54
 70
     1
102
RTVSPost2010Prop55
280
     0
102
RTVSPost2010PropOp55
 70
     1
102
RTVSPost2010Prop56
140
1.0
102
RTVSPost2010PropOp56
 70
     1
102
RTVSPost2010Prop57
140
1.0
102
RTVSPost2010PropOp57
 70
     1
  0
XRECORD
  5
228
102
{ACAD_REACTORS
330
227
102
}
330
227
100
AcDbXrecord
280
     1
102
RTVSPropertyOp0
 70
     1
102
RTVSPropertyOp1
 70
     1
102
RTVSPropertyOp2
 70
     1
102
RTVSPropertyOp3
 70
     1
102
RTVSPropertyOp4
 70
     1
102
RTVSPropertyOp5
 70
     1
102
RTVSPropertyOp6
 70
     1
102
RTVSPropertyOp7
 70
     1
102
RTVSPropertyOp8
 70
     1
102
RTVSPropertyOp9
 70
     1
102
RTVSPropertyOp10
 70
     1
102
RTVSPropertyOp11
 70
     1
102
RTVSPropertyOp12
 70
     1
102
RTVSPropertyOp13
 70
     1
102
RTVSPropertyOp14
 70
     1
102
RTVSPropertyOp15
 70
     1
102
RTVSPropertyOp16
 70
     1
102
RTVSPropertyOp17
 70
     1
102
RTVSPropertyOp18
 70
     1
102
RTVSPropertyOp19
 70
     1
102
RTVSPropertyOp20
 70
     1
102
RTVSPropertyOp21
 70
     1
102
RTVSPropertyOp22
 70
     1
102
RTVSPropertyOp23
 70
     1
102
RTVSPropertyOp24
 70
     1
102
RTVSPropertyOp25
 70
     1
102
RTVSPropertyOp26
 70
     1
102
RTVSPropertyOp27
 70
     1
102
RTVSPropertyOp28
 70
     1
102
RTVSPropertyOp29
 70
     1
102
RTVSPropertyOp30
 70
     1
102
RTVSPropertyOp31
 70
     1
102
RTVSPropertyOp32
 70
     1
102
RTVSPropertyOp33
 70
     1
102
RTVSPropertyOp34
 70
     1
102
RTVSPropertyOp35
 70
     1
102
RTVSPropertyOp36
 70
     1
102
RTVSPropertyOp37
 70
     1
102
RTVSPropertyOp38
 70
     1
102
RTVSPropertyOp39
 70
     1
102
RTVSPropertyOp40
 70
     1
102
RTVSPropertyOp41
 70
     1
102
RTVSPropertyOp42
 70
     1
102
RTVSPropertyOp43
 70
     1
102
RTVSPropertyOp44
 70
     1
102
RTVSPropertyOp45
 70
     1
102
RTVSPropertyOp46
 70
     1
102
RTVSPropertyOp47
 70
     1
102
RTVSPropertyOp48
 70
     1
102
RTVSPropertyOp49
 70
     1
102
RTVSPropertyOp50
 70
     1
102
RTVSPropertyOp51
 70
     0
102
RTVSPropertyOp52
 70
     0
102
RTVSPropertyOp53
 70
     1
102
RTVSPropertyOp54
 70
     1
102
RTVSPropertyOp55
 70
     1
102
RTVSPropertyOp56
 70
     1
102
RTVSPropertyOp57
 70
     1
102
RTVSPost2010Prop28
280
     0
102
RTVSPost2010PropOp28
 70
     1
102
RTVSPost2010Prop29
280
     1
102
RTVSPost2010PropOp29
 70
     1
102
RTVSPost2010Prop30
280
     1
102
RTVSPost2010PropOp30
 70
     1
102
RTVSPost2010Prop31
280
     0
102
RTVSPost2010PropOp31
 70
     1
102
RTVSPost2010Prop32
280
     0
102
RTVSPost2010PropOp32
 70
     1
102
RTVSPost2010Prop33
280
     0
102
RTVSPost2010PropOp33
 70
     1
102
RTVSPost2010Prop34
280
     0
102
RTVSPost2010PropOp34
 70
     1
102
RTVSPost2010Prop35
280
     0
102
RTVSPost2010PropOp35
 70
     1
102
RTVSPost2010Prop36
280
     0
102
RTVSPost2010PropOp36
 70
     1
102
RTVSPost2010Prop37
 90
       50
102
RTVSPost2010PropOp37
 70
     1
102
RTVSPost2010Prop38
140
0.0
102
RTVSPost2010PropOp38
 70
     1
102
RTVSPost2010Prop39
140
1.0
102
RTVSPost2010PropOp39
 70
     1
102
RTVSPost2010Prop40
 90
        0
102
RTVSPost2010PropOp40
 70
     1
102
RTVSPost2010Prop41ColorIndex
 90
       18
102
RTVSPost2010Prop41ColorRGB
 90
        0
102
RTVSPost2010PropOp41
 70
     1
102
RTVSPost2010Prop42
 90
       50
102
RTVSPost2010PropOp42
 70
     1
102
RTVSPost2010Prop43
 90
        3
102
RTVSPost2010PropOp43
 70
     1
102
RTVSPost2010Prop44ColorIndex
 90
        5
102
RTVSPost2010Prop44ColorRGB
 90
      255
102
RTVSPost2010PropOp44
 70
     1
102
RTVSPost2010Prop45
280
     0
102
RTVSPost2010PropOp45
 70
     1
102
RTVSPost2010Prop46
 90
       50
102
RTVSPost2010PropOp46
 70
     1
102
RTVSPost2010Prop47
 90
       50
102
RTVSPost2010PropOp47
 70
     1
102
RTVSPost2010Prop48
 90
       50
102
RTVSPost2010PropOp48
 70
     1
102
RTVSPost2010Prop49
280
     0
102
RTVSPost2010PropOp49
 70
     1
102
RTVSPost2010Prop50
 90
       50
102
RTVSPost2010PropOp50
 70
     1
102
RTVSPost2010Prop51ColorIndex
 90
      256
102
RTVSPost2010Prop51ColorRGB
 90
-16777216
102
RTVSPost2010PropOp51
 70
     0
102
RTVSPost2010Prop52
140
1.0
102
RTVSPost2010PropOp52
 70
     0
102
RTVSPost2010Prop53
 90
        2
102
RTVSPost2010PropOp53
 70
     1
102
RTVSPost2010Prop54
  1
strokes_ogs.tif
102
RTVSPost2010PropOp54
 70
     1
102
RTVSPost2010Prop55
280
     0
102
RTVSPost2010PropOp55
 70
     1
102
RTVSPost2010Prop56
140
1.0
102
RTVSPost2010PropOp56
 70
     1
102
RTVSPost2010Prop57
140
1.0
102
RTVSPost2010PropOp57
 70
     1
  0
XRECORD
  5
22A
102
{ACAD_REACTORS
330
229
102
}
330
229
100
AcDbXrecord
280
     1
102
RTVSPropertyOp0
 70
     1
102
RTVSPropertyOp1
 70
     1
102
RTVSPropertyOp2
 70
     1
102
RTVSPropertyOp3
 70
     1
102
RTVSPropertyOp4
 70
     1
102
RTVSPropertyOp5
 70
     1
102
RTVSPropertyOp6
 70
     1
102
RTVSPropertyOp7
 70
     1
102
RTVSPropertyOp8
 70
     1
102
RTVSPropertyOp9
 70
     1
102
RTVSPropertyOp10
 70
     1
102
RTVSPropertyOp11
 70
     1
102
RTVSPropertyOp12
 70
     1
102
RTVSPropertyOp13
 70
     1
102
RTVSPropertyOp14
 70
     1
102
RTVSPropertyOp15
 70
     1
102
RTVSPropertyOp16
 70
     1
102
RTVSPropertyOp17
 70
     1
102
RTVSPropertyOp18
 70
     1
102
RTVSPropertyOp19
 70
     1
102
RTVSPropertyOp20
 70
     1
102
RTVSPropertyOp21
 70
     1
102
RTVSPropertyOp22
 70
     1
102
RTVSPropertyOp23
 70
     1
102
RTVSPropertyOp24
 70
     1
102
RTVSPropertyOp25
 70
     1
102
RTVSPropertyOp26
 70
     1
102
RTVSPropertyOp27
 70
     1
102
RTVSPropertyOp28
 70
     1
102
RTVSPropertyOp29
 70
     1
102
RTVSPropertyOp30
 70
     1
102
RTVSPropertyOp31
 70
     1
102
RTVSPropertyOp32
 70
     1
102
RTVSPropertyOp33
 70
     1
102
RTVSPropertyOp34
 70
     1
102
RTVSPropertyOp35
 70
     1
102
RTVSPropertyOp36
 70
     1
102
RTVSPropertyOp37
 70
     1
102
RTVSPropertyOp38
 70
     1
102
RTVSPropertyOp39
 70
     1
102
RTVSPropertyOp40
 70
     1
102
RTVSPropertyOp41
 70
     1
102
RTVSPropertyOp42
 70
     1
102
RTVSPropertyOp43
 70
     1
102
RTVSPropertyOp44
 70
     1
102
RTVSPropertyOp45
 70
     1
102
RTVSPropertyOp46
 70
     1
102
RTVSPropertyOp47
 70
     1
102
RTVSPropertyOp48
 70
     1
102
RTVSPropertyOp49
 70
     1
102
RTVSPropertyOp50
 70
     1
102
RTVSPropertyOp51
 70
     0
102
RTVSPropertyOp52
 70
     0
102
RTVSPropertyOp53
 70
     1
102
RTVSPropertyOp54
 70
     1
102
RTVSPropertyOp55
 70
     1
102
RTVSPropertyOp56
 70
     1
102
RTVSPropertyOp57
 70
     1
102
RTVSPost2010Prop28
280
     0
102
RTVSPost2010PropOp28
 70
     1
102
RTVSPost2010Prop29
280
     1
102
RTVSPost2010PropOp29
 70
     1
102
RTVSPost2010Prop30
280
     1
102
RTVSPost2010PropOp30
 70
     1
102
RTVSPost2010Prop31
280
     0
102
RTVSPost2010PropOp31
 70
     1
102
RTVSPost2010Prop32
280
     0
102
RTVSPost2010PropOp32
 70
     1
102
RTVSPost2010Prop33
280
     0
102
RTVSPost2010PropOp33
 70
     1
102
RTVSPost2010Prop34
280
     0
102
RTVSPost2010PropOp34
 70
     1
102
RTVSPost2010Prop35
280
     0
102
RTVSPost2010PropOp35
 70
     1
102
RTVSPost2010Prop36
280
     0
102
RTVSPost2010PropOp36
 70
     1
102
RTVSPost2010Prop37
 90
       50
102
RTVSPost2010PropOp37
 70
     1
102
RTVSPost2010Prop38
140
0.0
102
RTVSPost2010PropOp38
 70
     1
102
RTVSPost2010Prop39
140
1.0
102
RTVSPost2010PropOp39
 70
     1
102
RTVSPost2010Prop40
 90
        0
102
RTVSPost2010PropOp40
 70
     1
102
RTVSPost2010Prop41ColorIndex
 90
       18
102
RTVSPost2010Prop41ColorRGB
 90
        0
102
RTVSPost2010PropOp41
 70
     1
102
RTVSPost2010Prop42
 90
       50
102
RTVSPost2010PropOp42
 70
     1
102
RTVSPost2010Prop43
 90
        3
102
RTVSPost2010PropOp43
 70
     1
102
RTVSPost2010Prop44ColorIndex
 90
        5
102
RTVSPost2010Prop44ColorRGB
 90
      255
102
RTVSPost2010PropOp44
 70
     1
102
RTVSPost2010Prop45
280
     0
102
RTVSPost2010PropOp45
 70
     1
102
RTVSPost2010Prop46
 90
       50
102
RTVSPost2010PropOp46
 70
     1
102
RTVSPost2010Prop47
 90
       50
102
RTVSPost2010PropOp47
 70
     1
102
RTVSPost2010Prop48
 90
       50
102
RTVSPost2010PropOp48
 70
     1
102
RTVSPost2010Prop49
280
     0
102
RTVSPost2010PropOp49
 70
     1
102
RTVSPost2010Prop50
 90
       50
102
RTVSPost2010PropOp50
 70
     1
102
RTVSPost2010Prop51ColorIndex
 90
      256
102
RTVSPost2010Prop51ColorRGB
 90
-16777216
102
RTVSPost2010PropOp51
 70
     0
102
RTVSPost2010Prop52
140
1.0
102
RTVSPost2010PropOp52
 70
     0
102
RTVSPost2010Prop53
 90
        2
102
RTVSPost2010PropOp53
 70
     1
102
RTVSPost2010Prop54
  1
strokes_ogs.tif
102
RTVSPost2010PropOp54
 70
     1
102
RTVSPost2010Prop55
280
     0
102
RTVSPost2010PropOp55
 70
     1
102
RTVSPost2010Prop56
140
1.0
102
RTVSPost2010PropOp56
 70
     1
102
RTVSPost2010Prop57
140
1.0
102
RTVSPost2010PropOp57
 70
     1
  0
XRECORD
  5
22C
102
{ACAD_REACTORS
330
22B
102
}
330
22B
100
AcDbXrecord
280
     1
102
RTVSPropertyOp0
 70
     1
102
RTVSPropertyOp1
 70
     1
102
RTVSPropertyOp2
 70
     1
102
RTVSPropertyOp3
 70
     1
102
RTVSPropertyOp4
 70
     1
102
RTVSPropertyOp5
 70
     1
102
RTVSPropertyOp6
 70
     1
102
RTVSPropertyOp7
 70
     1
102
RTVSPropertyOp8
 70
     1
102
RTVSPropertyOp9
 70
     1
102
RTVSPropertyOp10
 70
     1
102
RTVSPropertyOp11
 70
     1
102
RTVSPropertyOp12
 70
     1
102
RTVSPropertyOp13
 70
     1
102
RTVSPropertyOp14
 70
     1
102
RTVSPropertyOp15
 70
     1
102
RTVSPropertyOp16
 70
     1
102
RTVSPropertyOp17
 70
     1
102
RTVSPropertyOp18
 70
     1
102
RTVSPropertyOp19
 70
     1
102
RTVSPropertyOp20
 70
     1
102
RTVSPropertyOp21
 70
     1
102
RTVSPropertyOp22
 70
     1
102
RTVSPropertyOp23
 70
     1
102
RTVSPropertyOp24
 70
     1
102
RTVSPropertyOp25
 70
     1
102
RTVSPropertyOp26
 70
     1
102
RTVSPropertyOp27
 70
     1
102
RTVSPropertyOp28
 70
     1
102
RTVSPropertyOp29
 70
     1
102
RTVSPropertyOp30
 70
     1
102
RTVSPropertyOp31
 70
     1
102
RTVSPropertyOp32
 70
     1
102
RTVSPropertyOp33
 70
     1
102
RTVSPropertyOp34
 70
     1
102
RTVSPropertyOp35
 70
     1
102
RTVSPropertyOp36
 70
     1
102
RTVSPropertyOp37
 70
     1
102
RTVSPropertyOp38
 70
     1
102
RTVSPropertyOp39
 70
     1
102
RTVSPropertyOp40
 70
     1
102
RTVSPropertyOp41
 70
     1
102
RTVSPropertyOp42
 70
     1
102
RTVSPropertyOp43
 70
     1
102
RTVSPropertyOp44
 70
     1
102
RTVSPropertyOp45
 70
     1
102
RTVSPropertyOp46
 70
     1
102
RTVSPropertyOp47
 70
     1
102
RTVSPropertyOp48
 70
     1
102
RTVSPropertyOp49
 70
     1
102
RTVSPropertyOp50
 70
     1
102
RTVSPropertyOp51
 70
     0
102
RTVSPropertyOp52
 70
     0
102
RTVSPropertyOp53
 70
     1
102
RTVSPropertyOp54
 70
     1
102
RTVSPropertyOp55
 70
     1
102
RTVSPropertyOp56
 70
     1
102
RTVSPropertyOp57
 70
     1
102
RTVSPost2010Prop28
280
     0
102
RTVSPost2010PropOp28
 70
     1
102
RTVSPost2010Prop29
280
     1
102
RTVSPost2010PropOp29
 70
     1
102
RTVSPost2010Prop30
280
     1
102
RTVSPost2010PropOp30
 70
     1
102
RTVSPost2010Prop31
280
     0
102
RTVSPost2010PropOp31
 70
     1
102
RTVSPost2010Prop32
280
     0
102
RTVSPost2010PropOp32
 70
     1
102
RTVSPost2010Prop33
280
     0
102
RTVSPost2010PropOp33
 70
     1
102
RTVSPost2010Prop34
280
     0
102
RTVSPost2010PropOp34
 70
     1
102
RTVSPost2010Prop35
280
     0
102
RTVSPost2010PropOp35
 70
     1
102
RTVSPost2010Prop36
280
     0
102
RTVSPost2010PropOp36
 70
     1
102
RTVSPost2010Prop37
 90
       50
102
RTVSPost2010PropOp37
 70
     1
102
RTVSPost2010Prop38
140
0.0
102
RTVSPost2010PropOp38
 70
     1
102
RTVSPost2010Prop39
140
1.0
102
RTVSPost2010PropOp39
 70
     1
102
RTVSPost2010Prop40
 90
        0
102
RTVSPost2010PropOp40
 70
     1
102
RTVSPost2010Prop41ColorIndex
 90
       18
102
RTVSPost2010Prop41ColorRGB
 90
        0
102
RTVSPost2010PropOp41
 70
     1
102
RTVSPost2010Prop42
 90
       50
102
RTVSPost2010PropOp42
 70
     1
102
RTVSPost2010Prop43
 90
        3
102
RTVSPost2010PropOp43
 70
     1
102
RTVSPost2010Prop44ColorIndex
 90
        5
102
RTVSPost2010Prop44ColorRGB
 90
      255
102
RTVSPost2010PropOp44
 70
     1
102
RTVSPost2010Prop45
280
     0
102
RTVSPost2010PropOp45
 70
     1
102
RTVSPost2010Prop46
 90
       50
102
RTVSPost2010PropOp46
 70
     1
102
RTVSPost2010Prop47
 90
       50
102
RTVSPost2010PropOp47
 70
     1
102
RTVSPost2010Prop48
 90
       50
102
RTVSPost2010PropOp48
 70
     1
102
RTVSPost2010Prop49
280
     0
102
RTVSPost2010PropOp49
 70
     1
102
RTVSPost2010Prop50
 90
       50
102
RTVSPost2010PropOp50
 70
     1
102
RTVSPost2010Prop51ColorIndex
 90
      256
102
RTVSPost2010Prop51ColorRGB
 90
-16777216
102
RTVSPost2010PropOp51
 70
     0
102
RTVSPost2010Prop52
140
1.0
102
RTVSPost2010PropOp52
 70
     0
102
RTVSPost2010Prop53
 90
        2
102
RTVSPost2010PropOp53
 70
     1
102
RTVSPost2010Prop54
  1
strokes_ogs.tif
102
RTVSPost2010PropOp54
 70
     1
102
RTVSPost2010Prop55
280
     0
102
RTVSPost2010PropOp55
 70
     1
102
RTVSPost2010Prop56
140
1.0
102
RTVSPost2010PropOp56
 70
     1
102
RTVSPost2010Prop57
140
1.0
102
RTVSPost2010PropOp57
 70
     1
  0
XRECORD
  5
22E
102
{ACAD_REACTORS
330
22D
102
}
330
22D
100
AcDbXrecord
280
     1
102
RTVSPropertyOp0
 70
     1
102
RTVSPropertyOp1
 70
     1
102
RTVSPropertyOp2
 70
     1
102
RTVSPropertyOp3
 70
     1
102
RTVSPropertyOp4
 70
     1
102
RTVSPropertyOp5
 70
     1
102
RTVSPropertyOp6
 70
     1
102
RTVSPropertyOp7
 70
     1
102
RTVSPropertyOp8
 70
     1
102
RTVSPropertyOp9
 70
     1
102
RTVSPropertyOp10
 70
     1
102
RTVSPropertyOp11
 70
     1
102
RTVSPropertyOp12
 70
     1
102
RTVSPropertyOp13
 70
     1
102
RTVSPropertyOp14
 70
     1
102
RTVSPropertyOp15
 70
     1
102
RTVSPropertyOp16
 70
     1
102
RTVSPropertyOp17
 70
     1
102
RTVSPropertyOp18
 70
     1
102
RTVSPropertyOp19
 70
     1
102
RTVSPropertyOp20
 70
     1
102
RTVSPropertyOp21
 70
     1
102
RTVSPropertyOp22
 70
     1
102
RTVSPropertyOp23
 70
     1
102
RTVSPropertyOp24
 70
     1
102
RTVSPropertyOp25
 70
     1
102
RTVSPropertyOp26
 70
     1
102
RTVSPropertyOp27
 70
     1
102
RTVSPropertyOp28
 70
     1
102
RTVSPropertyOp29
 70
     1
102
RTVSPropertyOp30
 70
     1
102
RTVSPropertyOp31
 70
     1
102
RTVSPropertyOp32
 70
     1
102
RTVSPropertyOp33
 70
     1
102
RTVSPropertyOp34
 70
     1
102
RTVSPropertyOp35
 70
     1
102
RTVSPropertyOp36
 70
     1
102
RTVSPropertyOp37
 70
     1
102
RTVSPropertyOp38
 70
     1
102
RTVSPropertyOp39
 70
     1
102
RTVSPropertyOp40
 70
     1
102
RTVSPropertyOp41
 70
     1
102
RTVSPropertyOp42
 70
     1
102
RTVSPropertyOp43
 70
     1
102
RTVSPropertyOp44
 70
     1
102
RTVSPropertyOp45
 70
     1
102
RTVSPropertyOp46
 70
     1
102
RTVSPropertyOp47
 70
     1
102
RTVSPropertyOp48
 70
     1
102
RTVSPropertyOp49
 70
     1
102
RTVSPropertyOp50
 70
     1
102
RTVSPropertyOp51
 70
     0
102
RTVSPropertyOp52
 70
     0
102
RTVSPropertyOp53
 70
     1
102
RTVSPropertyOp54
 70
     1
102
RTVSPropertyOp55
 70
     1
102
RTVSPropertyOp56
 70
     1
102
RTVSPropertyOp57
 70
     1
102
RTVSPost2010Prop28
280
     0
102
RTVSPost2010PropOp28
 70
     1
102
RTVSPost2010Prop29
280
     1
102
RTVSPost2010PropOp29
 70
     1
102
RTVSPost2010Prop30
280
     1
102
RTVSPost2010PropOp30
 70
     1
102
RTVSPost2010Prop31
280
     0
102
RTVSPost2010PropOp31
 70
     1
102
RTVSPost2010Prop32
280
     0
102
RTVSPost2010PropOp32
 70
     1
102
RTVSPost2010Prop33
280
     0
102
RTVSPost2010PropOp33
 70
     1
102
RTVSPost2010Prop34
280
     0
102
RTVSPost2010PropOp34
 70
     1
102
RTVSPost2010Prop35
280
     0
102
RTVSPost2010PropOp35
 70
     1
102
RTVSPost2010Prop36
280
     0
102
RTVSPost2010PropOp36
 70
     1
102
RTVSPost2010Prop37
 90
       50
102
RTVSPost2010PropOp37
 70
     1
102
RTVSPost2010Prop38
140
0.0
102
RTVSPost2010PropOp38
 70
     1
102
RTVSPost2010Prop39
140
1.0
102
RTVSPost2010PropOp39
 70
     1
102
RTVSPost2010Prop40
 90
        0
102
RTVSPost2010PropOp40
 70
     1
102
RTVSPost2010Prop41ColorIndex
 90
       18
102
RTVSPost2010Prop41ColorRGB
 90
        0
102
RTVSPost2010PropOp41
 70
     1
102
RTVSPost2010Prop42
 90
       50
102
RTVSPost2010PropOp42
 70
     1
102
RTVSPost2010Prop43
 90
        3
102
RTVSPost2010PropOp43
 70
     1
102
RTVSPost2010Prop44ColorIndex
 90
        5
102
RTVSPost2010Prop44ColorRGB
 90
      255
102
RTVSPost2010PropOp44
 70
     1
102
RTVSPost2010Prop45
280
     0
102
RTVSPost2010PropOp45
 70
     1
102
RTVSPost2010Prop46
 90
       50
102
RTVSPost2010PropOp46
 70
     1
102
RTVSPost2010Prop47
 90
       50
102
RTVSPost2010PropOp47
 70
     1
102
RTVSPost2010Prop48
 90
       50
102
RTVSPost2010PropOp48
 70
     1
102
RTVSPost2010Prop49
280
     0
102
RTVSPost2010PropOp49
 70
     1
102
RTVSPost2010Prop50
 90
       50
102
RTVSPost2010PropOp50
 70
     1
102
RTVSPost2010Prop51ColorIndex
 90
      256
102
RTVSPost2010Prop51ColorRGB
 90
-16777216
102
RTVSPost2010PropOp51
 70
     0
102
RTVSPost2010Prop52
140
1.0
102
RTVSPost2010PropOp52
 70
     0
102
RTVSPost2010Prop53
 90
        2
102
RTVSPost2010PropOp53
 70
     1
102
RTVSPost2010Prop54
  1
strokes_ogs.tif
102
RTVSPost2010PropOp54
 70
     1
102
RTVSPost2010Prop55
280
     0
102
RTVSPost2010PropOp55
 70
     1
102
RTVSPost2010Prop56
140
1.0
102
RTVSPost2010PropOp56
 70
     1
102
RTVSPost2010Prop57
140
1.0
102
RTVSPost2010PropOp57
 70
     1
  0
XRECORD
  5
234
102
{ACAD_REACTORS
330
233
102
}
330
233
100
AcDbXrecord
280
     1
102
RTVSPropertyOp0
 70
     1
102
RTVSPropertyOp1
 70
     1
102
RTVSPropertyOp2
 70
     1
102
RTVSPropertyOp3
 70
     1
102
RTVSPropertyOp4
 70
     1
102
RTVSPropertyOp5
 70
     1
102
RTVSPropertyOp6
 70
     1
102
RTVSPropertyOp7
 70
     1
102
RTVSPropertyOp8
 70
     1
102
RTVSPropertyOp9
 70
     1
102
RTVSPropertyOp10
 70
     1
102
RTVSPropertyOp11
 70
     1
102
RTVSPropertyOp12
 70
     1
102
RTVSPropertyOp13
 70
     1
102
RTVSPropertyOp14
 70
     1
102
RTVSPropertyOp15
 70
     1
102
RTVSPropertyOp16
 70
     1
102
RTVSPropertyOp17
 70
     1
102
RTVSPropertyOp18
 70
     1
102
RTVSPropertyOp19
 70
     1
102
RTVSPropertyOp20
 70
     1
102
RTVSPropertyOp21
 70
     1
102
RTVSPropertyOp22
 70
     1
102
RTVSPropertyOp23
 70
     1
102
RTVSPropertyOp24
 70
     1
102
RTVSPropertyOp25
 70
     1
102
RTVSPropertyOp26
 70
     1
102
RTVSPropertyOp27
 70
     1
102
RTVSPropertyOp28
 70
     1
102
RTVSPropertyOp29
 70
     1
102
RTVSPropertyOp30
 70
     1
102
RTVSPropertyOp31
 70
     1
102
RTVSPropertyOp32
 70
     1
102
RTVSPropertyOp33
 70
     1
102
RTVSPropertyOp34
 70
     1
102
RTVSPropertyOp35
 70
     1
102
RTVSPropertyOp36
 70
     1
102
RTVSPropertyOp37
 70
     1
102
RTVSPropertyOp38
 70
     1
102
RTVSPropertyOp39
 70
     1
102
RTVSPropertyOp40
 70
     1
102
RTVSPropertyOp41
 70
     1
102
RTVSPropertyOp42
 70
     1
102
RTVSPropertyOp43
 70
     1
102
RTVSPropertyOp44
 70
     1
102
RTVSPropertyOp45
 70
     1
102
RTVSPropertyOp46
 70
     1
102
RTVSPropertyOp47
 70
     1
102
RTVSPropertyOp48
 70
     1
102
RTVSPropertyOp49
 70
     1
102
RTVSPropertyOp50
 70
     1
102
RTVSPropertyOp51
 70
     0
102
RTVSPropertyOp52
 70
     0
102
RTVSPropertyOp53
 70
     1
102
RTVSPropertyOp54
 70
     1
102
RTVSPropertyOp55
 70
     1
102
RTVSPropertyOp56
 70
     1
102
RTVSPropertyOp57
 70
     1
102
RTVSPost2010Prop28
280
     0
102
RTVSPost2010PropOp28
 70
     1
102
RTVSPost2010Prop29
280
     1
102
RTVSPost2010PropOp29
 70
     1
102
RTVSPost2010Prop30
280
     1
102
RTVSPost2010PropOp30
 70
     1
102
RTVSPost2010Prop31
280
     0
102
RTVSPost2010PropOp31
 70
     1
102
RTVSPost2010Prop32
280
     0
102
RTVSPost2010PropOp32
 70
     1
102
RTVSPost2010Prop33
280
     0
102
RTVSPost2010PropOp33
 70
     1
102
RTVSPost2010Prop34
280
     0
102
RTVSPost2010PropOp34
 70
     1
102
RTVSPost2010Prop35
280
     0
102
RTVSPost2010PropOp35
 70
     1
102
RTVSPost2010Prop36
280
     0
102
RTVSPost2010PropOp36
 70
     1
102
RTVSPost2010Prop37
 90
       50
102
RTVSPost2010PropOp37
 70
     1
102
RTVSPost2010Prop38
140
0.0
102
RTVSPost2010PropOp38
 70
     1
102
RTVSPost2010Prop39
140
1.0
102
RTVSPost2010PropOp39
 70
     1
102
RTVSPost2010Prop40
 90
        0
102
RTVSPost2010PropOp40
 70
     1
102
RTVSPost2010Prop41ColorIndex
 90
       18
102
RTVSPost2010Prop41ColorRGB
 90
        0
102
RTVSPost2010PropOp41
 70
     1
102
RTVSPost2010Prop42
 90
       50
102
RTVSPost2010PropOp42
 70
     1
102
RTVSPost2010Prop43
 90
        3
102
RTVSPost2010PropOp43
 70
     1
102
RTVSPost2010Prop44ColorIndex
 90
        5
102
RTVSPost2010Prop44ColorRGB
 90
      255
102
RTVSPost2010PropOp44
 70
     1
102
RTVSPost2010Prop45
280
     0
102
RTVSPost2010PropOp45
 70
     1
102
RTVSPost2010Prop46
 90
       50
102
RTVSPost2010PropOp46
 70
     1
102
RTVSPost2010Prop47
 90
       50
102
RTVSPost2010PropOp47
 70
     1
102
RTVSPost2010Prop48
 90
       50
102
RTVSPost2010PropOp48
 70
     1
102
RTVSPost2010Prop49
280
     0
102
RTVSPost2010PropOp49
 70
     1
102
RTVSPost2010Prop50
 90
       50
102
RTVSPost2010PropOp50
 70
     1
102
RTVSPost2010Prop51ColorIndex
 90
      256
102
RTVSPost2010Prop51ColorRGB
 90
-16777216
102
RTVSPost2010PropOp51
 70
     0
102
RTVSPost2010Prop52
140
1.0
102
RTVSPost2010PropOp52
 70
     0
102
RTVSPost2010Prop53
 90
        2
102
RTVSPost2010PropOp53
 70
     1
102
RTVSPost2010Prop54
  1
strokes_ogs.tif
102
RTVSPost2010PropOp54
 70
     1
102
RTVSPost2010Prop55
280
     0
102
RTVSPost2010PropOp55
 70
     1
102
RTVSPost2010Prop56
140
1.0
102
RTVSPost2010PropOp56
 70
     1
102
RTVSPost2010Prop57
140
1.0
102
RTVSPost2010PropOp57
 70
     1
  0
XRECORD
  5
248
102
{ACAD_REACTORS
330
247
102
}
330
247
100
AcDbXrecord
280
     1
102
RTVSPropertyOp0
 70
     0
102
RTVSPropertyOp1
 70
     0
102
RTVSPropertyOp2
 70
     0
102
RTVSPropertyOp3
 70
     0
102
RTVSPropertyOp4
 70
     0
102
RTVSPropertyOp5
 70
     0
102
RTVSPropertyOp6
 70
     0
102
RTVSPropertyOp7
 70
     0
102
RTVSPropertyOp8
 70
     0
102
RTVSPropertyOp9
 70
     0
102
RTVSPropertyOp10
 70
     0
102
RTVSPropertyOp11
 70
     0
102
RTVSPropertyOp12
 70
     0
102
RTVSPropertyOp13
 70
     0
102
RTVSPropertyOp14
 70
     2
102
RTVSPropertyOp15
 70
     0
102
RTVSPropertyOp16
 70
     0
102
RTVSPropertyOp17
 70
     0
102
RTVSPropertyOp18
 70
     0
102
RTVSPropertyOp19
 70
     0
102
RTVSPropertyOp20
 70
     0
102
RTVSPropertyOp21
 70
     0
102
RTVSPropertyOp22
 70
     0
102
RTVSPropertyOp23
 70
     0
102
RTVSPropertyOp24
 70
     0
102
RTVSPropertyOp25
 70
     0
102
RTVSPropertyOp26
 70
     0
102
RTVSPropertyOp27
 70
     0
102
RTVSPropertyOp28
 70
     0
102
RTVSPropertyOp29
 70
     0
102
RTVSPropertyOp30
 70
     0
102
RTVSPropertyOp31
 70
     0
102
RTVSPropertyOp32
 70
     0
102
RTVSPropertyOp33
 70
     0
102
RTVSPropertyOp34
 70
     0
102
RTVSPropertyOp35
 70
     0
102
RTVSPropertyOp36
 70
     0
102
RTVSPropertyOp37
 70
     0
102
RTVSPropertyOp38
 70
     0
102
RTVSPropertyOp39
 70
     0
102
RTVSPropertyOp40
 70
     0
102
RTVSPropertyOp41
 70
     0
102
RTVSPropertyOp42
 70
     0
102
RTVSPropertyOp43
 70
     0
102
RTVSPropertyOp44
 70
     0
102
RTVSPropertyOp45
 70
     0
102
RTVSPropertyOp46
 70
     0
102
RTVSPropertyOp47
 70
     0
102
RTVSPropertyOp48
 70
     0
102
RTVSPropertyOp49
 70
     0
102
RTVSPropertyOp50
 70
     0
102
RTVSPropertyOp51
 70
     0
102
RTVSPropertyOp52
 70
     0
102
RTVSPropertyOp53
 70
     0
102
RTVSPropertyOp54
 70
     0
102
RTVSPropertyOp55
 70
     0
102
RTVSPropertyOp56
 70
     0
102
RTVSPropertyOp57
 70
     0
102
RTVSPost2010Prop28
280
     0
102
RTVSPost2010PropOp28
 70
     0
102
RTVSPost2010Prop29
280
     1
102
RTVSPost2010PropOp29
 70
     0
102
RTVSPost2010Prop30
280
     1
102
RTVSPost2010PropOp30
 70
     0
102
RTVSPost2010Prop31
280
     0
102
RTVSPost2010PropOp31
 70
     0
102
RTVSPost2010Prop32
280
     0
102
RTVSPost2010PropOp32
 70
     0
102
RTVSPost2010Prop33
280
     0
102
RTVSPost2010PropOp33
 70
     0
102
RTVSPost2010Prop34
280
     0
102
RTVSPost2010PropOp34
 70
     0
102
RTVSPost2010Prop35
280
     0
102
RTVSPost2010PropOp35
 70
     0
102
RTVSPost2010Prop36
280
     0
102
RTVSPost2010PropOp36
 70
     0
102
RTVSPost2010Prop37
 90
       50
102
RTVSPost2010PropOp37
 70
     0
102
RTVSPost2010Prop38
140
0.0
102
RTVSPost2010PropOp38
 70
     0
102
RTVSPost2010Prop39
140
1.0
102
RTVSPost2010PropOp39
 70
     0
102
RTVSPost2010Prop40
 90
        0
102
RTVSPost2010PropOp40
 70
     0
102
RTVSPost2010Prop41ColorIndex
 90
       18
102
RTVSPost2010Prop41ColorRGB
 90
        0
102
RTVSPost2010PropOp41
 70
     0
102
RTVSPost2010Prop42
 90
       50
102
RTVSPost2010PropOp42
 70
     0
102
RTVSPost2010Prop43
 90
        3
102
RTVSPost2010PropOp43
 70
     0
102
RTVSPost2010Prop44ColorIndex
 90
        5
102
RTVSPost2010Prop44ColorRGB
 90
      255
102
RTVSPost2010PropOp44
 70
     0
102
RTVSPost2010Prop45
280
     0
102
RTVSPost2010PropOp45
 70
     0
102
RTVSPost2010Prop46
 90
       50
102
RTVSPost2010PropOp46
 70
     0
102
RTVSPost2010Prop47
 90
       50
102
RTVSPost2010PropOp47
 70
     0
102
RTVSPost2010Prop48
 90
       50
102
RTVSPost2010PropOp48
 70
     0
102
RTVSPost2010Prop49
280
     0
102
RTVSPost2010PropOp49
 70
     0
102
RTVSPost2010Prop50
 90
       50
102
RTVSPost2010PropOp50
 70
     0
102
RTVSPost2010Prop51ColorIndex
 90
      256
102
RTVSPost2010Prop51ColorRGB
 90
-16777216
102
RTVSPost2010PropOp51
 70
     0
102
RTVSPost2010Prop52
140
1.0
102
RTVSPost2010PropOp52
 70
     0
102
RTVSPost2010Prop53
 90
        2
102
RTVSPost2010PropOp53
 70
     0
102
RTVSPost2010Prop54
  1
strokes_ogs.tif
102
RTVSPost2010PropOp54
 70
     0
102
RTVSPost2010Prop55
280
     0
102
RTVSPost2010PropOp55
 70
     0
102
RTVSPost2010Prop56
140
1.0
102
RTVSPost2010PropOp56
 70
     0
102
RTVSPost2010Prop57
140
1.0
102
RTVSPost2010PropOp57
 70
     0
  0
XRECORD
  5
242
102
{ACAD_REACTORS
330
241
102
}
330
241
100
AcDbXrecord
280
     1
102
RTVSPropertyOp0
 70
     1
102
RTVSPropertyOp1
 70
     1
102
RTVSPropertyOp2
 70
     1
102
RTVSPropertyOp3
 70
     1
102
RTVSPropertyOp4
 70
     1
102
RTVSPropertyOp5
 70
     1
102
RTVSPropertyOp6
 70
     1
102
RTVSPropertyOp7
 70
     1
102
RTVSPropertyOp8
 70
     1
102
RTVSPropertyOp9
 70
     1
102
RTVSPropertyOp10
 70
     1
102
RTVSPropertyOp11
 70
     1
102
RTVSPropertyOp12
 70
     1
102
RTVSPropertyOp13
 70
     1
102
RTVSPropertyOp14
 70
     1
102
RTVSPropertyOp15
 70
     1
102
RTVSPropertyOp16
 70
     1
102
RTVSPropertyOp17
 70
     1
102
RTVSPropertyOp18
 70
     1
102
RTVSPropertyOp19
 70
     1
102
RTVSPropertyOp20
 70
     1
102
RTVSPropertyOp21
 70
     1
102
RTVSPropertyOp22
 70
     1
102
RTVSPropertyOp23
 70
     1
102
RTVSPropertyOp24
 70
     1
102
RTVSPropertyOp25
 70
     1
102
RTVSPropertyOp26
 70
     1
102
RTVSPropertyOp27
 70
     1
102
RTVSPropertyOp28
 70
     1
102
RTVSPropertyOp29
 70
     1
102
RTVSPropertyOp30
 70
     1
102
RTVSPropertyOp31
 70
     1
102
RTVSPropertyOp32
 70
     1
102
RTVSPropertyOp33
 70
     1
102
RTVSPropertyOp34
 70
     1
102
RTVSPropertyOp35
 70
     1
102
RTVSPropertyOp36
 70
     1
102
RTVSPropertyOp37
 70
     1
102
RTVSPropertyOp38
 70
     1
102
RTVSPropertyOp39
 70
     1
102
RTVSPropertyOp40
 70
     1
102
RTVSPropertyOp41
 70
     1
102
RTVSPropertyOp42
 70
     1
102
RTVSPropertyOp43
 70
     1
102
RTVSPropertyOp44
 70
     1
102
RTVSPropertyOp45
 70
     1
102
RTVSPropertyOp46
 70
     1
102
RTVSPropertyOp47
 70
     1
102
RTVSPropertyOp48
 70
     1
102
RTVSPropertyOp49
 70
     1
102
RTVSPropertyOp50
 70
     1
102
RTVSPropertyOp51
 70
     0
102
RTVSPropertyOp52
 70
     0
102
RTVSPropertyOp53
 70
     1
102
RTVSPropertyOp54
 70
     1
102
RTVSPropertyOp55
 70
     1
102
RTVSPropertyOp56
 70
     1
102
RTVSPropertyOp57
 70
     1
102
RTVSPost2010Prop28
280
     0
102
RTVSPost2010PropOp28
 70
     1
102
RTVSPost2010Prop29
280
     1
102
RTVSPost2010PropOp29
 70
     1
102
RTVSPost2010Prop30
280
     1
102
RTVSPost2010PropOp30
 70
     1
102
RTVSPost2010Prop31
280
     0
102
RTVSPost2010PropOp31
 70
     1
102
RTVSPost2010Prop32
280
     0
102
RTVSPost2010PropOp32
 70
     1
102
RTVSPost2010Prop33
280
     0
102
RTVSPost2010PropOp33
 70
     1
102
RTVSPost2010Prop34
280
     0
102
RTVSPost2010PropOp34
 70
     1
102
RTVSPost2010Prop35
280
     0
102
RTVSPost2010PropOp35
 70
     1
102
RTVSPost2010Prop36
280
     0
102
RTVSPost2010PropOp36
 70
     1
102
RTVSPost2010Prop37
 90
       50
102
RTVSPost2010PropOp37
 70
     1
102
RTVSPost2010Prop38
140
0.0
102
RTVSPost2010PropOp38
 70
     1
102
RTVSPost2010Prop39
140
1.0
102
RTVSPost2010PropOp39
 70
     1
102
RTVSPost2010Prop40
 90
        0
102
RTVSPost2010PropOp40
 70
     1
102
RTVSPost2010Prop41ColorIndex
 90
       18
102
RTVSPost2010Prop41ColorRGB
 90
        0
102
RTVSPost2010PropOp41
 70
     1
102
RTVSPost2010Prop42
 90
       50
102
RTVSPost2010PropOp42
 70
     1
102
RTVSPost2010Prop43
 90
        3
102
RTVSPost2010PropOp43
 70
     1
102
RTVSPost2010Prop44ColorIndex
 90
        5
102
RTVSPost2010Prop44ColorRGB
 90
      255
102
RTVSPost2010PropOp44
 70
     1
102
RTVSPost2010Prop45
280
     0
102
RTVSPost2010PropOp45
 70
     1
102
RTVSPost2010Prop46
 90
       50
102
RTVSPost2010PropOp46
 70
     1
102
RTVSPost2010Prop47
 90
       50
102
RTVSPost2010PropOp47
 70
     1
102
RTVSPost2010Prop48
 90
       50
102
RTVSPost2010PropOp48
 70
     1
102
RTVSPost2010Prop49
280
     0
102
RTVSPost2010PropOp49
 70
     1
102
RTVSPost2010Prop50
 90
       50
102
RTVSPost2010PropOp50
 70
     1
102
RTVSPost2010Prop51ColorIndex
 90
      256
102
RTVSPost2010Prop51ColorRGB
 90
-16777216
102
RTVSPost2010PropOp51
 70
     0
102
RTVSPost2010Prop52
140
1.0
102
RTVSPost2010PropOp52
 70
     0
102
RTVSPost2010Prop53
 90
        2
102
RTVSPost2010PropOp53
 70
     1
102
RTVSPost2010Prop54
  1
strokes_ogs.tif
102
RTVSPost2010PropOp54
 70
     1
102
RTVSPost2010Prop55
280
     0
102
RTVSPost2010PropOp55
 70
     1
102
RTVSPost2010Prop56
140
1.0
102
RTVSPost2010PropOp56
 70
     1
102
RTVSPost2010Prop57
140
1.0
102
RTVSPost2010PropOp57
 70
     1
  0
XRECORD
  5
24A
102
{ACAD_REACTORS
330
249
102
}
330
249
100
AcDbXrecord
280
     1
102
RTVSPropertyOp0
 70
     0
102
RTVSPropertyOp1
 70
     0
102
RTVSPropertyOp2
 70
     0
102
RTVSPropertyOp3
 70
     0
102
RTVSPropertyOp4
 70
     0
102
RTVSPropertyOp5
 70
     0
102
RTVSPropertyOp6
 70
     0
102
RTVSPropertyOp7
 70
     0
102
RTVSPropertyOp8
 70
     0
102
RTVSPropertyOp9
 70
     0
102
RTVSPropertyOp10
 70
     0
102
RTVSPropertyOp11
 70
     0
102
RTVSPropertyOp12
 70
     0
102
RTVSPropertyOp13
 70
     0
102
RTVSPropertyOp14
 70
     2
102
RTVSPropertyOp15
 70
     0
102
RTVSPropertyOp16
 70
     0
102
RTVSPropertyOp17
 70
     0
102
RTVSPropertyOp18
 70
     0
102
RTVSPropertyOp19
 70
     0
102
RTVSPropertyOp20
 70
     0
102
RTVSPropertyOp21
 70
     0
102
RTVSPropertyOp22
 70
     0
102
RTVSPropertyOp23
 70
     0
102
RTVSPropertyOp24
 70
     0
102
RTVSPropertyOp25
 70
     0
102
RTVSPropertyOp26
 70
     0
102
RTVSPropertyOp27
 70
     0
102
RTVSPropertyOp28
 70
     0
102
RTVSPropertyOp29
 70
     0
102
RTVSPropertyOp30
 70
     0
102
RTVSPropertyOp31
 70
     0
102
RTVSPropertyOp32
 70
     0
102
RTVSPropertyOp33
 70
     0
102
RTVSPropertyOp34
 70
     0
102
RTVSPropertyOp35
 70
     0
102
RTVSPropertyOp36
 70
     0
102
RTVSPropertyOp37
 70
     0
102
RTVSPropertyOp38
 70
     0
102
RTVSPropertyOp39
 70
     0
102
RTVSPropertyOp40
 70
     0
102
RTVSPropertyOp41
 70
     0
102
RTVSPropertyOp42
 70
     0
102
RTVSPropertyOp43
 70
     0
102
RTVSPropertyOp44
 70
     0
102
RTVSPropertyOp45
 70
     0
102
RTVSPropertyOp46
 70
     0
102
RTVSPropertyOp47
 70
     0
102
RTVSPropertyOp48
 70
     0
102
RTVSPropertyOp49
 70
     0
102
RTVSPropertyOp50
 70
     0
102
RTVSPropertyOp51
 70
     0
102
RTVSPropertyOp52
 70
     0
102
RTVSPropertyOp53
 70
     0
102
RTVSPropertyOp54
 70
     0
102
RTVSPropertyOp55
 70
     0
102
RTVSPropertyOp56
 70
     0
102
RTVSPropertyOp57
 70
     0
102
RTVSPost2010Prop28
280
     0
102
RTVSPost2010PropOp28
 70
     0
102
RTVSPost2010Prop29
280
     1
102
RTVSPost2010PropOp29
 70
     0
102
RTVSPost2010Prop30
280
     1
102
RTVSPost2010PropOp30
 70
     0
102
RTVSPost2010Prop31
280
     0
102
RTVSPost2010PropOp31
 70
     0
102
RTVSPost2010Prop32
280
     0
102
RTVSPost2010PropOp32
 70
     0
102
RTVSPost2010Prop33
280
     0
102
RTVSPost2010PropOp33
 70
     0
102
RTVSPost2010Prop34
280
     0
102
RTVSPost2010PropOp34
 70
     0
102
RTVSPost2010Prop35
280
     0
102
RTVSPost2010PropOp35
 70
     0
102
RTVSPost2010Prop36
280
     0
102
RTVSPost2010PropOp36
 70
     0
102
RTVSPost2010Prop37
 90
       50
102
RTVSPost2010PropOp37
 70
     0
102
RTVSPost2010Prop38
140
0.0
102
RTVSPost2010PropOp38
 70
     0
102
RTVSPost2010Prop39
140
1.0
102
RTVSPost2010PropOp39
 70
     0
102
RTVSPost2010Prop40
 90
        0
102
RTVSPost2010PropOp40
 70
     0
102
RTVSPost2010Prop41ColorIndex
 90
       18
102
RTVSPost2010Prop41ColorRGB
 90
        0
102
RTVSPost2010PropOp41
 70
     0
102
RTVSPost2010Prop42
 90
       50
102
RTVSPost2010PropOp42
 70
     0
102
RTVSPost2010Prop43
 90
        3
102
RTVSPost2010PropOp43
 70
     0
102
RTVSPost2010Prop44ColorIndex
 90
        5
102
RTVSPost2010Prop44ColorRGB
 90
      255
102
RTVSPost2010PropOp44
 70
     0
102
RTVSPost2010Prop45
280
     0
102
RTVSPost2010PropOp45
 70
     0
102
RTVSPost2010Prop46
 90
       50
102
RTVSPost2010PropOp46
 70
     0
102
RTVSPost2010Prop47
 90
       50
102
RTVSPost2010PropOp47
 70
     0
102
RTVSPost2010Prop48
 90
       50
102
RTVSPost2010PropOp48
 70
     0
102
RTVSPost2010Prop49
280
     0
102
RTVSPost2010PropOp49
 70
     0
102
RTVSPost2010Prop50
 90
       50
102
RTVSPost2010PropOp50
 70
     0
102
RTVSPost2010Prop51ColorIndex
 90
      256
102
RTVSPost2010Prop51ColorRGB
 90
-16777216
102
RTVSPost2010PropOp51
 70
     0
102
RTVSPost2010Prop52
140
1.0
102
RTVSPost2010PropOp52
 70
     0
102
RTVSPost2010Prop53
 90
        2
102
RTVSPost2010PropOp53
 70
     0
102
RTVSPost2010Prop54
  1
strokes_ogs.tif
102
RTVSPost2010PropOp54
 70
     0
102
RTVSPost2010Prop55
280
     0
102
RTVSPost2010PropOp55
 70
     0
102
RTVSPost2010Prop56
140
1.0
102
RTVSPost2010PropOp56
 70
     0
102
RTVSPost2010Prop57
140
1.0
102
RTVSPost2010PropOp57
 70
     0
  0
XRECORD
  5
238
102
{ACAD_REACTORS
330
237
102
}
330
237
100
AcDbXrecord
280
     1
102
RTVSPropertyOp0
 70
     1
102
RTVSPropertyOp1
 70
     1
102
RTVSPropertyOp2
 70
     1
102
RTVSPropertyOp3
 70
     1
102
RTVSPropertyOp4
 70
     1
102
RTVSPropertyOp5
 70
     1
102
RTVSPropertyOp6
 70
     1
102
RTVSPropertyOp7
 70
     1
102
RTVSPropertyOp8
 70
     1
102
RTVSPropertyOp9
 70
     1
102
RTVSPropertyOp10
 70
     1
102
RTVSPropertyOp11
 70
     1
102
RTVSPropertyOp12
 70
     1
102
RTVSPropertyOp13
 70
     1
102
RTVSPropertyOp14
 70
     1
102
RTVSPropertyOp15
 70
     1
102
RTVSPropertyOp16
 70
     1
102
RTVSPropertyOp17
 70
     1
102
RTVSPropertyOp18
 70
     1
102
RTVSPropertyOp19
 70
     1
102
RTVSPropertyOp20
 70
     1
102
RTVSPropertyOp21
 70
     1
102
RTVSPropertyOp22
 70
     1
102
RTVSPropertyOp23
 70
     1
102
RTVSPropertyOp24
 70
     1
102
RTVSPropertyOp25
 70
     1
102
RTVSPropertyOp26
 70
     1
102
RTVSPropertyOp27
 70
     1
102
RTVSPropertyOp28
 70
     1
102
RTVSPropertyOp29
 70
     1
102
RTVSPropertyOp30
 70
     1
102
RTVSPropertyOp31
 70
     1
102
RTVSPropertyOp32
 70
     1
102
RTVSPropertyOp33
 70
     1
102
RTVSPropertyOp34
 70
     1
102
RTVSPropertyOp35
 70
     1
102
RTVSPropertyOp36
 70
     1
102
RTVSPropertyOp37
 70
     1
102
RTVSPropertyOp38
 70
     1
102
RTVSPropertyOp39
 70
     1
102
RTVSPropertyOp40
 70
     1
102
RTVSPropertyOp41
 70
     1
102
RTVSPropertyOp42
 70
     1
102
RTVSPropertyOp43
 70
     1
102
RTVSPropertyOp44
 70
     1
102
RTVSPropertyOp45
 70
     1
102
RTVSPropertyOp46
 70
     1
102
RTVSPropertyOp47
 70
     1
102
RTVSPropertyOp48
 70
     1
102
RTVSPropertyOp49
 70
     1
102
RTVSPropertyOp50
 70
     1
102
RTVSPropertyOp51
 70
     0
102
RTVSPropertyOp52
 70
     0
102
RTVSPropertyOp53
 70
     1
102
RTVSPropertyOp54
 70
     1
102
RTVSPropertyOp55
 70
     1
102
RTVSPropertyOp56
 70
     1
102
RTVSPropertyOp57
 70
     1
102
RTVSPost2010Prop28
280
     0
102
RTVSPost2010PropOp28
 70
     1
102
RTVSPost2010Prop29
280
     1
102
RTVSPost2010PropOp29
 70
     1
102
RTVSPost2010Prop30
280
     1
102
RTVSPost2010PropOp30
 70
     1
102
RTVSPost2010Prop31
280
     0
102
RTVSPost2010PropOp31
 70
     1
102
RTVSPost2010Prop32
280
     0
102
RTVSPost2010PropOp32
 70
     1
102
RTVSPost2010Prop33
280
     0
102
RTVSPost2010PropOp33
 70
     1
102
RTVSPost2010Prop34
280
     0
102
RTVSPost2010PropOp34
 70
     1
102
RTVSPost2010Prop35
280
     0
102
RTVSPost2010PropOp35
 70
     1
102
RTVSPost2010Prop36
280
     0
102
RTVSPost2010PropOp36
 70
     1
102
RTVSPost2010Prop37
 90
       50
102
RTVSPost2010PropOp37
 70
     1
102
RTVSPost2010Prop38
140
0.0
102
RTVSPost2010PropOp38
 70
     1
102
RTVSPost2010Prop39
140
1.0
102
RTVSPost2010PropOp39
 70
     1
102
RTVSPost2010Prop40
 90
        0
102
RTVSPost2010PropOp40
 70
     1
102
RTVSPost2010Prop41ColorIndex
 90
       18
102
RTVSPost2010Prop41ColorRGB
 90
        0
102
RTVSPost2010PropOp41
 70
     1
102
RTVSPost2010Prop42
 90
       50
102
RTVSPost2010PropOp42
 70
     1
102
RTVSPost2010Prop43
 90
        3
102
RTVSPost2010PropOp43
 70
     1
102
RTVSPost2010Prop44ColorIndex
 90
        5
102
RTVSPost2010Prop44ColorRGB
 90
      255
102
RTVSPost2010PropOp44
 70
     1
102
RTVSPost2010Prop45
280
     0
102
RTVSPost2010PropOp45
 70
     1
102
RTVSPost2010Prop46
 90
       50
102
RTVSPost2010PropOp46
 70
     1
102
RTVSPost2010Prop47
 90
       50
102
RTVSPost2010PropOp47
 70
     1
102
RTVSPost2010Prop48
 90
       50
102
RTVSPost2010PropOp48
 70
     1
102
RTVSPost2010Prop49
280
     0
102
RTVSPost2010PropOp49
 70
     1
102
RTVSPost2010Prop50
 90
       50
102
RTVSPost2010PropOp50
 70
     1
102
RTVSPost2010Prop51ColorIndex
 90
      256
102
RTVSPost2010Prop51ColorRGB
 90
-16777216
102
RTVSPost2010PropOp51
 70
     0
102
RTVSPost2010Prop52
140
1.0
102
RTVSPost2010PropOp52
 70
     0
102
RTVSPost2010Prop53
 90
        2
102
RTVSPost2010PropOp53
 70
     1
102
RTVSPost2010Prop54
  1
strokes_ogs.tif
102
RTVSPost2010PropOp54
 70
     1
102
RTVSPost2010Prop55
280
     0
102
RTVSPost2010PropOp55
 70
     1
102
RTVSPost2010Prop56
140
1.0
102
RTVSPost2010PropOp56
 70
     1
102
RTVSPost2010Prop57
140
1.0
102
RTVSPost2010PropOp57
 70
     1
  0
XRECORD
  5
256
102
{ACAD_REACTORS
330
255
102
}
330
255
100
AcDbXrecord
280
     1
102
RTVSPropertyOp0
 70
     1
102
RTVSPropertyOp1
 70
     1
102
RTVSPropertyOp2
 70
     1
102
RTVSPropertyOp3
 70
     1
102
RTVSPropertyOp4
 70
     1
102
RTVSPropertyOp5
 70
     1
102
RTVSPropertyOp6
 70
     1
102
RTVSPropertyOp7
 70
     1
102
RTVSPropertyOp8
 70
     1
102
RTVSPropertyOp9
 70
     1
102
RTVSPropertyOp10
 70
     1
102
RTVSPropertyOp11
 70
     1
102
RTVSPropertyOp12
 70
     1
102
RTVSPropertyOp13
 70
     1
102
RTVSPropertyOp14
 70
     1
102
RTVSPropertyOp15
 70
     1
102
RTVSPropertyOp16
 70
     1
102
RTVSPropertyOp17
 70
     1
102
RTVSPropertyOp18
 70
     1
102
RTVSPropertyOp19
 70
     1
102
RTVSPropertyOp20
 70
     1
102
RTVSPropertyOp21
 70
     1
102
RTVSPropertyOp22
 70
     1
102
RTVSPropertyOp23
 70
     1
102
RTVSPropertyOp24
 70
     1
102
RTVSPropertyOp25
 70
     1
102
RTVSPropertyOp26
 70
     1
102
RTVSPropertyOp27
 70
     1
102
RTVSPropertyOp28
 70
     1
102
RTVSPropertyOp29
 70
     1
102
RTVSPropertyOp30
 70
     1
102
RTVSPropertyOp31
 70
     1
102
RTVSPropertyOp32
 70
     1
102
RTVSPropertyOp33
 70
     1
102
RTVSPropertyOp34
 70
     1
102
RTVSPropertyOp35
 70
     1
102
RTVSPropertyOp36
 70
     1
102
RTVSPropertyOp37
 70
     1
102
RTVSPropertyOp38
 70
     1
102
RTVSPropertyOp39
 70
     1
102
RTVSPropertyOp40
 70
     1
102
RTVSPropertyOp41
 70
     1
102
RTVSPropertyOp42
 70
     1
102
RTVSPropertyOp43
 70
     1
102
RTVSPropertyOp44
 70
     1
102
RTVSPropertyOp45
 70
     1
102
RTVSPropertyOp46
 70
     1
102
RTVSPropertyOp47
 70
     1
102
RTVSPropertyOp48
 70
     1
102
RTVSPropertyOp49
 70
     1
102
RTVSPropertyOp50
 70
     1
102
RTVSPropertyOp51
 70
     0
102
RTVSPropertyOp52
 70
     0
102
RTVSPropertyOp53
 70
     1
102
RTVSPropertyOp54
 70
     1
102
RTVSPropertyOp55
 70
     1
102
RTVSPropertyOp56
 70
     1
102
RTVSPropertyOp57
 70
     1
102
RTVSPost2010Prop28
280
     0
102
RTVSPost2010PropOp28
 70
     1
102
RTVSPost2010Prop29
280
     1
102
RTVSPost2010PropOp29
 70
     1
102
RTVSPost2010Prop30
280
     1
102
RTVSPost2010PropOp30
 70
     1
102
RTVSPost2010Prop31
280
     0
102
RTVSPost2010PropOp31
 70
     1
102
RTVSPost2010Prop32
280
     0
102
RTVSPost2010PropOp32
 70
     1
102
RTVSPost2010Prop33
280
     0
102
RTVSPost2010PropOp33
 70
     1
102
RTVSPost2010Prop34
280
     0
102
RTVSPost2010PropOp34
 70
     1
102
RTVSPost2010Prop35
280
     0
102
RTVSPost2010PropOp35
 70
     1
102
RTVSPost2010Prop36
280
     0
102
RTVSPost2010PropOp36
 70
     1
102
RTVSPost2010Prop37
 90
       50
102
RTVSPost2010PropOp37
 70
     1
102
RTVSPost2010Prop38
140
0.0
102
RTVSPost2010PropOp38
 70
     1
102
RTVSPost2010Prop39
140
1.0
102
RTVSPost2010PropOp39
 70
     1
102
RTVSPost2010Prop40
 90
        0
102
RTVSPost2010PropOp40
 70
     1
102
RTVSPost2010Prop41ColorIndex
 90
       18
102
RTVSPost2010Prop41ColorRGB
 90
        0
102
RTVSPost2010PropOp41
 70
     1
102
RTVSPost2010Prop42
 90
       50
102
RTVSPost2010PropOp42
 70
     1
102
RTVSPost2010Prop43
 90
        3
102
RTVSPost2010PropOp43
 70
     1
102
RTVSPost2010Prop44ColorIndex
 90
        5
102
RTVSPost2010Prop44ColorRGB
 90
      255
102
RTVSPost2010PropOp44
 70
     1
102
RTVSPost2010Prop45
280
     0
102
RTVSPost2010PropOp45
 70
     1
102
RTVSPost2010Prop46
 90
       50
102
RTVSPost2010PropOp46
 70
     1
102
RTVSPost2010Prop47
 90
       50
102
RTVSPost2010PropOp47
 70
     1
102
RTVSPost2010Prop48
 90
       50
102
RTVSPost2010PropOp48
 70
     1
102
RTVSPost2010Prop49
280
     0
102
RTVSPost2010PropOp49
 70
     1
102
RTVSPost2010Prop50
 90
       50
102
RTVSPost2010PropOp50
 70
     1
102
RTVSPost2010Prop51ColorIndex
 90
      256
102
RTVSPost2010Prop51ColorRGB
 90
-16777216
102
RTVSPost2010PropOp51
 70
     0
102
RTVSPost2010Prop52
140
1.0
102
RTVSPost2010PropOp52
 70
     0
102
RTVSPost2010Prop53
 90
        2
102
RTVSPost2010PropOp53
 70
     1
102
RTVSPost2010Prop54
  1
strokes_ogs.tif
102
RTVSPost2010PropOp54
 70
     1
102
RTVSPost2010Prop55
280
     0
102
RTVSPost2010PropOp55
 70
     1
102
RTVSPost2010Prop56
140
1.0
102
RTVSPost2010PropOp56
 70
     1
102
RTVSPost2010Prop57
140
1.0
102
RTVSPost2010PropOp57
 70
     1
  0
XRECORD
  5
254
102
{ACAD_REACTORS
330
253
102
}
330
253
100
AcDbXrecord
280
     1
102
RTVSPropertyOp0
 70
     1
102
RTVSPropertyOp1
 70
     1
102
RTVSPropertyOp2
 70
     1
102
RTVSPropertyOp3
 70
     1
102
RTVSPropertyOp4
 70
     1
102
RTVSPropertyOp5
 70
     1
102
RTVSPropertyOp6
 70
     1
102
RTVSPropertyOp7
 70
     1
102
RTVSPropertyOp8
 70
     1
102
RTVSPropertyOp9
 70
     1
102
RTVSPropertyOp10
 70
     1
102
RTVSPropertyOp11
 70
     1
102
RTVSPropertyOp12
 70
     1
102
RTVSPropertyOp13
 70
     1
102
RTVSPropertyOp14
 70
     1
102
RTVSPropertyOp15
 70
     1
102
RTVSPropertyOp16
 70
     1
102
RTVSPropertyOp17
 70
     1
102
RTVSPropertyOp18
 70
     1
102
RTVSPropertyOp19
 70
     1
102
RTVSPropertyOp20
 70
     1
102
RTVSPropertyOp21
 70
     1
102
RTVSPropertyOp22
 70
     1
102
RTVSPropertyOp23
 70
     1
102
RTVSPropertyOp24
 70
     1
102
RTVSPropertyOp25
 70
     1
102
RTVSPropertyOp26
 70
     1
102
RTVSPropertyOp27
 70
     1
102
RTVSPropertyOp28
 70
     1
102
RTVSPropertyOp29
 70
     1
102
RTVSPropertyOp30
 70
     1
102
RTVSPropertyOp31
 70
     1
102
RTVSPropertyOp32
 70
     1
102
RTVSPropertyOp33
 70
     1
102
RTVSPropertyOp34
 70
     1
102
RTVSPropertyOp35
 70
     1
102
RTVSPropertyOp36
 70
     1
102
RTVSPropertyOp37
 70
     1
102
RTVSPropertyOp38
 70
     1
102
RTVSPropertyOp39
 70
     1
102
RTVSPropertyOp40
 70
     1
102
RTVSPropertyOp41
 70
     1
102
RTVSPropertyOp42
 70
     1
102
RTVSPropertyOp43
 70
     1
102
RTVSPropertyOp44
 70
     1
102
RTVSPropertyOp45
 70
     1
102
RTVSPropertyOp46
 70
     1
102
RTVSPropertyOp47
 70
     1
102
RTVSPropertyOp48
 70
     1
102
RTVSPropertyOp49
 70
     1
102
RTVSPropertyOp50
 70
     1
102
RTVSPropertyOp51
 70
     0
102
RTVSPropertyOp52
 70
     0
102
RTVSPropertyOp53
 70
     1
102
RTVSPropertyOp54
 70
     1
102
RTVSPropertyOp55
 70
     1
102
RTVSPropertyOp56
 70
     1
102
RTVSPropertyOp57
 70
     1
102
RTVSPost2010Prop28
280
     0
102
RTVSPost2010PropOp28
 70
     1
102
RTVSPost2010Prop29
280
     1
102
RTVSPost2010PropOp29
 70
     1
102
RTVSPost2010Prop30
280
     1
102
RTVSPost2010PropOp30
 70
     1
102
RTVSPost2010Prop31
280
     0
102
RTVSPost2010PropOp31
 70
     1
102
RTVSPost2010Prop32
280
     0
102
RTVSPost2010PropOp32
 70
     1
102
RTVSPost2010Prop33
280
     0
102
RTVSPost2010PropOp33
 70
     1
102
RTVSPost2010Prop34
280
     0
102
RTVSPost2010PropOp34
 70
     1
102
RTVSPost2010Prop35
280
     0
102
RTVSPost2010PropOp35
 70
     1
102
RTVSPost2010Prop36
280
     0
102
RTVSPost2010PropOp36
 70
     1
102
RTVSPost2010Prop37
 90
       50
102
RTVSPost2010PropOp37
 70
     1
102
RTVSPost2010Prop38
140
0.0
102
RTVSPost2010PropOp38
 70
     1
102
RTVSPost2010Prop39
140
1.0
102
RTVSPost2010PropOp39
 70
     1
102
RTVSPost2010Prop40
 90
        0
102
RTVSPost2010PropOp40
 70
     1
102
RTVSPost2010Prop41ColorIndex
 90
       18
102
RTVSPost2010Prop41ColorRGB
 90
        0
102
RTVSPost2010PropOp41
 70
     1
102
RTVSPost2010Prop42
 90
       50
102
RTVSPost2010PropOp42
 70
     1
102
RTVSPost2010Prop43
 90
        3
102
RTVSPost2010PropOp43
 70
     1
102
RTVSPost2010Prop44ColorIndex
 90
        5
102
RTVSPost2010Prop44ColorRGB
 90
      255
102
RTVSPost2010PropOp44
 70
     1
102
RTVSPost2010Prop45
280
     0
102
RTVSPost2010PropOp45
 70
     1
102
RTVSPost2010Prop46
 90
       50
102
RTVSPost2010PropOp46
 70
     1
102
RTVSPost2010Prop47
 90
       50
102
RTVSPost2010PropOp47
 70
     1
102
RTVSPost2010Prop48
 90
       50
102
RTVSPost2010PropOp48
 70
     1
102
RTVSPost2010Prop49
280
     0
102
RTVSPost2010PropOp49
 70
     1
102
RTVSPost2010Prop50
 90
       50
102
RTVSPost2010PropOp50
 70
     1
102
RTVSPost2010Prop51ColorIndex
 90
      256
102
RTVSPost2010Prop51ColorRGB
 90
-16777216
102
RTVSPost2010PropOp51
 70
     0
102
RTVSPost2010Prop52
140
1.0
102
RTVSPost2010PropOp52
 70
     0
102
RTVSPost2010Prop53
 90
        2
102
RTVSPost2010PropOp53
 70
     1
102
RTVSPost2010Prop54
  1
strokes_ogs.tif
102
RTVSPost2010PropOp54
 70
     1
102
RTVSPost2010Prop55
280
     0
102
RTVSPost2010PropOp55
 70
     1
102
RTVSPost2010Prop56
140
1.0
102
RTVSPost2010PropOp56
 70
     1
102
RTVSPost2010Prop57
140
1.0
102
RTVSPost2010PropOp57
 70
     1
  0
XRECORD
  5
24E
102
{ACAD_REACTORS
330
24D
102
}
330
24D
100
AcDbXrecord
280
     1
102
RTVSPropertyOp0
 70
     1
102
RTVSPropertyOp1
 70
     1
102
RTVSPropertyOp2
 70
     1
102
RTVSPropertyOp3
 70
     1
102
RTVSPropertyOp4
 70
     1
102
RTVSPropertyOp5
 70
     1
102
RTVSPropertyOp6
 70
     1
102
RTVSPropertyOp7
 70
     1
102
RTVSPropertyOp8
 70
     1
102
RTVSPropertyOp9
 70
     1
102
RTVSPropertyOp10
 70
     1
102
RTVSPropertyOp11
 70
     1
102
RTVSPropertyOp12
 70
     1
102
RTVSPropertyOp13
 70
     1
102
RTVSPropertyOp14
 70
     1
102
RTVSPropertyOp15
 70
     1
102
RTVSPropertyOp16
 70
     1
102
RTVSPropertyOp17
 70
     1
102
RTVSPropertyOp18
 70
     1
102
RTVSPropertyOp19
 70
     1
102
RTVSPropertyOp20
 70
     1
102
RTVSPropertyOp21
 70
     1
102
RTVSPropertyOp22
 70
     1
102
RTVSPropertyOp23
 70
     1
102
RTVSPropertyOp24
 70
     1
102
RTVSPropertyOp25
 70
     1
102
RTVSPropertyOp26
 70
     1
102
RTVSPropertyOp27
 70
     1
102
RTVSPropertyOp28
 70
     1
102
RTVSPropertyOp29
 70
     1
102
RTVSPropertyOp30
 70
     1
102
RTVSPropertyOp31
 70
     1
102
RTVSPropertyOp32
 70
     1
102
RTVSPropertyOp33
 70
     1
102
RTVSPropertyOp34
 70
     1
102
RTVSPropertyOp35
 70
     1
102
RTVSPropertyOp36
 70
     1
102
RTVSPropertyOp37
 70
     1
102
RTVSPropertyOp38
 70
     1
102
RTVSPropertyOp39
 70
     1
102
RTVSPropertyOp40
 70
     1
102
RTVSPropertyOp41
 70
     1
102
RTVSPropertyOp42
 70
     1
102
RTVSPropertyOp43
 70
     1
102
RTVSPropertyOp44
 70
     1
102
RTVSPropertyOp45
 70
     1
102
RTVSPropertyOp46
 70
     1
102
RTVSPropertyOp47
 70
     1
102
RTVSPropertyOp48
 70
     1
102
RTVSPropertyOp49
 70
     1
102
RTVSPropertyOp50
 70
     1
102
RTVSPropertyOp51
 70
     0
102
RTVSPropertyOp52
 70
     0
102
RTVSPropertyOp53
 70
     1
102
RTVSPropertyOp54
 70
     1
102
RTVSPropertyOp55
 70
     1
102
RTVSPropertyOp56
 70
     1
102
RTVSPropertyOp57
 70
     1
102
RTVSPost2010Prop28
280
     0
102
RTVSPost2010PropOp28
 70
     1
102
RTVSPost2010Prop29
280
     1
102
RTVSPost2010PropOp29
 70
     1
102
RTVSPost2010Prop30
280
     1
102
RTVSPost2010PropOp30
 70
     1
102
RTVSPost2010Prop31
280
     0
102
RTVSPost2010PropOp31
 70
     1
102
RTVSPost2010Prop32
280
     0
102
RTVSPost2010PropOp32
 70
     1
102
RTVSPost2010Prop33
280
     0
102
RTVSPost2010PropOp33
 70
     1
102
RTVSPost2010Prop34
280
     0
102
RTVSPost2010PropOp34
 70
     1
102
RTVSPost2010Prop35
280
     0
102
RTVSPost2010PropOp35
 70
     1
102
RTVSPost2010Prop36
280
     0
102
RTVSPost2010PropOp36
 70
     1
102
RTVSPost2010Prop37
 90
       50
102
RTVSPost2010PropOp37
 70
     1
102
RTVSPost2010Prop38
140
0.0
102
RTVSPost2010PropOp38
 70
     1
102
RTVSPost2010Prop39
140
1.0
102
RTVSPost2010PropOp39
 70
     1
102
RTVSPost2010Prop40
 90
        0
102
RTVSPost2010PropOp40
 70
     1
102
RTVSPost2010Prop41ColorIndex
 90
       18
102
RTVSPost2010Prop41ColorRGB
 90
        0
102
RTVSPost2010PropOp41
 70
     1
102
RTVSPost2010Prop42
 90
       50
102
RTVSPost2010PropOp42
 70
     1
102
RTVSPost2010Prop43
 90
        3
102
RTVSPost2010PropOp43
 70
     1
102
RTVSPost2010Prop44ColorIndex
 90
        5
102
RTVSPost2010Prop44ColorRGB
 90
      255
102
RTVSPost2010PropOp44
 70
     1
102
RTVSPost2010Prop45
280
     0
102
RTVSPost2010PropOp45
 70
     1
102
RTVSPost2010Prop46
 90
       50
102
RTVSPost2010PropOp46
 70
     1
102
RTVSPost2010Prop47
 90
       50
102
RTVSPost2010PropOp47
 70
     1
102
RTVSPost2010Prop48
 90
       50
102
RTVSPost2010PropOp48
 70
     1
102
RTVSPost2010Prop49
280
     0
102
RTVSPost2010PropOp49
 70
     1
102
RTVSPost2010Prop50
 90
       50
102
RTVSPost2010PropOp50
 70
     1
102
RTVSPost2010Prop51ColorIndex
 90
      256
102
RTVSPost2010Prop51ColorRGB
 90
-16777216
102
RTVSPost2010PropOp51
 70
     0
102
RTVSPost2010Prop52
140
1.0
102
RTVSPost2010PropOp52
 70
     0
102
RTVSPost2010Prop53
 90
        2
102
RTVSPost2010PropOp53
 70
     1
102
RTVSPost2010Prop54
  1
strokes_ogs.tif
102
RTVSPost2010PropOp54
 70
     1
102
RTVSPost2010Prop55
280
     0
102
RTVSPost2010PropOp55
 70
     1
102
RTVSPost2010Prop56
140
1.0
102
RTVSPost2010PropOp56
 70
     1
102
RTVSPost2010Prop57
140
1.0
102
RTVSPost2010PropOp57
 70
     1
  0
XRECORD
  5
250
102
{ACAD_REACTORS
330
24F
102
}
330
24F
100
AcDbXrecord
280
     1
102
RTVSPropertyOp0
 70
     1
102
RTVSPropertyOp1
 70
     1
102
RTVSPropertyOp2
 70
     1
102
RTVSPropertyOp3
 70
     1
102
RTVSPropertyOp4
 70
     1
102
RTVSPropertyOp5
 70
     1
102
RTVSPropertyOp6
 70
     1
102
RTVSPropertyOp7
 70
     1
102
RTVSPropertyOp8
 70
     1
102
RTVSPropertyOp9
 70
     1
102
RTVSPropertyOp10
 70
     1
102
RTVSPropertyOp11
 70
     1
102
RTVSPropertyOp12
 70
     1
102
RTVSPropertyOp13
 70
     1
102
RTVSPropertyOp14
 70
     1
102
RTVSPropertyOp15
 70
     1
102
RTVSPropertyOp16
 70
     1
102
RTVSPropertyOp17
 70
     1
102
RTVSPropertyOp18
 70
     1
102
RTVSPropertyOp19
 70
     1
102
RTVSPropertyOp20
 70
     1
102
RTVSPropertyOp21
 70
     1
102
RTVSPropertyOp22
 70
     1
102
RTVSPropertyOp23
 70
     1
102
RTVSPropertyOp24
 70
     1
102
RTVSPropertyOp25
 70
     1
102
RTVSPropertyOp26
 70
     1
102
RTVSPropertyOp27
 70
     1
102
RTVSPropertyOp28
 70
     1
102
RTVSPropertyOp29
 70
     1
102
RTVSPropertyOp30
 70
     1
102
RTVSPropertyOp31
 70
     1
102
RTVSPropertyOp32
 70
     1
102
RTVSPropertyOp33
 70
     1
102
RTVSPropertyOp34
 70
     1
102
RTVSPropertyOp35
 70
     1
102
RTVSPropertyOp36
 70
     1
102
RTVSPropertyOp37
 70
     1
102
RTVSPropertyOp38
 70
     1
102
RTVSPropertyOp39
 70
     1
102
RTVSPropertyOp40
 70
     1
102
RTVSPropertyOp41
 70
     1
102
RTVSPropertyOp42
 70
     1
102
RTVSPropertyOp43
 70
     1
102
RTVSPropertyOp44
 70
     1
102
RTVSPropertyOp45
 70
     1
102
RTVSPropertyOp46
 70
     1
102
RTVSPropertyOp47
 70
     1
102
RTVSPropertyOp48
 70
     1
102
RTVSPropertyOp49
 70
     1
102
RTVSPropertyOp50
 70
     1
102
RTVSPropertyOp51
 70
     0
102
RTVSPropertyOp52
 70
     0
102
RTVSPropertyOp53
 70
     1
102
RTVSPropertyOp54
 70
     1
102
RTVSPropertyOp55
 70
     1
102
RTVSPropertyOp56
 70
     1
102
RTVSPropertyOp57
 70
     1
102
RTVSPost2010Prop28
280
     0
102
RTVSPost2010PropOp28
 70
     1
102
RTVSPost2010Prop29
280
     1
102
RTVSPost2010PropOp29
 70
     1
102
RTVSPost2010Prop30
280
     1
102
RTVSPost2010PropOp30
 70
     1
102
RTVSPost2010Prop31
280
     0
102
RTVSPost2010PropOp31
 70
     1
102
RTVSPost2010Prop32
280
     0
102
RTVSPost2010PropOp32
 70
     1
102
RTVSPost2010Prop33
280
     0
102
RTVSPost2010PropOp33
 70
     1
102
RTVSPost2010Prop34
280
     0
102
RTVSPost2010PropOp34
 70
     1
102
RTVSPost2010Prop35
280
     0
102
RTVSPost2010PropOp35
 70
     1
102
RTVSPost2010Prop36
280
     0
102
RTVSPost2010PropOp36
 70
     1
102
RTVSPost2010Prop37
 90
       50
102
RTVSPost2010PropOp37
 70
     1
102
RTVSPost2010Prop38
140
0.0
102
RTVSPost2010PropOp38
 70
     1
102
RTVSPost2010Prop39
140
1.0
102
RTVSPost2010PropOp39
 70
     1
102
RTVSPost2010Prop40
 90
        0
102
RTVSPost2010PropOp40
 70
     1
102
RTVSPost2010Prop41ColorIndex
 90
       18
102
RTVSPost2010Prop41ColorRGB
 90
        0
102
RTVSPost2010PropOp41
 70
     1
102
RTVSPost2010Prop42
 90
       50
102
RTVSPost2010PropOp42
 70
     1
102
RTVSPost2010Prop43
 90
        3
102
RTVSPost2010PropOp43
 70
     1
102
RTVSPost2010Prop44ColorIndex
 90
        5
102
RTVSPost2010Prop44ColorRGB
 90
      255
102
RTVSPost2010PropOp44
 70
     1
102
RTVSPost2010Prop45
280
     0
102
RTVSPost2010PropOp45
 70
     1
102
RTVSPost2010Prop46
 90
       50
102
RTVSPost2010PropOp46
 70
     1
102
RTVSPost2010Prop47
 90
       50
102
RTVSPost2010PropOp47
 70
     1
102
RTVSPost2010Prop48
 90
       50
102
RTVSPost2010PropOp48
 70
     1
102
RTVSPost2010Prop49
280
     0
102
RTVSPost2010PropOp49
 70
     1
102
RTVSPost2010Prop50
 90
       50
102
RTVSPost2010PropOp50
 70
     1
102
RTVSPost2010Prop51ColorIndex
 90
      256
102
RTVSPost2010Prop51ColorRGB
 90
-16777216
102
RTVSPost2010PropOp51
 70
     0
102
RTVSPost2010Prop52
140
1.0
102
RTVSPost2010PropOp52
 70
     0
102
RTVSPost2010Prop53
 90
        2
102
RTVSPost2010PropOp53
 70
     1
102
RTVSPost2010Prop54
  1
strokes_ogs.tif
102
RTVSPost2010PropOp54
 70
     1
102
RTVSPost2010Prop55
280
     0
102
RTVSPost2010PropOp55
 70
     1
102
RTVSPost2010Prop56
140
1.0
102
RTVSPost2010PropOp56
 70
     1
102
RTVSPost2010Prop57
140
1.0
102
RTVSPost2010PropOp57
 70
     1
  0
XRECORD
  5
240
102
{ACAD_REACTORS
330
23F
102
}
330
23F
100
AcDbXrecord
280
     1
102
RTVSPropertyOp0
 70
     1
102
RTVSPropertyOp1
 70
     1
102
RTVSPropertyOp2
 70
     1
102
RTVSPropertyOp3
 70
     1
102
RTVSPropertyOp4
 70
     1
102
RTVSPropertyOp5
 70
     1
102
RTVSPropertyOp6
 70
     1
102
RTVSPropertyOp7
 70
     1
102
RTVSPropertyOp8
 70
     1
102
RTVSPropertyOp9
 70
     1
102
RTVSPropertyOp10
 70
     1
102
RTVSPropertyOp11
 70
     1
102
RTVSPropertyOp12
 70
     1
102
RTVSPropertyOp13
 70
     1
102
RTVSPropertyOp14
 70
     1
102
RTVSPropertyOp15
 70
     1
102
RTVSPropertyOp16
 70
     1
102
RTVSPropertyOp17
 70
     1
102
RTVSPropertyOp18
 70
     1
102
RTVSPropertyOp19
 70
     1
102
RTVSPropertyOp20
 70
     1
102
RTVSPropertyOp21
 70
     1
102
RTVSPropertyOp22
 70
     1
102
RTVSPropertyOp23
 70
     1
102
RTVSPropertyOp24
 70
     1
102
RTVSPropertyOp25
 70
     1
102
RTVSPropertyOp26
 70
     1
102
RTVSPropertyOp27
 70
     1
102
RTVSPropertyOp28
 70
     1
102
RTVSPropertyOp29
 70
     1
102
RTVSPropertyOp30
 70
     1
102
RTVSPropertyOp31
 70
     1
102
RTVSPropertyOp32
 70
     1
102
RTVSPropertyOp33
 70
     1
102
RTVSPropertyOp34
 70
     1
102
RTVSPropertyOp35
 70
     1
102
RTVSPropertyOp36
 70
     1
102
RTVSPropertyOp37
 70
     1
102
RTVSPropertyOp38
 70
     1
102
RTVSPropertyOp39
 70
     1
102
RTVSPropertyOp40
 70
     1
102
RTVSPropertyOp41
 70
     1
102
RTVSPropertyOp42
 70
     1
102
RTVSPropertyOp43
 70
     1
102
RTVSPropertyOp44
 70
     1
102
RTVSPropertyOp45
 70
     1
102
RTVSPropertyOp46
 70
     1
102
RTVSPropertyOp47
 70
     1
102
RTVSPropertyOp48
 70
     1
102
RTVSPropertyOp49
 70
     1
102
RTVSPropertyOp50
 70
     1
102
RTVSPropertyOp51
 70
     0
102
RTVSPropertyOp52
 70
     0
102
RTVSPropertyOp53
 70
     1
102
RTVSPropertyOp54
 70
     1
102
RTVSPropertyOp55
 70
     1
102
RTVSPropertyOp56
 70
     1
102
RTVSPropertyOp57
 70
     1
102
RTVSPost2010Prop28
280
     0
102
RTVSPost2010PropOp28
 70
     1
102
RTVSPost2010Prop29
280
     1
102
RTVSPost2010PropOp29
 70
     1
102
RTVSPost2010Prop30
280
     1
102
RTVSPost2010PropOp30
 70
     1
102
RTVSPost2010Prop31
280
     0
102
RTVSPost2010PropOp31
 70
     1
102
RTVSPost2010Prop32
280
     0
102
RTVSPost2010PropOp32
 70
     1
102
RTVSPost2010Prop33
280
     0
102
RTVSPost2010PropOp33
 70
     1
102
RTVSPost2010Prop34
280
     0
102
RTVSPost2010PropOp34
 70
     1
102
RTVSPost2010Prop35
280
     0
102
RTVSPost2010PropOp35
 70
     1
102
RTVSPost2010Prop36
280
     0
102
RTVSPost2010PropOp36
 70
     1
102
RTVSPost2010Prop37
 90
       50
102
RTVSPost2010PropOp37
 70
     1
102
RTVSPost2010Prop38
140
0.0
102
RTVSPost2010PropOp38
 70
     1
102
RTVSPost2010Prop39
140
1.0
102
RTVSPost2010PropOp39
 70
     1
102
RTVSPost2010Prop40
 90
        0
102
RTVSPost2010PropOp40
 70
     1
102
RTVSPost2010Prop41ColorIndex
 90
       18
102
RTVSPost2010Prop41ColorRGB
 90
        0
102
RTVSPost2010PropOp41
 70
     1
102
RTVSPost2010Prop42
 90
       50
102
RTVSPost2010PropOp42
 70
     1
102
RTVSPost2010Prop43
 90
        3
102
RTVSPost2010PropOp43
 70
     1
102
RTVSPost2010Prop44ColorIndex
 90
        5
102
RTVSPost2010Prop44ColorRGB
 90
      255
102
RTVSPost2010PropOp44
 70
     1
102
RTVSPost2010Prop45
280
     0
102
RTVSPost2010PropOp45
 70
     1
102
RTVSPost2010Prop46
 90
       50
102
RTVSPost2010PropOp46
 70
     1
102
RTVSPost2010Prop47
 90
       50
102
RTVSPost2010PropOp47
 70
     1
102
RTVSPost2010Prop48
 90
       50
102
RTVSPost2010PropOp48
 70
     1
102
RTVSPost2010Prop49
280
     0
102
RTVSPost2010PropOp49
 70
     1
102
RTVSPost2010Prop50
 90
       50
102
RTVSPost2010PropOp50
 70
     1
102
RTVSPost2010Prop51ColorIndex
 90
      256
102
RTVSPost2010Prop51ColorRGB
 90
-16777216
102
RTVSPost2010PropOp51
 70
     0
102
RTVSPost2010Prop52
140
1.0
102
RTVSPost2010PropOp52
 70
     0
102
RTVSPost2010Prop53
 90
        2
102
RTVSPost2010PropOp53
 70
     1
102
RTVSPost2010Prop54
  1
strokes_ogs.tif
102
RTVSPost2010PropOp54
 70
     1
102
RTVSPost2010Prop55
280
     0
102
RTVSPost2010PropOp55
 70
     1
102
RTVSPost2010Prop56
140
1.0
102
RTVSPost2010PropOp56
 70
     1
102
RTVSPost2010Prop57
140
1.0
102
RTVSPost2010PropOp57
 70
     1
  0
XRECORD
  5
232
102
{ACAD_REACTORS
330
231
102
}
330
231
100
AcDbXrecord
280
     1
102
RTVSPropertyOp0
 70
     1
102
RTVSPropertyOp1
 70
     1
102
RTVSPropertyOp2
 70
     1
102
RTVSPropertyOp3
 70
     1
102
RTVSPropertyOp4
 70
     1
102
RTVSPropertyOp5
 70
     1
102
RTVSPropertyOp6
 70
     1
102
RTVSPropertyOp7
 70
     1
102
RTVSPropertyOp8
 70
     1
102
RTVSPropertyOp9
 70
     1
102
RTVSPropertyOp10
 70
     1
102
RTVSPropertyOp11
 70
     1
102
RTVSPropertyOp12
 70
     1
102
RTVSPropertyOp13
 70
     1
102
RTVSPropertyOp14
 70
     1
102
RTVSPropertyOp15
 70
     1
102
RTVSPropertyOp16
 70
     1
102
RTVSPropertyOp17
 70
     1
102
RTVSPropertyOp18
 70
     1
102
RTVSPropertyOp19
 70
     1
102
RTVSPropertyOp20
 70
     1
102
RTVSPropertyOp21
 70
     1
102
RTVSPropertyOp22
 70
     1
102
RTVSPropertyOp23
 70
     1
102
RTVSPropertyOp24
 70
     1
102
RTVSPropertyOp25
 70
     1
102
RTVSPropertyOp26
 70
     1
102
RTVSPropertyOp27
 70
     1
102
RTVSPropertyOp28
 70
     1
102
RTVSPropertyOp29
 70
     1
102
RTVSPropertyOp30
 70
     1
102
RTVSPropertyOp31
 70
     1
102
RTVSPropertyOp32
 70
     1
102
RTVSPropertyOp33
 70
     1
102
RTVSPropertyOp34
 70
     1
102
RTVSPropertyOp35
 70
     1
102
RTVSPropertyOp36
 70
     1
102
RTVSPropertyOp37
 70
     1
102
RTVSPropertyOp38
 70
     1
102
RTVSPropertyOp39
 70
     1
102
RTVSPropertyOp40
 70
     1
102
RTVSPropertyOp41
 70
     1
102
RTVSPropertyOp42
 70
     1
102
RTVSPropertyOp43
 70
     1
102
RTVSPropertyOp44
 70
     1
102
RTVSPropertyOp45
 70
     1
102
RTVSPropertyOp46
 70
     1
102
RTVSPropertyOp47
 70
     1
102
RTVSPropertyOp48
 70
     1
102
RTVSPropertyOp49
 70
     1
102
RTVSPropertyOp50
 70
     1
102
RTVSPropertyOp51
 70
     0
102
RTVSPropertyOp52
 70
     0
102
RTVSPropertyOp53
 70
     1
102
RTVSPropertyOp54
 70
     1
102
RTVSPropertyOp55
 70
     1
102
RTVSPropertyOp56
 70
     1
102
RTVSPropertyOp57
 70
     1
102
RTVSPost2010Prop28
280
     0
102
RTVSPost2010PropOp28
 70
     1
102
RTVSPost2010Prop29
280
     1
102
RTVSPost2010PropOp29
 70
     1
102
RTVSPost2010Prop30
280
     1
102
RTVSPost2010PropOp30
 70
     1
102
RTVSPost2010Prop31
280
     0
102
RTVSPost2010PropOp31
 70
     1
102
RTVSPost2010Prop32
280
     0
102
RTVSPost2010PropOp32
 70
     1
102
RTVSPost2010Prop33
280
     0
102
RTVSPost2010PropOp33
 70
     1
102
RTVSPost2010Prop34
280
     0
102
RTVSPost2010PropOp34
 70
     1
102
RTVSPost2010Prop35
280
     0
102
RTVSPost2010PropOp35
 70
     1
102
RTVSPost2010Prop36
280
     0
102
RTVSPost2010PropOp36
 70
     1
102
RTVSPost2010Prop37
 90
       50
102
RTVSPost2010PropOp37
 70
     1
102
RTVSPost2010Prop38
140
0.0
102
RTVSPost2010PropOp38
 70
     1
102
RTVSPost2010Prop39
140
1.0
102
RTVSPost2010PropOp39
 70
     1
102
RTVSPost2010Prop40
 90
        0
102
RTVSPost2010PropOp40
 70
     1
102
RTVSPost2010Prop41ColorIndex
 90
       18
102
RTVSPost2010Prop41ColorRGB
 90
        0
102
RTVSPost2010PropOp41
 70
     1
102
RTVSPost2010Prop42
 90
       50
102
RTVSPost2010PropOp42
 70
     1
102
RTVSPost2010Prop43
 90
        3
102
RTVSPost2010PropOp43
 70
     1
102
RTVSPost2010Prop44ColorIndex
 90
        5
102
RTVSPost2010Prop44ColorRGB
 90
      255
102
RTVSPost2010PropOp44
 70
     1
102
RTVSPost2010Prop45
280
     0
102
RTVSPost2010PropOp45
 70
     1
102
RTVSPost2010Prop46
 90
       50
102
RTVSPost2010PropOp46
 70
     1
102
RTVSPost2010Prop47
 90
       50
102
RTVSPost2010PropOp47
 70
     1
102
RTVSPost2010Prop48
 90
       50
102
RTVSPost2010PropOp48
 70
     1
102
RTVSPost2010Prop49
280
     0
102
RTVSPost2010PropOp49
 70
     1
102
RTVSPost2010Prop50
 90
       50
102
RTVSPost2010PropOp50
 70
     1
102
RTVSPost2010Prop51ColorIndex
 90
      256
102
RTVSPost2010Prop51ColorRGB
 90
-16777216
102
RTVSPost2010PropOp51
 70
     0
102
RTVSPost2010Prop52
140
1.0
102
RTVSPost2010PropOp52
 70
     0
102
RTVSPost2010Prop53
 90
        2
102
RTVSPost2010PropOp53
 70
     1
102
RTVSPost2010Prop54
  1
strokes_ogs.tif
102
RTVSPost2010PropOp54
 70
     1
102
RTVSPost2010Prop55
280
     0
102
RTVSPost2010PropOp55
 70
     1
102
RTVSPost2010Prop56
140
1.0
102
RTVSPost2010PropOp56
 70
     1
102
RTVSPost2010Prop57
140
1.0
102
RTVSPost2010PropOp57
 70
     1
  0
XRECORD
  5
252
102
{ACAD_REACTORS
330
251
102
}
330
251
100
AcDbXrecord
280
     1
102
RTVSPropertyOp0
 70
     1
102
RTVSPropertyOp1
 70
     1
102
RTVSPropertyOp2
 70
     1
102
RTVSPropertyOp3
 70
     1
102
RTVSPropertyOp4
 70
     1
102
RTVSPropertyOp5
 70
     1
102
RTVSPropertyOp6
 70
     1
102
RTVSPropertyOp7
 70
     1
102
RTVSPropertyOp8
 70
     1
102
RTVSPropertyOp9
 70
     1
102
RTVSPropertyOp10
 70
     1
102
RTVSPropertyOp11
 70
     1
102
RTVSPropertyOp12
 70
     1
102
RTVSPropertyOp13
 70
     1
102
RTVSPropertyOp14
 70
     1
102
RTVSPropertyOp15
 70
     1
102
RTVSPropertyOp16
 70
     1
102
RTVSPropertyOp17
 70
     1
102
RTVSPropertyOp18
 70
     1
102
RTVSPropertyOp19
 70
     1
102
RTVSPropertyOp20
 70
     1
102
RTVSPropertyOp21
 70
     1
102
RTVSPropertyOp22
 70
     1
102
RTVSPropertyOp23
 70
     1
102
RTVSPropertyOp24
 70
     1
102
RTVSPropertyOp25
 70
     1
102
RTVSPropertyOp26
 70
     1
102
RTVSPropertyOp27
 70
     1
102
RTVSPropertyOp28
 70
     1
102
RTVSPropertyOp29
 70
     1
102
RTVSPropertyOp30
 70
     1
102
RTVSPropertyOp31
 70
     1
102
RTVSPropertyOp32
 70
     1
102
RTVSPropertyOp33
 70
     1
102
RTVSPropertyOp34
 70
     1
102
RTVSPropertyOp35
 70
     1
102
RTVSPropertyOp36
 70
     1
102
RTVSPropertyOp37
 70
     1
102
RTVSPropertyOp38
 70
     1
102
RTVSPropertyOp39
 70
     1
102
RTVSPropertyOp40
 70
     1
102
RTVSPropertyOp41
 70
     1
102
RTVSPropertyOp42
 70
     1
102
RTVSPropertyOp43
 70
     1
102
RTVSPropertyOp44
 70
     1
102
RTVSPropertyOp45
 70
     1
102
RTVSPropertyOp46
 70
     1
102
RTVSPropertyOp47
 70
     1
102
RTVSPropertyOp48
 70
     1
102
RTVSPropertyOp49
 70
     1
102
RTVSPropertyOp50
 70
     1
102
RTVSPropertyOp51
 70
     0
102
RTVSPropertyOp52
 70
     0
102
RTVSPropertyOp53
 70
     1
102
RTVSPropertyOp54
 70
     1
102
RTVSPropertyOp55
 70
     1
102
RTVSPropertyOp56
 70
     1
102
RTVSPropertyOp57
 70
     1
102
RTVSPost2010Prop28
280
     0
102
RTVSPost2010PropOp28
 70
     1
102
RTVSPost2010Prop29
280
     1
102
RTVSPost2010PropOp29
 70
     1
102
RTVSPost2010Prop30
280
     1
102
RTVSPost2010PropOp30
 70
     1
102
RTVSPost2010Prop31
280
     0
102
RTVSPost2010PropOp31
 70
     1
102
RTVSPost2010Prop32
280
     0
102
RTVSPost2010PropOp32
 70
     1
102
RTVSPost2010Prop33
280
     0
102
RTVSPost2010PropOp33
 70
     1
102
RTVSPost2010Prop34
280
     0
102
RTVSPost2010PropOp34
 70
     1
102
RTVSPost2010Prop35
280
     0
102
RTVSPost2010PropOp35
 70
     1
102
RTVSPost2010Prop36
280
     0
102
RTVSPost2010PropOp36
 70
     1
102
RTVSPost2010Prop37
 90
       50
102
RTVSPost2010PropOp37
 70
     1
102
RTVSPost2010Prop38
140
0.0
102
RTVSPost2010PropOp38
 70
     1
102
RTVSPost2010Prop39
140
1.0
102
RTVSPost2010PropOp39
 70
     1
102
RTVSPost2010Prop40
 90
        0
102
RTVSPost2010PropOp40
 70
     1
102
RTVSPost2010Prop41ColorIndex
 90
       18
102
RTVSPost2010Prop41ColorRGB
 90
        0
102
RTVSPost2010PropOp41
 70
     1
102
RTVSPost2010Prop42
 90
       50
102
RTVSPost2010PropOp42
 70
     1
102
RTVSPost2010Prop43
 90
        3
102
RTVSPost2010PropOp43
 70
     1
102
RTVSPost2010Prop44ColorIndex
 90
        5
102
RTVSPost2010Prop44ColorRGB
 90
      255
102
RTVSPost2010PropOp44
 70
     1
102
RTVSPost2010Prop45
280
     0
102
RTVSPost2010PropOp45
 70
     1
102
RTVSPost2010Prop46
 90
       50
102
RTVSPost2010PropOp46
 70
     1
102
RTVSPost2010Prop47
 90
       50
102
RTVSPost2010PropOp47
 70
     1
102
RTVSPost2010Prop48
 90
       50
102
RTVSPost2010PropOp48
 70
     1
102
RTVSPost2010Prop49
280
     0
102
RTVSPost2010PropOp49
 70
     1
102
RTVSPost2010Prop50
 90
       50
102
RTVSPost2010PropOp50
 70
     1
102
RTVSPost2010Prop51ColorIndex
 90
      256
102
RTVSPost2010Prop51ColorRGB
 90
-16777216
102
RTVSPost2010PropOp51
 70
     0
102
RTVSPost2010Prop52
140
1.0
102
RTVSPost2010PropOp52
 70
     0
102
RTVSPost2010Prop53
 90
        2
102
RTVSPost2010PropOp53
 70
     1
102
RTVSPost2010Prop54
  1
strokes_ogs.tif
102
RTVSPost2010PropOp54
 70
     1
102
RTVSPost2010Prop55
280
     0
102
RTVSPost2010PropOp55
 70
     1
102
RTVSPost2010Prop56
140
1.0
102
RTVSPost2010PropOp56
 70
     1
102
RTVSPost2010Prop57
140
1.0
102
RTVSPost2010PropOp57
 70
     1
  0
ENDSEC
  0
EOF
